#TITLE:Deserve My Depression;
#ARTIST:Tom Orlando;
#GENRE:HIP-HOP;
#MUSIC:Deserve My Depression.ogg;
#BANNER:Deserve My Depression.png;
#BACKGROUND:Deserve My Depression-bg.png;
#SAMPLESTART:50.682;
#SAMPLELENGTH:15;
#OFFSET:-0.119;
#BPMS:0=151.939;
#BGSTAGE:4;
#DISPLAYBPM:151;

//--------------- dance-single - XLev450X-bSP ----------------
#NOTES:
     dance-single:
     XLev450X:
     Beginner:
     2:
     0,0,0,0,0:
0000
0000
0000
0000
,
0000
0000
0000
0000
,
0000
0000
0000
0000
,
0000
0000
0000
0000
,
0000
0000
0000
0000
,
0000
0000
0000
0000
,
0000
0000
0000
0000
,
0000
0000
0000
0000
,
0000
0000
0000
0000
,
0000
0000
0000
0000
,
0000
0000
0000
0000
,
0000
0000
0000
0000
,
0000
0000
0000
0000
,
0000
0000
0000
0000
,
0000
0000
0000
0000
,
0000
0000
0000
0000
,
0001
0000
0000
0000
,
0000
0000
0000
0000
,
0100
0000
0000
0000
,
0000
0000
0000
0000
,
1000
0000
0000
0000
,
0000
0000
0000
0000
,
0010
0000
0000
0000
,
0000
0000
0000
0000
,
0100
0000
0001
0000
,
0100
0000
0000
0000
,
1000
0000
0010
0000
,
1000
0000
0000
0000
,
0100
0000
0010
0000
,
0100
0000
0000
0000
,
0001
0000
0010
0000
,
0001
0000
0000
0000
,
1000
0000
1000
0000
,
1000
0000
0000
0000
,
0001
0000
0001
0000
,
0001
0000
0000
0000
,
0010
0000
0010
0000
,
0010
0000
0000
0000
,
0100
0000
0100
0000
,
0100
0000
0000
0000
,
1001
0000
0000
0000
,
0110
0000
0000
0000
,
0001
0000
0000
0000
,
1000
0000
0000
0000
,
0100
0000
0000
0000
,
0010
0000
0000
0000
,
0001
0000
0001
0000
,
1000
0000
0000
0000
,
0100
0100
0000
0000
,
0010
0010
0000
0000
,
0001
0001
0000
0000
,
1000
1000
0000
0000
,
1000
0001
1000
0000
,
0010
0100
0010
0000
,
1000
0100
1000
0000
,
0010
0001
0010
0000
,
0110
0000
0000
0000
,
0000
0000
0000
0000
,
0010
0000
0000
0000
,
0000
0000
0000
0000
,
0100
0000
0000
0000
,
0000
0000
0000
0000
,
1001
0000
0000
0000
;

//--------------- dance-single - XLev450X-BSP ----------------
#NOTES:
     dance-single:
     XLev450X:
     Easy:
     4:
     0,0,0,0,0:
0000
0000
0000
0000
,
0000
0000
0000
0000
,
0000
0000
0000
0000
,
0000
0000
0000
0000
,
0000
0000
0000
0000
,
0000
0000
0000
0000
,
0000
0000
0000
0000
,
0000
0000
0000
0000
,
0000
0000
0000
0000
,
0000
0000
0000
0000
,
0000
0000
0000
0000
,
0000
0000
0000
0000
,
0000
0000
0000
0000
,
0000
0000
0000
0000
,
0000
0000
0000
0000
,
0000
0000
0000
0000
,
1000
0000
0001
0000
,
0010
0000
0000
0000
,
0100
0000
0001
0000
,
1000
0000
0000
0000
,
0010
0000
0001
0000
,
1000
0000
0010
0000
,
0100
0000
0000
0000
,
0001
0000
1000
0000
,
0010
0000
0000
0000
,
0100
0000
0000
0000
,
0001
0000
1000
0000
,
0010
0100
0001
0000
,
1000
0000
0010
0000
,
0100
0001
0000
0000
,
1000
0000
0010
0000
,
0100
0001
1000
0000
,
2002
0000
0000
3003
,
0220
0000
0000
0330
,
0022
0000
0000
0033
,
2200
0000
0000
3300
,
0202
0000
0000
0303
,
2020
0000
0000
3030
,
2002
0000
0000
3003
,
2200
3300
0022
0033
,
2002
3003
0100
0001
,
1000
0010
0100
0000
,
0001
1000
0010
0100
,
0001
1000
0010
0000
,
0100
0000
0001
1000
,
0010
0100
0000
0001
,
1000
0000
0100
0010
,
0001
0000
1000
0000
,
0010
0000
0100
0010
,
0001
0000
1000
0010
,
0100
0000
0001
1000
,
0010
0100
0001
0000
,
1000
0000
0010
0000
,
0100
0001
1000
0000
,
0010
0000
0100
0000
,
0001
1000
0010
0100
,
2002
0000
0000
3003
,
0220
0000
0000
0330
,
0022
0000
0033
2200
,
0000
0000
0000
3300
,
0220
0000
0000
0330
,
2002
0000
0000
3003
,
2020
0000
3030
0202
,
0000
0000
0000
0000
,
0303
0000
0000
0000
;

//--------------- dance-single - XLev450X-DSP ----------------
#NOTES:
     dance-single:
     XLev450X:
     Medium:
     7:
     0,0,0,0,0:
0000
0000
0000
0000
,
0000
0000
0000
0000
,
0000
0000
0000
0000
,
0000
0000
0000
0000
,
0000
0000
0000
0000
,
0000
0000
0000
0000
,
0000
0000
0000
0000
,
0000
0000
0000
0000
,
0000
0000
0000
0000
,
0000
0000
0000
0000
,
0000
0000
0000
0000
,
0000
0000
0000
0000
,
0000
0000
0000
0000
,
0000
0000
0000
0000
,
0000
0000
0000
0000
,
0000
0000
0000
0000
,
0010
0100
0001
0000
,
1000
0010
0100
0000
,
0010
0001
1000
0010
,
0100
0000
0001
0000
0010
0001
0010
0100
,
1000
0000
0010
0000
,
0100
0010
0100
0000
,
0001
0100
0010
1000
,
0001
0000
0100
0000
0010
1000
0010
0001
,
0200
0000
0000
0300
0002
0000
0000
0003
,
1000
0001
0100
0000
,
0010
1000
0001
0100
,
0010
0000
1000
0000
0010
1000
0100
0000
,
0010
0001
1000
0010
,
0100
0001
0000
1000
,
0010
0100
0001
1000
,
0010
0000
0100
0000
0010
0001
0010
0100
,
2002
3003
0100
0010
,
0001
0100
0010
0100
,
0001
0000
0100
0000
0001
0100
0010
0000
,
0100
0010
1000
0000
0010
0001
0100
0000
,
0010
0000
0100
0000
0010
0100
1000
0000
,
0001
0000
0100
0000
0001
0010
1000
0000
,
0010
0100
0001
1000
,
0100
0000
0010
0000
0100
1000
0010
0001
,
0110
0000
0001
0100
,
0010
0100
0010
1000
,
0001
0010
0001
1000
,
0100
0000
1000
0000
0010
0001
1000
0100
,
0001
0100
0010
1000
,
0001
0010
0000
1000
,
0001
0010
0001
0100
,
0001
0000
0010
0000
0100
1000
0010
0000
,
0100
0000
0001
0100
,
0010
0100
0001
0010
,
0000
0010
0001
1000
,
0010
0000
1000
0000
0100
0001
0010
0000
,
0001
0100
0001
0010
,
0100
0000
1000
0000
0100
0010
1000
0000
,
0001
0010
0001
1000
,
0010
0000
0100
0000
0010
1000
0100
0001
,
0220
0000
0000
0330
,
2002
0000
0000
0000
3003
0100
0001
0000
,
2200
0000
0000
0000
0000
3300
0022
0000
,
0000
0000
0000
0033
,
0202
0000
0000
0303
,
2020
0000
0000
3030
,
0220
0000
0330
2002
,
0000
0000
0000
0000
,
3003
0000
0000
0000
;

//--------------- dance-single - XLev450X-ESP ----------------
#NOTES:
     dance-single:
     XLev450X:
     Hard:
     13:
     0,0,0,0,0:
0000
0000
0000
0000
,
0000
0000
0000
0000
,
0000
0000
0000
0000
,
0000
0000
0000
0000
,
0000
0000
0000
0000
,
0000
0000
0000
0000
,
0000
0000
0000
0000
,
0000
0000
0000
0000
,
0000
0000
0000
0000
,
0000
0000
0000
0000
,
0000
0000
0000
0000
,
0000
0000
0000
0000
,
0000
0000
0000
0000
,
0000
0000
0000
0000
,
0000
0000
0000
0000
,
0000
0000
0000
0000
0000
0000
0000
0000
0001
0010
0100
1000
0100
0010
0100
1000
,
0010
0000
0000
0010
0100
0010
0100
0010
,
1000
0001
1000
0100
0010
0100
2000
0000
,
3000
0000
1000
0100
0010
0100
0010
0001
,
0010
0100
1000
0100
1000
0010
0200
0000
,
0300
0000
1000
0001
0100
0010
1000
0010
,
1000
0001
0100
0000
0000
0000
1000
0010
,
1000
0100
0010
0100
1000
0001
0010
0001
,
0010
0100
0010
0000
0000
0010
0100
0001
,
1000
0010
0100
0001
0100
0010
0100
0001
,
0010
0100
1000
0000
0000
0000
0100
0001
,
0100
0010
1000
0100
1000
0001
0100
0010
,
0100
0001
0010
0000
0000
0000
0010
0001
,
1000
0100
1000
0001
1000
0100
0010
0001
,
1000
0001
0010
0000
0000
1000
0100
0010
,
0100
0001
0010
0100
1000
0100
0010
0100
,
0010
0000
0001
0000
1000
0000
0000
0000
0010
1000
0100
0010
0100
0010
0001
1000
,
0010
0000
0000
0000
0000
0000
0100
1000
0001
1000
0001
1000
,
0010
0100
0010
1000
0001
0010
0100
1000
0100
0010
0100
1000
,
0001
0000
0000
0000
0100
0000
0000
0000
0001
0000
0000
0000
0100
0000
0000
0000
0001
0000
0000
0000
0010
0000
0000
0000
0100
0000
0000
0000
0000
0000
1000
0000
0000
0000
0000
0000
0100
0000
0000
0010
0000
0000
0001
0000
0000
0010
0000
0000
,
0100
0000
1000
0000
0010
0000
0100
0000
0001
0000
0100
0000
0010
0000
0100
1000
,
0001
0100
0010
1000
0001
0010
1000
0000
0001
0000
0010
0000
0001
0000
0010
0000
,
0001
1000
0100
1000
0100
1000
0001
0100
,
0010
1000
0001
1000
0001
0100
0010
1000
,
0010
1000
0001
0010
0100
1000
0010
1000
,
0000
0000
0000
0001
1000
0010
0100
0001
,
1000
0100
0010
0001
0010
0001
0100
0010
,
1000
0001
0010
0100
0010
0100
0010
0001
,
1000
0010
1000
0100
1000
0100
0010
0001
,
0100
0000
1000
0010
0100
0010
1000
0001
,
0100
0010
1000
0001
0100
0010
1000
0001
,
0100
0000
0100
0010
0100
0001
1000
0010
,
0100
0010
1000
0100
1000
0010
0100
0010
,
0100
0000
0000
0000
1000
0001
1000
0001
,
0100
0001
1000
0010
0100
0001
0010
0001
,
0000
0000
0010
0000
1000
0000
0001
0000
0010
1000
0100
0000
0010
0000
0001
0000
,
0100
0010
1000
0010
1000
0100
0010
0001
,
0010
0000
0010
0001
1000
0001
0100
0001
,
1000
0010
0100
0010
0100
0010
1000
0001
,
0010
0000
0000
0000
0000
0001
0100
0010
,
0100
0000
0000
0000
0000
0000
1000
0000
0001
0100
0010
1000
0010
0100
0001
0010
,
0002
0000
0000
0000
0000
0000
0000
0003
,
2000
0000
0000
0000
0000
0000
0000
3000
0000
0000
0100
0000
0010
0000
0000
0000
,
2002
0000
0000
0000
0000
3003
0220
0000
,
0000
0000
0000
0000
0000
0000
0000
0000
0000
0000
0000
0000
0000
0330
0000
0000
,
2000
0000
0000
0000
0000
0000
0000
3000
,
0020
0000
0000
0000
0000
0000
0000
0030
,
2200
0000
0000
0000
0000
0000
0000
0000
0000
0000
0000
0000
0000
0000
0000
0000
0000
3300
0000
0000
0000
0000
0000
0000
0022
0000
0000
0000
0000
0000
0000
0000
,
0000
0000
0000
0000
,
0000
0033
0000
0000
;
