#TITLE:Desertstroke;
#ARTIST:XLev450X;
#BANNER:Desertstroke.png;
#BACKGROUND:Desertstroke-bg.png;
#MUSIC:Desertstroke.ogg;
#OFFSET:-0.058;
#SAMPLESTART:70.344;
#SAMPLELENGTH:15;
#BPMS:0=140;
#STAGE:17;

//--------------- dance-single - XLev450X-bSP ----------------
#NOTES:
     dance-single:
     XLev450X:
     Beginner:
     4:
     0,0,0,0,0:
0000
0000
0000
0000
,
0000
0000
0000
0000
,
0000
0000
0000
0000
,
0000
0000
0000
0000
,
0000
0000
0000
0000
,
0001
1000
0001
0000
,
0010
0100
0010
0000
,
0001
0010
0001
0010
,
0200
0000
0000
0300
,
1000
0001
0100
0000
,
1000
0010
0001
0000
,
0010
1000
0001
0000
,
0100
0001
1000
0010
,
0100
0000
1000
0001
,
0010
0000
1000
0001
,
0100
0000
0010
1000
,
0001
0000
0010
0100
,
0001
1000
0001
0100
,
0010
0000
0001
0000
,
1000
0010
0100
0010
,
1001
0000
0001
1000
,
0010
0000
0001
1000
,
0010
0000
0100
0001
,
1000
0000
1000
0001
,
0010
0000
0100
0001
,
1000
0000
0001
0001
,
1000
0010
0100
0000
,
0001
0010
1000
0000
,
0001
0100
0010
1000
,
0001
0000
1000
0001
,
0010
0000
0100
0001
,
1000
0000
0010
0100
,
0001
0000
1000
0001
,
0010
0000
0100
1000
,
0001
0000
0100
0010
,
1000
0000
0001
1000
,
0010
0000
0001
1000
,
0001
0000
0010
0000
,
1000
0000
0100
0000
,
1000
0001
0010
0000
,
0100
0001
1000
0000
,
0010
0010
0010
0000
,
1000
0100
0001
0000
,
1000
0001
0100
0000
,
0010
0001
0010
0000
,
1000
0000
0001
0010
,
0100
0000
0001
1000
,
0010
0000
1000
0100
,
0001
0010
0100
1000
,
0101
0000
1010
0000
,
0001
0001
0001
0000
,
1000
1000
1000
0000
,
0010
1000
0001
0000
,
0100
0010
1000
0000
,
0001
1000
0010
0100
,
0001
0020
0000
0030
,
1000
0001
0200
0300
,
0001
0010
0200
0300
,
1000
0001
2000
3000
,
0220
0000
0000
0330
,
1001
0000
0000
0000
;

//--------------- dance-single - XLev450X-BSP ----------------
#NOTES:
     dance-single:
     XLev450X:
     Easy:
     7:
     0,0,0,0,0:
0000
0000
0000
0000
,
0000
0000
0000
0000
,
0000
0000
0000
0000
,
0000
0000
0000
0000
,
0000
0000
0000
0000
,
1000
0001
0010
0100
,
1000
0000
0001
0000
1000
0000
0010
0001
,
0010
0000
1000
0000
0010
0000
0100
0001
,
0000
0000
0000
0000
,
1000
0001
0100
0000
0010
0001
0010
0000
,
1000
0010
0100
0000
0001
0000
1000
0000
,
0001
0100
0010
0000
1000
0000
0100
0000
,
2002
0000
0000
3003
,
1000
0001
0010
0001
,
1000
0010
0100
1000
,
0001
0000
1000
0010
,
0100
0000
0001
1000
,
0001
0010
0001
0000
1000
0000
0010
0000
,
0100
0010
0100
0000
1000
0010
1000
0000
,
0001
1000
0010
0100
,
0001
0000
1000
0001
,
0010
0000
1000
0001
0100
0000
0010
0000
,
0010
0001
0010
0000
1000
0010
1000
0100
,
0001
0010
1000
0000
,
0001
0100
0010
0000
,
1000
0001
0100
0000
0010
0001
0010
0000
,
1000
0010
1000
0000
0001
0000
1000
0000
,
0100
0001
1000
0000
0010
0100
0001
1000
,
0000
0000
0001
0000
0000
1000
0000
0000
0010
0000
0000
0000
0100
0000
0001
0000
,
1000
0010
0001
1000
,
0001
0100
0010
0000
1000
0000
0001
0000
,
1000
0000
0010
0100
,
0001
0000
0001
1000
,
0010
0100
0001
0000
,
1000
0001
0010
0000
,
1000
0010
0100
0000
,
0001
0010
1000
0000
,
0001
0000
1000
0001
0100
0000
0010
0000
,
0001
0000
0010
0001
0010
0000
1000
0000
,
0001
0000
0100
0010
,
2002
0000
0000
0000
0000
3003
0220
0330
,
0001
1000
0001
0000
,
1000
0000
0001
0000
0100
0010
1000
0000
,
0001
0010
1000
0000
,
0010
1000
0001
0100
,
0010
0001
0010
0000
1000
0010
0100
0000
,
0001
0010
1000
0001
,
0010
0000
1000
0001
,
0100
0000
0001
1000
,
0101
0000
1010
0000
,
0010
0001
0010
0000
1000
0010
1000
0000
,
0001
0100
0010
1000
,
0010
1000
0010
0000
0100
0001
0100
0000
,
0001
1000
0010
0000
,
0001
1000
0010
0100
,
0001
0000
1000
0010
0100
0000
0001
0000
,
0010
0000
1000
0000
0001
1000
0010
0000
,
0100
0000
0001
1000
,
0001
0100
0001
0000
1000
0010
1000
0000
,
2002
0000
0000
3003
,
0110
0000
0000
0000
;

//--------------- dance-single - XLev450X-DSP ----------------
#NOTES:
     dance-single:
     XLev450X:
     Medium:
     10:
     0,0,0,0,0:
0000
0000
0000
0000
,
0000
0000
0000
0000
,
0000
0000
0000
0000
,
0000
0000
0000
0000
,
0000
0000
0000
0000
,
0010
0001
0010
0000
1000
0010
1000
0000
,
0100
0001
0100
0000
1000
0010
1000
0000
,
0001
0100
0010
0000
1000
0001
0100
0000
,
1001
0000
0000
0000
,
0001
1000
0001
0000
0010
0001
0010
0000
,
1000
0010
0100
0000
0001
0000
1000
0000
,
0010
0001
1000
0000
0010
0100
0001
0000
,
0110
0000
0000
0000
,
1000
0001
0100
0010
,
1000
0000
0001
0000
0100
0010
0001
0000
,
1000
0010
1000
0001
,
0100
0001
0100
0000
1000
0000
0010
0000
,
1000
0010
1000
0000
0100
0001
0100
0000
,
0010
0000
0100
0000
1000
0001
1000
0000
,
0010
0000
0000
0000
1000
0000
0000
0000
0001
0000
0000
0000
0100
0000
0000
0020
,
0000
0000
0000
0000
0000
0030
0000
1000
0000
0100
0000
0001
0100
0000
0010
0000
,
1000
0001
0100
0000
0010
0001
0010
0000
,
1000
0010
1000
0000
0001
0000
0100
0000
,
0001
0100
0001
0000
0010
0000
1000
0000
,
0001
1000
0001
0000
0100
0000
0000
0000
,
0001
0000
1000
0000
0010
0100
0001
0000
,
0010
0001
1000
0010
,
0100
0001
0100
0000
0010
0000
1000
0000
,
0000
0000
0101
0000
0000
1100
0000
0000
0011
0000
0000
0110
0000
0000
1001
0000
,
1000
0001
0100
0000
0010
0000
1000
0000
,
0010
0001
0010
0000
1000
0000
0001
0000
,
0100
0010
1000
0000
0001
0000
0010
0000
,
1000
0001
0100
0010
1000
0000
0000
0000
,
0001
0100
0010
0000
0001
0000
1000
0000
,
0001
0100
0010
0000
1000
0000
0001
0000
,
0100
0010
1000
0000
0001
0100
0001
0000
,
0000
0000
1000
0000
0000
0010
0000
0000
0100
0000
0001
0000
1000
0000
0000
0000
,
0010
0000
0100
0000
0010
0001
0010
0000
,
1000
0000
0001
0000
0100
0010
1000
0000
,
1000
0001
0100
0010
1000
0001
0100
0010
,
1000
0000
0000
0001
0000
0000
0100
0000
0010
0000
1000
0001
0200
0000
0300
0000
,
1000
0000
0001
0000
0100
0000
0000
0000
0010
0000
0000
0001
0000
0000
1000
0000
,
0000
0010
0000
1000
0001
0100
0010
0001
,
1000
0000
0000
0001
0000
0000
0100
0000
0000
0000
0010
0000
0000
0000
1000
0000
,
0100
0000
0001
0000
0010
0000
0100
0000
0000
0000
0010
0000
0000
0001
0000
0000
,
1000
0000
0010
0000
1000
0000
0000
0000
0001
0000
0000
0100
0000
0000
0010
0000
,
0000
1000
0000
0001
0100
0010
1000
0001
,
0100
0000
0000
0001
0000
0000
1000
0000
0000
0000
0010
0000
0000
0000
0100
0000
,
0000
0001
0000
1000
0001
0100
0010
1000
,
0001
0000
0100
0000
1000
0001
0100
1000
,
0010
0001
0010
0000
1000
0010
1000
0000
,
0100
0001
0100
0010
1000
0000
2002
3003
,
0010
0001
0010
0000
1000
0010
1000
0000
,
0100
0001
1000
0010
0100
0001
1000
0000
,
0001
0000
0010
0000
1000
0001
0100
0000
,
0010
0000
1000
0000
0001
0000
0200
0000
0000
0000
0000
0000
0000
0000
0000
0300
,
0001
0000
1000
0000
0010
0000
0200
0000
0000
0000
0000
0000
0000
0000
0000
0300
,
0001
0000
1000
0000
0010
0000
0200
0000
0000
0000
0000
0000
0000
0000
0000
0300
,
0010
1000
0001
0100
0010
1000
0100
0010
,
2002
0000
0000
0000
0000
0000
0000
3003
,
0110
0000
0000
0000
;

//--------------- dance-single - XLev450X-ESP ----------------
#NOTES:
     dance-single:
     XLev450X:
     Hard:
     16:
     0,0,0,0,0:
0000
0000
0000
0000
,
0000
0000
0000
0000
,
0000
0000
0000
0000
,
0000
0000
0000
0000
,
0000
0000
0000
0000
,
1000
0001
1000
0000
0010
0000
1000
0000
0001
0100
0001
0000
1000
0000
0001
0000
,
0100
0001
0100
0000
0010
0000
1000
0000
0100
0010
0100
0000
0010
0000
0100
0000
,
0001
0010
0001
0000
1000
0000
0010
0000
0100
1000
0100
0000
0001
0000
0100
0000
,
0010
0001
0010
0000
1000
0000
0010
0001
0000
0100
0000
0001
0000
1000
0001
0000
,
0010
0100
0010
0000
1000
0000
0010
0000
1000
0010
1000
0000
0010
0000
0100
0000
,
0001
0010
0001
0000
1000
0000
0010
0000
0100
0010
0100
0000
1000
0000
0001
0000
,
0010
0001
0010
0000
1000
0000
0010
0000
0100
0001
0100
0000
0010
0000
1000
0000
,
0010
0000
1000
0001
0100
0000
0010
0000
0100
1000
0010
0000
0001
0000
0000
0000
1000
0000
0000
0000
0000
0001
0000
0000
,
1000
0000
0001
0000
0100
0001
0010
0000
,
1000
0000
0001
0000
0010
0001
0010
0000
,
1000
0000
0010
0000
0100
0001
1000
0000
,
0010
0000
0100
0000
0001
0000
0100
0000
1000
0001
0000
0010
0100
0000
1000
0000
,
0001
0000
0010
0001
0010
0000
1000
0010
1000
0000
0001
0000
0100
0000
0010
0000
,
0001
0000
0100
0001
0100
0000
0010
1000
0010
0000
0100
0000
0001
0000
0100
0000
,
0010
0000
0001
0010
0001
0000
1000
0010
1000
0000
0001
0000
0100
0000
0010
1000
,
0000
0000
0001
0000
0100
0000
0000
0010
0000
0001
0000
1000
0010
0000
0100
0000
,
0001
0000
1000
0000
0001
0100
0010
0001
,
1000
0000
0000
0010
0000
0000
0100
0000
0001
0000
1000
0001
1000
0000
0010
0000
,
0100
0000
0000
0010
0000
0000
0001
0000
1000
0000
0001
0000
0100
0000
0010
0000
,
0001
0010
0001
0000
1000
0000
0010
0000
0001
0100
1000
0100
0010
0000
0001
0000
,
1000
0001
0100
0000
0010
0001
1000
0010
,
0100
0000
0001
0000
0010
0000
0001
0000
1000
0000
0010
0100
0001
0000
1000
0000
,
0010
0000
0000
0100
0000
0000
0001
0000
0010
0000
0001
0000
1000
0000
0010
0000
,
0000
0000
1000
0000
0000
0100
0000
0000
0001
0000
0000
0100
0000
0000
1000
0000
,
0001
1000
0000
0100
0000
0001
0000
1000
0010
0000
0001
0000
1000
0010
1000
0000
,
0010
0001
0010
1000
0000
0100
0000
0001
0000
1000
0010
0000
0100
0000
0001
0000
,
1000
0000
0000
0010
0000
0000
0100
0000
0001
0000
1000
0000
0010
0001
0100
1000
,
0001
0000
0000
0100
0000
0000
0010
0000
1000
0001
0000
0001
1000
0000
0100
0000
,
0001
1000
0000
0010
0000
0001
0000
0100
1000
0000
0010
0000
0100
0000
0001
0000
,
1000
0001
0000
0010
0000
1000
0000
0001
1000
0000
0010
0100
0001
0000
1000
0000
,
0010
0000
0000
0001
0000
0000
1000
0000
0010
0000
0100
0000
0001
0000
0010
0000
,
0001
0000
1000
0010
1000
0000
0001
0000
0100
0000
0010
0000
1000
0000
0100
0000
,
0001
0010
0001
0000
0010
0000
1000
0000
0010
1000
0010
0000
0100
0000
0010
0000
,
0100
0010
0100
0000
1000
0000
0100
0000
0001
0010
0001
0000
0100
0000
1000
0000
,
0010
0100
0001
0100
0010
1000
0010
0100
0001
0100
0010
0100
0001
1000
0001
0010
,
1000
0000
0000
0000
0000
0000
0000
0000
0000
0000
0000
0000
0000
0000
0000
0000
0000
0000
0000
0000
0000
0000
0000
0000
0000
0000
0000
0000
0000
0000
0000
0000
0000
0000
0000
0000
0001
0000
0000
0000
0000
0000
0000
0000
0000
0000
0000
0000
0000
0000
0000
0000
0000
0000
0000
0000
0000
0000
0000
0000
0000
0000
0000
0000
0000
0000
0000
0000
0000
0000
0000
0000
0100
0000
0000
0000
0000
0000
0000
0000
0000
0000
0000
0000
0000
0000
0000
0000
0000
0000
0000
0000
0000
0000
0000
0000
0010
0000
0000
0000
0000
0000
0000
0000
0000
0000
0000
0000
0000
0000
0000
0000
0000
0000
0000
0000
0000
0000
0000
0000
0000
0000
0000
1000
0000
0000
0000
0000
0100
0000
0000
0000
0001
0000
0000
0000
0000
0000
0000
0000
0000
0000
0000
0000
0010
0000
0000
0000
0000
0000
0000
0000
0000
0000
0000
0000
0001
0000
0000
0000
0000
0000
0000
0000
0000
0000
0000
0000
1000
0000
0000
0000
0000
0000
0000
0000
0000
0000
0000
0000
0100
0000
0000
0000
0000
0000
0000
0000
0000
0000
0000
0000
,
0001
0000
0010
0001
0010
0000
1000
0100
1000
0000
0000
0001
0000
0000
1000
0000
,
0010
0000
1000
0000
0001
0000
0000
0100
0000
0000
0001
0000
1000
0000
0001
0010
,
0001
0000
1000
0010
1000
0000
0000
0001
0000
0000
0100
0000
0001
1000
0000
0000
,
0010
0000
0100
0000
0001
0000
0000
1000
0000
0000
0001
0000
0100
0000
0001
0000
,
1000
0000
0000
0000
0010
0001
0000
0000
1000
0010
0000
0000
0100
0001
0000
0000
,
1000
0000
0000
0000
0000
0000
0001
0000
0000
0000
0000
0000
0100
0000
0000
0010
0000
0000
1000
0000
0000
0001
0000
0000
0100
0000
0000
0001
0000
0000
0000
0000
0000
0010
0000
0000
0000
0000
0000
0000
0000
0000
0010
0000
1000
0000
0001
0000
,
0100
0000
0001
0000
1000
0000
0010
0200
0000
0000
0300
0000
0001
0000
1000
0000
,
0010
1000
0001
0010
0001
0010
0100
1000
0001
0100
0001
1000
0010
1000
0001
0100
,
0001
0000
0000
0100
0000
0000
0001
0000
0000
1000
0000
0000
0010
0000
0000
0100
0000
0000
0010
0000
0000
0100
0000
0000
0001
0000
0000
0010
0000
0000
0001
0000
1000
0000
0010
0000
0100
0000
0001
0000
0010
0000
0100
0000
0010
0000
0100
0000
,
0001
0000
1000
0010
0100
0000
0001
1000
0010
0000
0001
0000
0010
0000
0001
0000
,
1000
0000
0010
0000
0001
0000
1000
0010
1000
0000
0001
0100
0000
0001
1000
0000
,
0010
0000
0100
0001
1000
0000
0010
0100
0001
0000
1000
0000
0010
0000
0001
0000
,
1000
0000
0010
0000
0100
0000
0001
0000
1000
0001
0100
0010
2000
0000
0000
0000
,
3001
0000
0010
0000
0001
0000
1000
0000
0010
0100
0010
0000
1000
0000
0010
0000
,
0100
0000
0001
0100
0001
0000
1000
0000
0002
0000
0000
0000
0010
0000
0000
0003
,
0100
0000
0001
0000
1000
0001
1000
0000
0020
0000
0000
0000
0001
0000
0000
0030
,
1000
0001
0100
0010
2000
0000
0100
3000
,
0100
1000
0001
0010
0100
1000
0010
0100
0001
0100
0010
0100
0001
0010
0100
1000
,
0220
0000
0000
0000
0000
0000
0000
0330
,
1001
0000
0000
0000
;
