#TITLE:DanceDanceRevolution;
#MUSIC:DanceDanceRevolution.ogg;
#BANNER:DanceDanceRevolution.png;
#BACKGROUND:DanceDanceRevolution-bg.png;
#SAMPLESTART:5.8;
#SAMPLELENGTH:15;
#BPMS:0=123.995
,48=140.01
,112=144.989
,180=144.994
,208=150
,288=158.025
,352=160
,452=167.979
,516=88.506
,532=177.023
;
#BGSTAGE:22;
#DISPLAYBPM:89:177;
#BGCHANGES:0.000=DanceDanceRevolution.avi=1.000=0=0=0=StretchNoLoop====,
99999.000=-nosongbg-=1.000=0=0=0=StretchNoLoop====
;

//--------------- dance-single - ----------------
#NOTES:
     dance-single:
     :
     Challenge:
     16:
     0,0,0,0,0:
0000
0000
0000
0000
,
0000
0000
0000
0000
,
0000
0000
0000
0000
,
0001
0000
0010
0001
1000
0100
1100
0000
,
0001
0000
0010
0001
1000
0001
0011
0000
,
0001
0000
0010
0001
1000
0010
1100
0000
,
0010
0010
0010
0000
1000
0100
0011
0000
,
2000
0001
3001
0000
0002
1000
1003
0000
,
0002
0203
0320
2030
3001
0000
1010
0000
,
0001
0000
0010
0001
1000
0010
1100
0000
,
0010
0001
0010
0100
0000
0000
1100
0000
,
1000
0001
0100
0010
0000
0000
0011
0000
,
1100
0000
0000
0100
0010
0000
0000
0010
0001
0000
0000
0001
1000
0000
0000
1000
,
0200
0001
1000
0301
,
0110
0000
0000
0010
0100
0000
0000
0100
1000
0000
0000
1000
0001
0000
0000
0001
,
0020
1000
0001
1030
,
0011
0000
0000
0001
0010
0000
0000
0010
0100
0000
0000
0100
1000
0000
0000
1000
,
0002
1000
0010
1003
,
1100
0000
0000
1000
0100
0000
0000
0100
0010
0000
0000
0010
0001
0000
0000
0001
,
2000
0001
0100
3001
,
MMMM
1000
0100
1000
MMMM
0010
0001
0010
,
MMMM
1000
0100
0001
MMMM
0010
0001
1000
,
MMMM
0100
0001
0100
MMMM
1000
0010
1000
,
MMMM
0010
0001
1000
MMMM
0100
0010
1000
,
MMMM
0010
0100
0010
MMMM
1000
0001
1000
,
MMMM
0100
0010
0001
MMMM
0100
0001
1000
,
MMMM
0010
0001
0010
MMMM
1000
0100
1000
,
MMMM
0010
0100
1000
MMMM
0100
0010
0001
,
0110
0000
0000
1010
0000
0000
0101
0000
0000
0000
0000
0000
0000
0000
0000
0000
,
1002
0000
0000
1000
0000
0000
1000
0000
0000
0000
0000
0000
0003
0000
0000
0000
,
0120
0000
0000
0100
0000
0000
0100
0000
0000
0000
0000
0000
0030
0000
0000
0000
,
2001
0000
0000
0001
0000
0000
3001
0000
0210
0000
0000
0010
0000
0000
0310
0000
,
1000
0000
0001
0000
0100
0000
0001
0000
1000
0100
1000
0100
1000
0000
0001
0000
,
1000
0001
0100
0001
1000
0100
1000
0001
,
0100
0010
0100
0010
1000
0010
1000
0001
,
0010
0001
0010
0100
1000
0001
1000
0010
,
0100
1010
0110
1001
,
1001
0100
0010
0100
0001
1000
0100
0000
,
1001
0100
0010
1000
0001
1000
0100
0000
,
0110
1000
0101
0000
0110
0001
1100
0000
,
0010
0001
0100
0010
1000
0100
0001
0100
,
0010
0000
0000
0001
0000
0000
0100
0000
0010
0000
0100
0000
0001
0000
1000
0000
,
0010
0000
0000
1000
0000
0000
0100
0000
0010
0000
0100
0000
1000
0000
0001
0000
,
0010
0000
0000
0100
0000
0000
0010
0000
0001
0000
1000
0000
0001
0000
1000
0000
,
0001
0010
0100
1000
0001
0100
0010
1000
,
0100
0000
0100
0000
0010
0000
0100
0000
1000
0100
1000
0000
0100
0000
0100
0000
,
0010
0001
0000
0100
0000
0000
0001
0000
1000
0010
0000
0100
0000
0000
0001
0000
,
0000
0000
1000
0000
0100
0000
1000
0000
0001
0000
0100
0000
0010
1000
0001
0000
,
0000
0000
0100
0000
0001
0000
0100
0000
0010
0000
1000
0000
0100
0010
0001
0100
,
0010
0000
0010
0000
0100
0000
0010
0000
1000
0010
1000
0000
0010
0000
0010
0000
,
0100
0001
0000
0010
0000
0000
0001
0000
1000
0100
0000
0010
0000
0000
0001
0000
,
0000
0000
1000
0000
0010
0000
1000
0000
0000
0000
0010
0000
0100
1000
0001
0000
,
1000
0001
0100
0000
1000
0001
0100
0000
,
0010
0000
1001
0000
0100
0001
0010
0001
,
0100
0000
0100
0000
0100
1000
0010
1000
,
0100
1100
1001
0101
,
1001
0000
0000
0000
0001
0100
1000
0100
,
0001
0010
0100
1000
,
0001
0000
0010
0001
0000
1000
0010
0000
,
0100
1000
0001
1000
0100
0000
1100
0000
,
0001
1000
0100
0000
0001
1000
0100
0000
,
0010
0000
1001
0000
0100
1000
0010
1000
,
0100
0000
0100
0000
0100
0001
0010
0001
,
0100
0101
1001
1100
,
1001
0000
0000
0000
1000
0100
0001
0100
,
1000
0010
0100
0001
,
1000
0000
0010
1000
0000
0001
0010
0001
,
1000
0001
0000
0000
1001
0000
1001
0000
,
1000
0000
0001
0000
0010
0001
0100
0000
,
0110
0000
0010
0000
1000
0001
0100
0001
,
0010
0000
1000
0000
0100
0010
0001
0000
,
0001
0000
0000
0000
,
1000
0010
0100
0010
0001
0000
0101
0000
,
1010
0000
0000
1000
0010
0000
0000
0010
0100
0000
0000
0100
0001
0000
0000
0000
,
0010
0001
0010
0100
1000
0000
1010
0000
,
0101
0000
0000
0001
0100
0000
0000
0100
1000
0000
0000
1000
0100
0000
0000
0000
,
1001
0000
0000
1000
0010
0000
0000
0010
0001
0000
0000
0001
0010
0000
0000
0010
,
1000
0000
0000
1000
0100
0000
0000
0100
0001
0000
0000
0001
0100
0000
0000
0100
,
1000
0000
0000
1000
0010
0000
0000
0010
0001
0000
0000
0001
1000
0000
0000
1000
,
0100
0000
0000
0001
0010
0000
0000
0100
0001
0000
0000
0100
1000
0000
0010
0000
,
0001
0000
0110
0000
1000
0010
0100
0000
,
0001
0000
0000
1000
0100
0000
0000
0010
0001
0000
0000
0100
0010
0000
1000
0000
,
0100
0000
0000
0000
1001
0000
0000
0000
0100
0000
0000
0010
0100
0000
0010
0000
,
1000
0001
0100
0000
,
0100
0000
0000
0000
1001
0000
0000
0000
0100
0000
0000
0010
0100
0000
0010
0000
,
0001
0100
1000
0010
,
1000
0100
0010
0100
0000
0100
0010
0100
,
1000
0001
0100
0010
0000
0001
1000
0100
,
0020
0000
0000
0200
0000
0000
0330
0000
,
1000
0000
0100
0000
0010
0010
0001
1000
,
0100
0010
1000
0001
0010
0100
1100
0000
,
0002
0000
0010
0000
0203
0000
1300
0001
,
0010
0100
0001
0100
0010
1000
0100
0000
,
0020
0000
0032
0000
0203
0000
1300
0010
,
0002
0000
0203
0000
2300
0010
3010
0000
,
0002
0000
0023
0000
2030
0000
3100
0001
,
0020
0000
2030
0000
3100
0001
0100
0000
,
0001
0000
0100
0000
0010
0010
1000
0001
,
0100
0010
0001
1000
0010
0100
0101
0000
,
2000
0000
0010
0000
3200
0000
0301
1000
,
0010
0100
1000
0100
0010
0001
0100
0000
,
0020
0000
2030
0000
3200
0000
0301
0010
,
2000
0000
3200
0000
0302
0010
0013
0000
,
2000
0000
3020
0000
0032
0000
0103
1000
,
0020
0000
0032
0000
0103
1000
0100
1000
,
0002
0000
0000
0000
0200
0003
0000
0000
,
2000
0300
0000
0000
0100
0100
3100
0000
,
0010
0000
1000
0000
0100
0000
0010
0002
,
0100
1000
0100
1003
,
0020
0000
0000
0000
2000
0030
0000
0000
,
0200
3000
0000
0000
0001
0001
0301
0000
,
0100
0000
1000
0000
0001
0000
0100
0010
,
0100
0110
0010
0110
,
2000
0010
0010
3010
,
0001
1000
0001
0000
0100
0000
0010
0000
,
1000
0001
0100
0100
,
1000
0000
0001
0010
1001
0000
0000
0000
,
0002
0010
0010
0013
,
1000
0001
1000
0000
0100
0000
0010
0000
,
0001
1000
0100
0100
,
0001
0000
1000
0010
1001
0000
0000
0000
,
2000
0100
0100
3100
,
0001
1000
0001
0000
0010
0000
0100
0000
,
1000
0010
0001
0000
0010
0000
0010
0000
,
1000
0000
0001
0100
1001
0000
0000
0000
,
0002
0100
0100
0103
,
1000
0001
1000
0000
0010
0000
0100
0000
,
0001
0100
1000
0000
0010
0000
0010
0100
,
1001
0000
0000
0000
,
0001
0000
0100
0000
0020
0000
1000
0000
0000
0000
0100
0000
0000
0000
1030
0001
0010
0000
0100
0000
2000
0000
0010
0000
0000
0000
3100
0000
1000
0000
0001
0100
,
0010
0000
1000
0000
0200
0000
0001
0000
0000
0000
1300
0000
0020
0000
0001
0000
0000
0000
1030
0000
0200
0000
0001
0000
0000
0000
0310
0000
0100
0000
1000
0001
,
1000
0000
0010
0000
0200
0000
0001
0000
0000
0000
0010
0000
0000
0000
0301
1000
0100
0000
0010
0000
0002
0000
0100
0000
0000
0000
0013
0000
0001
0000
1000
0010
,
0100
0000
0001
0000
0020
0000
1000
0000
0000
0000
0031
0000
0100
0000
0010
0000
1000
0001
0010
0001
1000
0010
0100
0001
1000
0000
0000
0000
1001
0000
0000
0000
,
0001
1000
0001
1000
0200
0000
0010
0000
1300
0001
0100
0000
0001
1000
0100
0000
,
1000
0001
0010
0000
0011
0000
0001
1000
0010
0000
1010
0000
1000
0001
0100
0000
,
0110
0000
1000
0200
0001
0000
0310
0000
0110
0000
0001
0200
1000
0000
0310
0000
,
0110
0000
1000
0001
1000
0000
0001
0000
0100
0000
0010
0000
1000
0000
0001
0000
,
1000
0200
0001
0000
1300
0020
0001
0000
1030
0200
0001
0000
1300
0020
0001
0000
,
1030
0200
0001
0000
1300
0020
0001
0000
1030
0100
0010
0000
0001
1000
0001
0200
,
1000
0000
0000
0000
0310
1000
0001
1000
0100
0000
0110
0000
1001
0000
1000
0200
,
0001
0000
0000
0000
0310
0001
1000
0001
0100
0000
0110
0000
1001
0000
0001
0020
,
1000
0000
0000
0000
0130
0000
0110
0000
0000
0000
1001
0000
1000
0010
0001
0000
,
0000
0110
0101
1010
1001
0000
0220
0000
,
0000
0000
0000
0000
,
0330
0000
0000
0000
;

//--------------- dance-double - ----------------
#NOTES:
     dance-double:
     :
     Challenge:
     16:
     0,0,0,0,0:
00000000
00000000
00000000
00000000
,
00000000
00000000
00000000
00000000
,
00000000
00000000
00000000
00000000
,
00000000
00000000
00000000
00000000
,
00000000
00000000
00000000
00000000
,
10000000
00000000
01000000
00010000
00000000
00001000
00000100
00000001
,
00000100
00000000
00000001
00000100
00000000
00001000
00010000
01000000
,
10000000
00000000
00010000
10000000
00000000
01000000
00010000
00001000
,
00000100
00000000
00000001
00000100
00000000
00000001
00001000
00000000
,
00000010
00000000
00000100
00001000
00000000
00010000
01000000
10000000
,
01000000
00000000
00010000
00001000
00000000
00000100
00000001
00000100
,
00000010
00000000
00000100
00001000
00000000
00010000
01000000
10000000
,
01100000
01100000
10010000
10010000
,
11000000
01010000
00011000
00001010
,
00000110
00000110
00001001
00001001
,
00000011
00001010
00011000
00110000
,
11000000
11000000
01010000
01010000
,
00011000
00001100
00001001
00001010
,
00000011
00000011
00001100
00001100
,
00011000
01010000
10010000
00110000
,
MMMMMMMM
10000000
01000000
10000000
MMMMMMMM
00010000
00001000
00010000
,
MMMMMMMM
10000000
01000000
00010000
MMMMMMMM
00100000
00010000
00001000
,
MMMMMMMM
00000100
00000001
00000100
MMMMMMMM
00001000
00010000
00001000
,
MMMMMMMM
00000001
00000010
00001000
MMMMMMMM
00000010
00001000
00010000
,
MMMMMMMM
00100000
10000000
00100000
MMMMMMMM
00010000
01000000
00010000
,
MMMMMMMM
10000000
01000000
00010000
MMMMMMMM
00100000
00010000
00001000
,
MMMMMMMM
00000100
00000001
00000100
MMMMMMMM
00001000
00000010
00001000
,
MMMMMMMM
00000010
00000100
00001000
MMMMMMMM
00000100
00001000
00010000
,
00001000
00000000
00000000
00000001
00000000
00000000
00000100
00000000
00000000
00000000
00000000
00000000
00000000
00000000
00000000
00000000
,
00002000
00000000
00000000
00000000
,
00000000
00000000
00000000
00000000
,
00203000
00000000
02000000
03300000
,
10010000
00000000
01100000
00000000
10000000
01000000
00010000
00001000
,
00000100
00000000
00000000
00000001
00000000
00000000
00000100
00000000
00000010
00000000
00000000
00001000
00000000
00000000
00000100
00000000
,
00000010
00000000
00000000
00000001
00000000
00000000
00001000
00000000
00000100
00000000
00000000
00010000
00000000
00000000
00100000
00000000
,
10000000
00000000
00000000
00010000
00000000
00000000
10000000
00000000
01000000
00000000
00010000
00000000
00001000
00000000
00000100
00000000
,
00000001
00010010
00101000
11000000
,
00100000
00010000
10000000
00000000
00100000
10000000
01000000
00000000
,
00010000
00001000
00000100
00000000
00000010
00000100
00000001
00000000
,
00001000
00000010
00000100
00000000
00000001
00000100
00001000
00010000
,
01000000
00000000
00000000
00100000
00000000
00000000
01000000
00000000
10000000
00000000
00000000
00000000
01001000
00000000
00000000
00000000
,
00100000
00000000
00000000
10000000
00000000
00000000
01000000
00000000
00010000
00000000
00001000
00000000
00000100
00000000
00000000
00000000
,
00000001
00000000
00000000
00000010
00000000
00000000
00000100
00000000
00000010
00000000
00001000
00000000
00010000
00000000
01000000
00000000
,
00100000
00000000
00000000
01000000
00000000
00000000
00010000
00000000
00000010
00000000
00000100
00000000
00001000
00000000
00010000
00000000
,
01000000
10000000
00100000
01010000
,
00010000
00000000
00010000
00000000
01000000
00000000
01000000
00000000
10000000
00000000
10000000
00000000
00100000
00000000
01000000
00100000
,
01000000
00000000
01000000
00000000
00010000
00000000
00010000
00000000
00001000
00000000
00001000
00000000
00000100
00000000
00000010
00000100
,
00000010
00000010
00000001
00000001
00000100
00000100
00001000
00001000
,
00010000
00010000
00100000
00100000
10000000
10000000
01000000
01000000
,
00010000
00010000
00001000
00001000
00000010
00000010
00000001
00000001
,
00000100
00000100
00001000
00001000
00010000
00010000
00100000
00100000
,
10000000
10000000
01000000
01000000
00010000
00010000
00001000
00001000
,
00100000
00000000
00010000
00000000
10000000
00000000
00010000
00000000
00000000
00000000
00100000
00000000
01000000
00000000
00010000
00001000
,
00010000
00000000
00000010
00000000
00001000
00000000
00000100
00000000
00000000
00000000
00001000
00000000
00010000
00000000
00001000
00010000
,
00001000
00000000
00000100
00000000
00010000
00000000
01000000
00000000
00000000
00000000
10000000
00000000
00100000
00000000
00010000
00001000
,
00020000
00000000
00000010
00000000
00001000
00000000
00030100
00010000
,
00001000
00000000
00000000
00000000
00000000
00000000
00000000
00000000
01000000
00000000
00010000
00000000
00001000
00000000
00000100
00000010
,
00000100
00000000
00001001
00000000
00010100
00000000
00101000
00010000
,
10000000
00000000
01000000
00010000
00000000
00001000
00000100
00000010
,
00000220
00000000
00000330
00001000
,
00010000
00000000
00100000
00000000
10000000
00000000
01000000
00000000
00000000
00000000
00010000
00000000
00001000
00000000
00000100
00001000
,
00000100
00000000
00000001
00000000
00001000
00000000
00000010
00000000
00000000
00000000
00010000
00000000
00001000
00000000
00010000
01000000
,
00010000
01000000
00100000
01000000
00000000
00010000
00001000
00000010
,
00001001
00000101
00001010
00000011
,
00002200
00000000
00003300
00000000
00000010
00000100
00001000
00100000
,
01000000
11000000
01010000
00110000
,
00011000
00000000
00000100
00000020
00000030
00001000
00010000
01000000
,
00100000
00010000
01000000
00100000
00000000
10000000
01000000
00000000
,
00010000
00000000
00000100
00000000
00000010
00000100
00001000
00010000
,
00010000
00000000
01000000
00000000
00100000
00010000
10000000
00010000
,
00001000
00000000
00000100
00000000
00000010
00001000
00010000
01000000
,
10000000
01000000
00100000
02000000
00000000
00000000
03010000
00000000
,
00010000
00001000
00100000
00002000
00000000
00000000
00013000
00000100
,
00000010
00000000
00000000
00000010
00000001
00000000
00000000
00000001
00000100
00000000
00000000
00000100
00001000
00000000
00000000
00000000
,
00010000
00000100
00001000
00000020
00000000
00000000
00000130
00001000
,
00010000
00000000
00000000
00010000
00100000
00000000
00000000
00100000
10000000
00000000
00000000
10000000
01000000
00000000
00000000
00000000
,
10010000
00000000
00000000
10000000
00100000
00000000
00000000
00100000
00010000
00000000
00000000
00010000
00001000
00000000
00000000
00010000
,
00001000
00000000
00000000
00001000
00000010
00000000
00000000
00000010
00000001
00000000
00000000
00000001
00001000
00000000
00000000
00000001
,
00001000
00000000
00000000
00001000
00000010
00000000
00000000
00000010
00010000
00000000
00000000
00010000
00001000
00000000
00000000
00010000
,
00001000
00000000
00000000
00001000
01000000
00000000
00000000
01000000
00100000
00000000
00000000
00100000
10000000
00000000
00010000
00000000
,
10000000
00000000
01100000
00000000
10000000
01000000
00100000
00000000
,
01000000
00000000
00000000
01000000
00010000
00000000
00000000
00010000
00001000
00000000
00000000
00001000
00000010
00000000
00000001
00000000
,
00001000
00000000
00001001
00000000
00000010
00001000
00000001
00000000
,
00000100
00000000
00000000
00000100
00001000
00000000
00000000
00001000
00100000
00000000
00000000
00100000
01000000
00000000
10000000
00000000
,
00100000
00000000
10010000
00000000
01000000
00100000
10000000
00100000
,
00010000
00001000
00100000
01000000
,
10000000
01000000
00100000
01000000
00000000
01000000
00010000
01000000
,
00100000
00001000
00010000
00001000
00000000
00010000
00001000
00000100
,
00000022
00000000
00000000
00000033
,
00000100
00000001
00000100
00000001
00000100
00000010
00000100
00000010
,
00001000
00000100
00001000
00000010
00010000
00001000
00010000
00000000
,
01000000
10000000
01000000
10000000
01000000
00100000
01000000
00100000
,
00010000
01000000
00010000
00100000
00001000
00010000
00001000
00000000
,
00010000
00000000
00001100
00000000
00000010
00000001
00000100
00001000
,
00010000
00000000
00001000
00000000
00010000
00001000
00011000
00000000
,
00001000
00000000
00110000
00000000
01000000
10000000
00010000
00000000
,
00012000
00000100
00000001
00003010
,
00000100
00000010
00000100
00000010
00001000
00000010
00001000
00000010
,
00010000
00001000
00100000
00001000
01000000
00001000
00010000
00000000
,
01000000
00100000
01000000
00100000
00010000
00100000
00010000
00100000
,
00001000
00010000
00000100
00010000
00000010
00010000
00001000
00000000
,
00010000
00000000
00001100
00000000
00000010
00000001
00000100
00001000
,
00010000
00000000
00001000
00000000
00010000
00001000
00011000
00000000
,
00001000
00000000
00110000
00000000
01000000
10000000
00100000
00010000
,
00001000
00000000
00011000
00000000
00000100
00000100
00001000
00001000
,
00000200
00000000
00001000
00000000
00000310
00000001
00002000
00000000
,
00000100
00000000
00000001
00000000
00003010
00010000
00002000
00000000
,
01000000
00000000
00010000
00000000
00103000
01000000
20000000
00000000
,
00100000
30010000
10010000
02100000
,
10000000
00000000
00100000
00000000
03010000
00001000
00000200
00000000
,
00000001
00000000
00000010
00000000
00001300
00010000
00200000
00000000
,
10000000
00000000
00010000
00000000
01300000
00001000
00010000
00000000
,
00011000
00110000
00011000
00001010
,
00000002
00000010
00000010
00000013
,
00000001
00000100
00001000
00000000
00010000
00100000
10000000
00000000
,
20000000
00000000
01000000
00000000
01000000
00000000
01000000
30000000
,
00100000
00000000
01000000
00010000
00011000
00000000
00000000
00000000
,
00002000
00000010
00000010
00003010
,
00000001
00001000
00010000
00000000
00000010
00001000
00010000
00000000
,
00100000
10000000
01000000
00010000
,
00100000
00000000
10000000
01000000
10010000
00000000
00000000
00000000
,
00020000
10000000
01000000
10030000
,
01010000
00010000
00001000
00000000
00001000
00000000
00000010
00000000
,
00001000
00000100
00000001
00000000
00000100
00000000
00000100
00000000
,
00000001
00000000
00001000
00000100
00001001
00000000
00000110
00000000
,
00002000
00000100
00000001
00003100
,
00001000
00000001
00001000
00000000
00000100
00000000
00000010
00000000
,
00000001
00000010
00001000
00000000
00010000
00000000
00000100
00010000
,
00001100
00000000
00000000
00000000
,
10000000
01000000
00100000
00010000
01000000
00100000
00010000
00001000
00100000
00010000
00001000
00000100
00000010
00000001
00001000
00000010
,
00000100
00001000
00010000
00000100
00001000
00010000
00100000
01000000
10000000
00010000
01000000
00100000
00010000
00001000
00000100
00000010
,
00010000
00000000
00001000
00020000
00000000
00000000
00030100
00000000
00001000
00000100
00000010
00000001
00000000
00000100
00000010
00001000
,
00000100
00010000
00001000
00000010
00000000
00000100
00000000
00010000
00001000
00010000
00100000
01000000
00010000
00000000
10010000
00000000
,
10000000
01000000
00100000
00010000
00100000
00000000
01000000
00000000
00010000
00001000
00000010
00000000
00000001
00001000
00000010
00000000
,
00000100
00000001
00000100
00000010
00001000
00000000
00000010
00000000
00000100
00001000
00010000
00000000
00100000
10000000
00010000
00000000
,
10000000
02000000
00010000
00000000
03100000
00000000
01100000
00000000
00100000
00001000
00010000
00000000
00000100
00000000
00000010
00000000
,
00000001
00000200
00001000
00000000
00000310
00000000
00000110
00000000
00001000
00000010
00010000
00000000
00001000
00000000
00100000
00000000
,
00001000
00020000
00100000
00000000
00031000
00020000
00000010
00000000
00031000
00020000
00000100
00000000
00031000
00020000
01000000
00000000
,
00031000
00020000
00000100
00000000
00031000
00020000
00000010
00000000
00031000
00010000
00100000
00000000
01000000
00010000
00100000
00000000
,
00001000
00000000
00010000
00000000
00010000
00000000
00001000
00000000
00000100
00000000
00000000
00000000
00000001
00000010
00000100
00001000
,
00000010
00000000
00010000
00000000
00001000
00000000
00010000
00000000
01000000
00000000
00000000
00000000
10000000
00100000
01000000
00010000
,
00100000
00000000
00001000
00000000
00010000
00000000
00001000
00000000
00000000
00000000
00000100
00000001
00000010
00000100
00001000
00000000
,
00000000
00011000
00010010
00011000
00101000
00000000
00022000
00000000
,
00000000
00000000
00000000
00000000
,
00033000
00000000
00000000
00000000
;
