#TITLE:Dalatecht;
#ARTIST:Harmonix;
#MUSIC:Dalatecht.ogg;
#BANNER:Dalatecht.png;
#BACKGROUND:Dalatecht-bg.png;
#SAMPLESTART:50.676;
#SAMPLELENGTH:15;
#SELECTABLE:YES;
#OFFSET:-0.150;
#BPMS:0.000=190;

//--------------- dance-single - XLev450X -暗い--bSP ----------------
#NOTES:
     dance-single:
     XLev450X -暗い-:
     Beginner:
     7:
     0,0,0,0,0:
0000
0000
0000
0000
,
0000
0000
0000
0000
,
0000
0000
0000
0000
,
0000
0000
0000
0000
,
0000
0000
0000
0000
,
0000
0000
0000
0000
,
0000
0000
0000
0000
,
0000
0000
0000
0000
,
0001
1000
0010
0000
,
0100
0001
1000
0010
,
0001
1000
0010
0000
,
0100
0001
1000
0010
,
0100
1000
0001
0000
,
0010
0100
0001
1000
,
0010
0000
0101
0000
0000
1010
0000
0000
,
0110
0000
0000
1001
0000
0000
1010
0000
,
0001
0001
0001
1000
,
0010
0100
1000
0001
,
0010
0100
0001
1000
,
0010
0100
0010
1000
,
0010
0100
0001
1000
,
0000
0001
0100
1000
,
0000
0010
0001
1000
,
0001
0010
0100
0001
,
0001
0000
1000
0010
,
0100
1000
0001
0010
,
0100
0000
0010
0000
,
1000
0001
0100
0000
,
0010
1000
0001
0010
,
0100
0001
1000
0010
,
0100
0000
0001
0000
,
1000
0010
0100
0000
,
0001
0000
1000
0000
,
0010
1000
0001
0000
,
0100
0000
0001
0000
,
1000
0010
0100
0000
,
0001
0000
1000
0000
,
0001
0000
1000
0000
,
0010
1000
0001
0100
,
0010
1000
0001
0010
,
0001
0000
0010
1000
,
0010
0000
0100
0001
,
1000
0000
0010
0100
,
0001
0000
1000
0010
,
0100
0000
1000
0001
,
0100
0000
0010
1000
,
0001
0000
1000
0000
,
0010
0000
0100
0000
,
0001
1000
0010
0100
,
0001
0000
1000
0010
,
0100
0000
0001
1000
,
0010
0000
0001
1000
,
0010
0000
0100
0000
,
0001
1000
0010
0100
,
0001
0000
1000
0000
,
0010
0100
0001
1000
,
0010
0000
0001
0000
,
1000
0000
0001
0000
,
0010
0100
0001
0000
,
1000
0000
0010
0000
,
1000
0001
0010
0000
,
1000
0000
0001
0000
,
0100
0010
1000
0001
,
0010
0100
0001
0000
,
1000
0000
0010
0000
,
0100
0000
0001
0000
,
1000
0001
0010
1000
,
0001
0100
0010
1000
,
0001
0000
0010
0000
,
1000
0000
0010
0000
,
0100
0001
1000
0010
,
0100
0001
1000
0010
,
0100
0000
0001
0000
,
1000
0000
0001
0000
,
0100
0010
1000
0000
,
0001
0000
0010
0000
,
0100
0001
1000
0000
,
0010
0100
0001
0000
,
0010
0000
1000
0000
,
0001
0000
0010
0000
,
0100
0001
1000
0010
,
0100
0000
0001
0000
,
1000
0001
0100
0010
,
1000
0000
0001
0000
,
0010
0100
0001
1000
,
0010
0000
0100
0000
,
0001
1000
0010
0100
,
0001
0010
1000
0100
,
2002
0000
0000
0000
,
0000
0000
0000
0000
,
0000
0000
0000
0000
,
0000
0000
0000
0000
,
3003
0000
0000
0000
;

//--------------- dance-single - XLev450X -暗い--BSP ----------------
#NOTES:
     dance-single:
     XLev450X -暗い-:
     Easy:
     10:
     0,0,0,0,0:
0000
0000
0000
0000
,
0000
0000
0000
0000
,
0000
0000
0000
0000
,
0000
0000
0000
0000
,
0000
0000
0000
0000
,
0000
0000
0000
0000
,
0000
0000
0000
0000
,
0000
0000
0000
0000
,
0001
0000
1000
0000
0010
0100
0001
0000
,
1000
0000
0001
0000
0000
0100
0000
0000
,
0010
1000
0001
0010
,
1000
0001
0100
0000
0010
0000
0000
0000
,
1000
0010
0001
0100
,
1000
0000
0001
0000
0010
0000
0100
1000
,
0001
0000
0101
0000
0000
1010
0000
0000
,
0110
0000
0000
1001
0000
0000
0110
0000
,
0001
0100
0010
0000
1000
0000
0001
0000
,
0100
0000
0001
1000
0000
0010
0100
0000
,
0001
0000
1000
0000
0000
0010
0000
0000
,
0100
0000
0001
0000
1000
0010
0100
0000
,
0001
1000
0001
0100
,
0010
0001
0000
0000
1000
0000
0010
0000
,
0100
1000
0100
0000
0000
0010
0000
0000
,
0100
0000
0001
0000
0000
1000
0000
0000
,
0001
0000
0100
0010
1000
0000
0001
0000
,
0100
0000
0001
1000
0000
0010
0100
0000
,
0001
0000
1000
0000
0000
0010
0000
0000
,
0100
0000
0001
0000
0000
1000
0000
0000
,
0010
0100
0001
1000
,
0010
0000
0100
0001
0000
1000
0010
0000
,
0100
0000
0001
0000
0000
1000
0000
0000
,
0010
0000
0100
0000
0000
0001
0000
0000
,
1000
0000
0010
0100
1000
0000
0001
0000
,
1000
0000
0010
0100
0010
0000
0001
0000
,
1000
0000
0001
0100
0001
0000
1000
0000
,
0010
0000
1000
0001
0100
0000
0010
0000
,
1000
0000
0001
0100
0010
0000
1000
0000
,
0001
0000
0100
1000
0100
0000
0010
0000
,
0100
0000
0001
1000
0010
0000
1000
0000
,
0010
0000
0001
1000
0010
0100
0001
0000
,
0010
0000
1000
0000
0001
0100
0010
1000
,
0001
0000
0100
0000
0010
1000
0001
0100
,
1000
0000
0001
0000
0010
1000
0001
0100
,
0010
0000
0001
0000
1000
0001
0100
1000
,
0010
0000
0100
0000
0001
1000
0001
0100
,
0001
0010
1000
0001
,
0100
0000
0001
0000
1000
0000
0001
0100
,
0010
0000
1000
0000
0001
0000
0010
0001
,
0010
0000
1000
0000
0010
0100
0001
1000
,
0010
0000
0100
0000
1000
0100
0010
0001
,
0100
0000
0001
0000
1000
0010
0100
0001
,
1000
0000
0001
0000
1000
0010
0100
1000
,
0001
0100
0010
1000
,
0001
0100
0010
1000
,
0001
0010
0000
0001
1000
0000
0001
0000
,
0100
0010
0000
1000
0001
0000
0100
0010
,
1000
0000
0001
0000
0010
0001
0000
0100
,
0000
1000
0000
0010
0000
0100
0000
0000
,
0001
0000
1000
0000
0010
1000
0000
0001
,
0000
0100
0000
0010
,
1000
0000
0001
0000
0100
0001
0000
1000
,
0000
0010
0000
0100
,
0001
0000
1000
0000
0010
0001
0010
1000
,
0000
0001
1000
0010
,
0010
0001
0010
0000
1000
0100
1000
0000
,
0010
0100
0001
1000
,
0010
0001
0010
0000
1000
0100
1000
0000
,
0010
0100
0001
1000
,
0010
1000
0010
0000
0100
0001
0100
0000
,
0010
1000
0001
0100
,
0010
1000
0001
0000
0100
0010
1000
0000
,
0001
0010
1000
0001
,
0010
0000
1000
0000
0010
0100
0001
0000
,
1000
0000
0001
0000
0100
0001
1000
0000
,
0010
0000
0100
0000
0001
1000
0000
0000
,
0010
0000
0100
0000
0001
1000
0010
0100
,
0001
1000
0010
1000
,
0001
0000
0100
0000
0001
1000
0010
0000
,
0100
0000
0001
0000
1000
0010
0100
0001
,
1000
0000
0001
0000
0010
0001
0010
0000
,
1000
0000
0010
0000
0100
0001
1000
0000
,
0010
0000
0100
0000
0001
1000
0010
0000
,
0100
0000
0001
0000
1000
0010
0100
0000
,
0001
0000
0010
0000
0001
0010
0001
0000
,
1000
0000
0010
0000
1000
0100
0010
0000
,
1000
0000
0001
0000
0010
0100
0001
0000
,
1000
0010
0100
0001
,
1000
0010
0100
0001
1000
0010
0100
0000
,
2002
0000
0000
0000
,
0000
0000
0000
0000
,
0000
0000
0000
0000
,
0000
0000
0000
0000
,
3003
0000
0000
0000
;

//--------------- dance-single - XLev450X -暗い--DSP ----------------
#NOTES:
     dance-single:
     XLev450X -暗い-:
     Medium:
     13:
     0,0,0,0,0:
0000
0000
0000
0000
,
0000
0000
0000
0000
,
0000
0000
0000
0000
,
0000
0000
0000
0000
,
0000
0000
0000
0000
,
0000
0000
0000
0000
,
0000
0000
0000
0000
,
0000
0000
0000
0000
,
0001
1000
0010
0000
0100
0000
0001
0000
,
1000
0010
0100
0001
1000
0010
0100
0001
,
1000
0000
0010
0001
0010
0000
1000
0100
,
1000
0010
0100
0001
1000
0010
0100
0000
,
0001
0000
1000
0010
0100
0000
0001
1000
,
0010
0000
0100
0001
1000
0010
0100
0000
,
0001
0000
0000
0000
1000
0000
0000
0010
0000
0000
0100
0000
0000
0001
0000
0000
,
1000
0000
0000
0010
0000
0000
0100
0000
0000
0001
0000
0000
1000
0000
0000
0000
,
0010
0000
0000
0000
1000
0000
0001
1000
0010
0000
0000
0000
1000
0000
0000
0000
,
0010
0000
1000
0001
0000
0100
0010
0000
,
0001
0000
1000
0010
0000
0100
0001
0000
,
1000
0000
0010
0100
0001
1000
0010
0100
,
0001
0000
0000
1000
0001
0000
0100
0000
0010
0000
0000
0000
1000
0000
0000
0000
,
0001
0000
0000
0000
0010
0001
0010
0000
0000
0000
1000
0000
0001
0000
0000
0000
,
0100
0000
0000
0000
0010
0000
0000
1000
0000
0000
0001
0000
0000
0100
0000
0000
,
0010
0000
1000
0001
0000
0100
0010
0000
,
1000
0000
0000
0000
0001
0000
0100
0001
1000
0000
0000
0000
0010
0000
0000
0000
,
0100
0000
0001
1000
0000
0010
1000
0000
,
0001
0000
0000
0000
0100
0000
0000
0010
0000
0000
1000
0000
0001
0000
0000
0000
,
0100
0000
0010
1000
0001
0100
0010
0000
,
1000
0000
0000
0000
0010
0000
0001
0010
0001
0000
0000
0000
1000
0000
0000
0000
,
0010
0000
1000
0000
0001
1000
0010
0000
,
0001
0000
0100
0001
0000
1000
0010
0000
,
0100
0000
0001
1000
0010
0000
0100
0000
,
0001
0000
0000
0100
1000
0000
0001
0000
0100
0000
0000
0000
0010
0000
0000
0000
,
0001
0000
0000
0010
0001
0000
0010
0000
1000
0000
0000
0000
0010
0000
0000
0000
,
0100
0000
0000
1000
0010
0000
0001
0000
0100
0000
0000
0000
0001
0000
0000
0000
,
0010
0000
0000
0001
0010
0000
0100
0000
1000
0000
0000
0000
0001
0000
0000
0000
,
0010
0000
0000
0001
0010
0000
0001
0000
1000
0000
0000
0100
1000
0000
0100
0000
,
0001
0000
0000
0100
0010
0000
1000
0000
0001
0000
0000
0001
0010
0000
1000
0000
,
0001
0000
0000
0100
0010
0000
1000
0000
0001
0000
0100
0000
0010
0000
0001
0000
,
1000
0000
0010
0000
0000
0000
0100
0000
0001
1000
0010
0100
1000
0000
0000
0000
,
0001
1000
0010
0000
0100
0000
0001
0000
,
0010
0001
1000
0010
0100
0000
0001
0000
,
1000
0010
0000
0100
0001
0000
1000
0000
,
0001
0100
0000
0010
1000
0001
0100
0010
,
1000
0000
0001
0000
0010
1000
0001
0100
,
0010
0001
1000
0010
,
0100
0000
0000
0001
0000
0000
1000
0000
0000
0010
0000
0000
0100
0000
0000
0000
,
0001
0000
0000
1000
0000
0000
0010
0000
0000
0001
0000
0000
1000
0000
0000
0000
,
0001
0000
1000
0000
0010
0100
0001
0000
,
1000
0000
0010
0000
1000
0001
0100
0010
,
1000
0000
0001
0000
0010
0001
1000
0010
,
0100
0000
0001
0000
1000
0001
0100
0010
,
0001
0000
1000
0000
0010
0100
0001
1000
,
0010
0000
0100
0000
0001
1000
0010
0000
,
0001
0000
0000
1000
0000
0000
0010
0000
0000
0100
0000
0000
0001
0000
0000
0000
,
1000
0000
0000
0010
0000
0000
0100
0000
0000
0001
0000
0000
1000
0000
0000
0000
,
0001
1000
0010
0000
0100
0001
0000
1000
,
0000
0010
0100
0000
0001
1000
0010
0000
,
0100
0000
0001
0000
1000
0010
0000
0100
,
0000
0000
0001
0000
1000
0000
0000
0000
0001
0100
0010
1000
0100
0000
0000
0000
,
0001
1000
0010
0000
0100
1000
0000
0001
,
0000
0100
0010
0000
1000
0001
0100
0000
,
0010
0000
0001
1000
0010
0001
0000
0100
,
0000
0000
0001
0000
1000
0000
0000
0000
1000
0001
0100
0010
1000
0000
0000
0000
,
0001
0000
1000
0000
0010
0100
0000
0001
,
0000
1000
0010
0000
0001
1000
0000
0000
,
0010
0000
0100
0001
1000
0000
0000
0010
,
0000
0000
0100
0000
0001
0000
0000
0000
0001
1000
0010
0100
0001
0000
0000
0000
,
1000
0000
0001
0000
0100
0010
0000
1000
,
0000
0001
0100
0000
0010
0001
1000
0000
,
0010
0000
0100
0001
1000
0000
0000
0010
,
0000
0000
0100
0000
0001
0000
0000
0000
0001
1000
0010
0100
0001
0000
0000
0000
,
0001
0000
1000
0000
0010
0100
0001
0000
,
1000
0000
0010
0000
0001
0010
0001
0000
,
1000
0000
0010
0000
0100
1000
0001
0000
,
0100
0010
1000
0001
,
0100
0010
1000
0000
0001
0000
0010
0000
,
0001
1000
0010
0000
0100
0000
0001
0000
,
1000
0010
0100
0000
0001
0000
0010
0000
,
1000
0000
0010
0000
0001
1000
0010
0000
,
0001
0010
0001
0000
1000
0010
1000
0000
,
0010
0100
0001
0000
1000
0010
0100
0000
,
0001
1000
0010
0000
0001
0100
1000
0000
,
0010
0100
0001
0000
1000
0010
0100
0000
,
0010
1000
0001
0000
0100
0010
1000
0000
,
0001
0100
0010
0000
1000
0001
0100
0000
,
0010
1000
0001
0000
0100
0010
1000
0001
,
0100
1000
0100
0010
0100
0010
0001
0100
0001
1000
0010
1000
0001
1000
0010
0100
,
0020
0000
0000
0000
,
0000
0000
0000
0000
,
0000
0000
0000
0000
,
0000
0000
0000
0000
,
0030
0000
0000
0000
;

//--------------- dance-single - XLev450X -暗い--ESP ----------------
#NOTES:
     dance-single:
     XLev450X -暗い-:
     Hard:
     17:
     0,0,0,0,0:
0000
0000
0000
0000
,
0000
0000
0000
0000
,
0000
0000
0000
0000
,
0000
0000
0000
0000
,
0000
0000
0000
0000
,
0000
0000
0000
0000
,
0000
0000
0000
0000
,
0000
0000
0000
0000
,
0001
1000
0010
0100
0001
1000
0010
0100
,
0001
0000
1000
0000
0010
0000
0100
0000
0001
0100
0010
1000
0001
0000
0100
0000
,
0010
0000
1000
0100
1000
0000
0010
1000
0001
0000
0010
0001
0100
0000
1000
0100
,
0001
0000
1000
0000
0010
0000
0100
0000
0001
0000
0010
0100
1000
0100
0010
0100
,
0001
0000
0100
0000
0010
0000
1000
0001
0100
0000
0010
0000
1000
0000
0001
0000
,
0100
0010
1000
0001
0100
0001
0010
1000
,
0001
1000
0100
0000
0011
0000
0000
1100
0000
0000
1010
0000
0000
0110
0000
0000
,
0011
0000
0000
1001
0000
0000
1100
0000
0010
0001
0010
0100
1000
0100
0010
0001
,
0010
0000
1000
0100
0001
0000
1000
0000
0010
0000
0001
0000
0100
0000
1000
0000
,
0001
0010
1000
0010
1000
0100
0001
0010
,
1000
0000
0100
0000
0001
0000
0100
0000
0000
0000
0010
0000
1000
0000
0000
0100
,
0001
0000
0000
0000
0100
0000
0001
0010
1000
0000
0000
0001
0000
0000
0100
0000
,
0010
0000
0001
0000
1000
0100
0001
0000
0100
0000
0010
0000
0001
0000
1000
0000
,
0010
0001
0100
0001
1000
0001
0100
1000
,
0001
0000
0100
0000
0001
0000
0000
1000
0001
0000
0010
0100
0000
0000
0010
0001
,
1000
0000
0000
0001
0000
0100
0010
0000
0000
1000
0001
0000
0100
0000
0001
0000
,
0010
0000
1000
0100
0001
0000
1000
0000
0010
0000
0001
0000
0100
0000
1000
0000
,
0001
0010
1000
0010
1000
0100
0001
0010
,
1000
0000
0100
0000
0001
0000
0100
0000
0000
0000
0010
0000
1000
0000
0000
0100
,
0001
0000
0000
0000
0100
0000
0001
0010
1000
0000
0000
0001
0000
0000
0100
0000
,
0010
0000
0001
0000
1000
0100
0001
0000
0100
0000
0010
0000
0001
0000
1000
0000
,
0010
0001
0100
0001
1000
0001
0100
1000
,
0001
0000
0100
0000
0001
0000
0000
1000
0001
0000
0010
0100
0000
0000
0010
0001
,
1000
0000
0001
0000
0000
0100
0010
0000
0000
1000
0001
0000
0100
0000
1000
0000
,
0001
0000
0100
1000
0001
0000
0100
0001
0010
0000
1000
0000
0010
0000
0100
0000
,
0001
0000
0010
1000
0100
0000
0010
1000
0001
0000
0010
0000
0100
0000
1000
0000
,
0001
0000
0010
0001
0100
0000
1000
0100
0010
0000
0100
0000
0001
0000
0100
0000
,
0010
0000
1000
0001
0100
0000
0010
1000
0100
0000
1000
0000
0100
0000
0010
0000
,
0001
0000
0100
1000
0001
0000
0010
0001
0100
0000
1000
0100
0010
0000
1000
0001
,
0100
0000
1000
0010
0100
0000
0010
0001
0100
0000
1000
0100
0001
0000
0010
1000
,
0100
0010
0100
0010
0001
0100
0010
0100
,
0001
1000
0001
0010
0100
0010
0001
0010
0001
0100
0010
0100
0010
1000
0001
0100
,
0020
0000
0030
1000
0100
0010
0100
1000
,
0020
0000
0030
0010
0001
0010
0001
1000
,
0200
0000
0300
1000
0100
0010
0100
0010
,
0002
0000
0003
1000
0001
0010
0100
0010
,
0100
0010
0001
0000
0100
0010
0100
1000
,
0020
0000
0000
0000
0000
0030
0000
0000
0100
0000
0010
0000
0100
0000
1000
0000
,
0001
0000
0000
1000
0000
0000
0010
0000
0000
0100
0000
0000
0001
0000
1000
0010
,
0100
0000
0000
0001
0000
0000
1000
0000
0000
0010
0000
0000
1000
0001
0010
0100
,
0020
0000
0030
1000
0100
0010
0100
1000
,
0020
0000
0030
0010
0001
0010
0001
1000
,
0200
0000
0300
1000
0100
0010
0100
0010
,
0002
0000
0003
1000
0001
0010
0100
0010
,
0100
0010
0001
0000
0100
0010
0100
1000
,
0020
0000
0000
0000
0000
0030
0000
0000
0100
0000
0010
0000
0100
0000
1000
0000
,
0001
0000
0000
1000
0000
0000
0010
0000
0000
0100
0000
0000
0001
0000
1000
0010
,
0100
0000
0000
0001
0000
0000
1000
0000
0000
0010
0000
0000
0001
0010
0100
1000
,
0010
1000
0001
0000
0100
0010
0000
1000
,
0001
0000
0100
0000
0000
0000
0001
0000
1000
0000
0010
0100
0001
1000
0000
0000
,
0010
0000
0000
0000
0100
0000
0001
0000
1000
0000
0000
0010
0000
0000
0100
0000
,
0001
0000
0000
1000
0000
0000
0010
0000
0000
0000
0100
0000
0001
0000
0000
0000
,
0100
0000
1000
0000
0010
0100
0000
0001
,
0000
0000
1000
0000
0010
0000
0000
0000
0100
0000
0001
1000
0100
0000
0000
0000
,
0010
0000
0100
0001
1000
0010
0000
0100
,
0000
0000
0001
0000
1000
0000
0100
0000
0010
0000
1000
0010
0001
0010
0001
0000
,
1000
0000
0010
0100
0001
1000
0000
0010
,
0000
0000
0100
0000
0001
0000
1000
0000
0010
0100
0001
1000
0010
0000
0000
0000
,
0100
0000
0000
0000
0001
0000
0000
0000
1000
0001
0010
0100
0000
0000
0100
0000
,
0000
0000
0010
0000
1000
0000
0001
0000
0100
0001
1000
0010
0100
0000
0000
0000
,
0001
0000
0000
0000
1000
0000
0000
0000
0010
0000
1000
0000
0001
0000
0000
0100
,
0000
0000
0100
0000
1000
0000
0001
0000
0100
0010
1000
0001
0100
0000
0000
0000
,
0010
0000
1000
0001
0100
0010
0000
1000
,
0000
0000
0001
0000
0100
0000
0010
0000
1000
0001
0100
0010
1000
0000
0000
0000
,
0100
0010
0001
0010
0100
1000
0100
0010
,
0100
0000
0010
0000
0001
0000
0010
0000
0100
0010
0100
0010
0100
1000
0001
0010
,
1000
0100
0010
1000
0001
0100
0010
0100
,
0010
0000
0100
0000
0001
0000
0100
0000
0010
1000
0001
1000
0100
0010
0100
1000
,
0100
1000
0001
1000
0100
0010
0100
0010
,
0100
0000
1000
0000
0010
0000
0100
0000
0001
1000
0010
0100
0010
1000
0001
0100
,
0001
0010
0001
1000
0100
1000
0010
0100
,
0001
0000
0010
0000
0100
0000
1000
0000
0100
0010
0001
0100
0001
0010
1000
0000
,
0010
1000
0001
0010
0001
0100
0010
1000
0001
0010
0100
0010
0001
0100
0001
1000
,
0001
1000
0100
0010
0001
1000
0010
0100
0010
0100
0010
1000
0001
1000
0001
0010
,
0100
0010
0001
0010
0100
1000
0001
1000
0100
1000
0100
0010
0100
1000
0010
1000
,
0010
1000
0100
0010
0001
1000
0001
0100
0010
1000
0100
0010
0100
1000
0001
0100
,
0001
0100
0010
1000
0001
0010
0001
0100
0010
1000
0001
0010
0001
0100
0010
1000
,
0100
0010
0001
0010
0001
0100
0010
0100
0001
1000
0010
0100
0010
1000
0001
0100
,
0001
0100
0010
1000
0001
0010
0001
0010
0100
1000
0001
0100
0010
0100
0001
0100
,
0001
1000
0100
1000
0001
1000
0010
0100
0010
1000
0001
0010
0100
1000
0010
0100
,
2002
0000
0000
0000
,
0000
0000
0000
0000
,
0000
0000
0000
0000
,
0000
0000
0000
0000
,
3003
0000
0000
0000
;
