#TITLE:Daisuke;
#ARTIST:Y&Co.;
#GENRE:EUROBEAT;
#MUSIC:Daisuke.ogg;
#BANNER:Daisuke.png;
#BACKGROUND:Daisuke-bg.png;
#CDTITLE:./CDTitles/bm IIDX 10th style.png;
#SAMPLESTART:49.697;
#SAMPLELENGTH:15;
#SELECTABLE:YES;
#OFFSET:-0.047;
#BPMS:0=157;
#BGCHANGES:0.000=Daisuke.avi=1.000=1=0=0=StretchNoLoop==CrossFade==,
99999.000=-nosongbg-=1.000=0=0=0=StretchNoLoop====;
#BGSTAGE:17;

//--------------- dance-single - X.-bSP ----------------
#NOTES:
     dance-single:
     X.:
     Beginner:
     3:
     0,0,0,0,0:
0000
0000
0000
0000
,
0000
0000
0000
0000
,
0000
0000
0000
0000
,
0000
0000
0000
0000
,
0000
0000
0000
0000
,
0000
0000
0000
0000
,
0000
0000
0000
0000
,
0000
0000
0000
0000
,
0001
0000
1000
0000
,
0010
0000
0100
0001
,
1000
0000
0010
0000
,
0100
0000
0000
0000
,
0010
0000
1000
0000
,
0001
0000
0100
0010
,
1000
0000
0001
0000
,
0100
0000
0000
0000
,
0001
1000
0001
0000
,
0010
0000
1000
0000
,
0101
0000
0000
0000
,
1000
0000
0010
0000
,
0100
0001
1000
0000
,
1000
0001
0100
0000
,
1010
0000
0000
0000
,
0001
0000
0100
0000
,
0010
0001
0010
0000
,
1000
0000
0100
0000
,
0010
0100
0001
0000
,
1000
0000
0010
0000
,
0100
0001
1000
0000
,
0001
0000
0100
0000
,
0000
0001
0000
1000
,
0000
0010
0000
0100
,
0010
0000
0000
0000
,
1000
0000
0001
0000
,
0100
0000
0000
0000
,
0010
0000
1000
0000
,
0010
0000
0000
0000
,
0001
0000
0100
0000
,
0001
0000
0000
0000
,
1001
0000
0000
0000
,
1010
0000
0000
0000
,
0010
0000
0100
0000
,
0010
0000
0100
0000
,
1001
0000
0000
0000
,
0001
0000
1000
0000
,
0010
0000
0100
0000
,
1000
0000
0010
0000
,
0100
0001
0100
0000
,
0010
0000
0100
0000
,
0001
0000
1000
0000
,
0010
0000
0100
0000
,
0001
1000
0010
0000
,
1001
0000
0000
0000
,
0000
0000
0000
0000
,
0000
0000
0000
0000
,
0000
0000
0000
0000
,
0010
0000
1000
0000
,
0001
0000
0100
0000
,
0010
0000
1000
0000
,
0001
0100
0010
0000
,
0100
0000
0000
0000
,
0010
0000
1000
0000
,
0001
0000
0000
0000
,
0100
0000
0010
0000
,
0100
0000
0001
0000
,
1000
0010
0100
0000
,
0001
0000
0010
0000
,
1001
0000
0000
0000
,
0100
0000
0010
0000
,
1000
0000
0001
0100
,
0001
0000
1000
0000
,
0010
0000
0000
0000
,
0100
0000
0001
0000
,
1000
0000
0010
0100
,
0001
0000
1000
0000
,
0010
0100
0001
0010
,
1001
0000
0000
0000
;

//--------------- dance-single - X.-BSP ----------------
#NOTES:
     dance-single:
     X.:
     Easy:
     7:
     0,0,0,0,0:
0000
0000
0000
0000
,
0000
0000
0000
0000
,
0000
0000
0000
0000
,
0000
0000
0000
0000
,
0000
1000
0001
0100
,
0000
0010
0100
0001
,
0010
0001
0010
0000
1000
0010
1000
0000
,
0202
0000
0000
0303
,
1000
0001
0100
0010
,
1000
0000
0001
0000
0010
1000
0001
0100
,
0010
0001
1000
0000
,
0010
0000
1000
0000
0001
0100
0001
0000
,
1010
0000
0001
1000
,
0010
0100
1000
0001
,
0010
1000
0010
0000
0100
0001
0100
0000
,
0010
1000
0001
0100
,
0010
0000
1000
0000
0001
1000
0000
0010
,
0000
0000
0100
0000
0001
1000
0000
0010
,
0000
0000
0000
0000
,
0101
0000
1010
0000
0010
0100
0000
0000
,
0001
0000
1000
0000
0010
0100
0000
0001
,
0000
1000
0010
0000
0100
1000
0000
0001
,
0000
0000
0000
0000
,
0100
0000
0001
0000
1000
0010
0000
0100
,
0001
1000
0010
0000
0100
0000
0001
0010
,
0000
1000
0001
0000
,
0100
0000
0001
0000
0010
1000
0001
0000
,
0000
0100
0010
0000
1000
0000
0000
0000
,
0001
0000
0100
0010
1000
0000
0000
0000
,
0010
0000
0100
0001
1000
0000
0000
0010
,
0100
0001
0000
0010
0000
1000
0000
0000
,
0001
0100
0010
0000
,
2002
0000
0000
3003
0000
0000
0000
0000
,
0010
0000
0100
0000
0001
1000
0010
0000
,
0100
0000
0001
1000
,
0010
0000
0000
0000
0100
0000
0001
1000
,
0000
0010
0000
0100
0000
1000
0000
0000
,
0001
0000
0100
0000
0010
1000
0001
0000
,
0100
0000
0000
0010
0000
1000
0001
0200
,
0000
0000
0000
0000
0300
0010
0001
0020
,
0000
0000
0000
0000
0030
1000
0010
1000
,
0000
0100
0000
0001
0000
0100
0000
0010
,
0000
1000
0000
0010
0100
0001
1000
0000
,
0020
0000
0030
0000
0202
0000
0000
0303
,
0001
1000
0010
0100
,
0001
0000
1000
0000
0100
0001
1000
0010
,
0100
1000
0001
0000
,
0100
0000
0001
0000
1000
0010
1000
0000
,
0101
0000
1000
0001
,
0100
0010
0001
1000
,
0100
0001
0100
0000
0010
1000
0010
0000
,
0100
0001
1000
0010
,
1000
0001
0000
0100
,
0010
1000
0000
0010
,
0100
0000
0001
0000
1000
0000
0010
0100
,
0000
0001
1000
0000
0101
0000
1010
0000
,
0010
0000
0100
0000
0000
0010
0001
0000
,
1000
0000
0010
0000
0000
0100
1000
0000
,
0010
0100
1000
0100
,
0010
0001
0010
0000
1000
0010
1000
0000
,
0200
0300
0000
0000
,
0010
0000
0100
0000
0001
1000
0010
0000
,
0100
0020
0000
0000
0030
1000
0001
0200
,
0000
0000
0000
0000
0300
0010
0001
0020
,
0000
0000
0000
0000
0030
1000
0010
1000
,
0000
0100
0000
0001
0000
0100
0000
0010
,
0000
1000
0000
0010
0100
0001
1000
0000
,
0020
0000
0030
0000
0202
0000
0000
0303
,
1000
0001
0100
0010
,
1000
0000
0001
0000
0010
1000
0001
0100
,
0010
0001
1000
0000
,
0010
0000
1000
0000
0001
0100
0001
0000
,
0101
0000
1000
0001
,
0100
0010
0001
1000
,
0100
0001
0100
0000
0010
1000
0010
0000
,
0100
0001
1000
0010
,
1001
0000
0000
0000
;

//--------------- dance-single - X.-DSP ----------------
#NOTES:
     dance-single:
     X.:
     Medium:
     12:
     0,0,0,0,0:
0000
0000
0000
0000
,
0000
0000
0000
0000
,
0000
0000
0000
0000
,
0000
0000
0000
0000
,
1000
0001
0100
0000
0010
0001
0010
0000
,
1000
0010
0100
0000
0001
1000
0010
0000
,
0100
0001
1000
0010
0100
0001
0010
0100
,
0002
0000
0000
1003
,
0010
0000
0000
0100
0000
0000
0001
0000
1000
0000
0010
0000
0100
0000
0001
0000
,
1000
0000
0000
0001
0000
0000
0100
0000
0010
0000
1000
0000
0001
0000
0100
0000
,
0010
0000
0000
0001
0000
0000
1000
0000
0000
0010
0000
0000
0100
0000
0001
0000
,
1000
0000
0001
0100
0001
0000
0010
1000
0010
0000
0001
0000
1000
0000
0001
0000
,
0100
0000
0000
0001
0000
0000
1000
0000
0000
0000
0010
0000
0100
0000
0001
0000
,
1000
0000
0000
0001
0000
0000
0100
0000
0010
0000
1000
0000
0001
0000
0100
0000
,
0010
0000
0000
1000
0000
0000
0010
0000
0001
0000
1000
0000
0010
0000
0100
0000
,
0010
0001
0010
0000
0000
0000
1000
0010
1000
0000
0000
0000
0100
0000
0001
0000
,
1000
0010
0100
0001
1000
0010
0000
0100
,
0000
0001
1000
0010
0100
0001
0000
1000
,
0010
0100
0001
0000
1000
0010
1000
0000
,
0001
0000
0100
0000
0010
1000
0000
0001
,
0100
0010
1000
0001
0100
1000
0000
0010
,
0000
1000
0001
0000
0100
0010
0000
0001
,
1000
0010
0100
0000
0001
0000
1000
0000
,
0010
0000
0100
0000
0010
0001
0000
1000
,
0010
0100
0001
1000
0010
0000
0100
0001
,
0000
1000
0010
0100
0001
0000
0000
1000
,
0001
0100
0010
1000
0001
1000
0100
0010
,
0000
1000
0001
0100
0010
0000
0000
0010
,
0001
1000
0010
0100
0010
0000
0000
0001
,
1000
0010
0100
0001
0100
0000
1000
0010
,
0100
0001
0000
1000
0000
0010
0000
0100
,
0001
1000
0000
0010
0000
0100
0000
0001
,
2000
0000
0000
3000
0010
0100
0001
1000
,
0020
0000
0000
0030
0100
0001
1000
0010
,
0000
0200
0000
0300
0010
0001
0010
0000
,
1000
0000
0010
0000
1000
0010
1000
0100
,
0000
0001
0000
1000
0000
0010
0000
0000
,
0100
0000
0001
0000
1000
0010
0100
0001
,
0000
1000
0000
0010
0000
1000
0001
0200
,
0000
0000
0000
0300
0000
0010
0001
0020
,
0000
0000
0000
0030
0000
1000
0001
0100
,
0001
0010
0000
1000
0000
0010
0000
0100
,
0001
1000
0000
0010
0000
0100
0001
1000
,
0020
0000
0030
0000
0100
1000
0001
0010
,
0100
0000
0000
0010
0000
0000
1000
0000
0001
0000
0100
0000
0010
0000
1000
0000
,
0001
0000
0000
1000
0000
0000
0010
0000
0100
0000
0001
0000
1000
0000
0010
0000
,
0100
0000
0000
1000
0000
0000
0001
0000
0000
0100
0000
0000
0010
0000
1000
0000
,
0001
0000
1000
0010
1000
0000
0100
0001
0100
0000
1000
0000
0001
0000
1000
0000
,
0010
0000
0000
1000
0000
0000
0001
0000
0000
0000
0100
0000
0010
0000
1000
0000
,
0001
0000
0000
1000
0000
0000
0010
0000
0100
0000
0001
0000
1000
0000
0010
0000
,
0100
0000
0000
0001
0000
0000
0100
0000
1000
0000
0001
0000
0100
0000
0010
0000
,
0100
1000
0100
0000
0000
0000
0001
0100
0001
0000
0000
0000
0010
0000
1000
0000
,
0010
0001
1000
0010
0000
0010
0001
0000
,
1000
0010
0100
0001
0000
1000
0000
0010
,
0100
0000
0001
0100
0000
0010
1000
0001
,
0100
0010
1000
0000
0101
0000
1010
0000
,
0010
0100
0001
0000
0010
0000
0001
0000
,
1000
0010
1000
0000
0100
0000
0001
0000
,
0001
0100
0010
1000
0000
0010
1000
0001
,
0000
0100
0010
1000
0001
0100
0010
1000
,
0002
0000
0000
0003
0010
0100
0001
1000
,
0020
0000
0000
0030
0100
0001
1000
0010
,
0000
0200
0000
0000
0300
1000
0001
0200
,
0000
0000
0000
0300
0000
0010
0001
0020
,
0000
0000
0000
0030
0000
1000
0001
0100
,
0001
0010
0000
1000
0000
0010
0000
0100
,
0001
1000
0000
0010
0000
0100
0001
1000
,
0020
0000
0030
0000
0100
1000
0001
0010
,
0010
0000
0000
0100
0000
0000
0001
0000
1000
0000
0010
0000
0100
0000
0001
0000
,
1000
0000
0000
0001
0000
0000
0100
0000
0010
0000
1000
0000
0001
0000
0100
0000
,
0010
0000
0000
0001
0000
0000
1000
0000
0000
0010
0000
0000
0100
0000
0001
0000
,
1000
0000
0001
0100
0001
0000
0010
1000
0010
0000
0001
0000
1000
0000
0001
0000
,
0010
0000
0000
1000
0000
0000
0001
0000
0000
0000
0100
0000
0010
0000
1000
0000
,
0001
0000
0000
1000
0000
0000
0010
0000
0100
0000
0001
0000
1000
0000
0010
0000
,
0100
0000
0000
0001
0000
0000
0100
0000
1000
0000
0001
0000
0100
0000
0010
0000
,
0100
1000
0100
0000
0000
0000
0001
0100
0001
0000
0000
0000
0010
0000
1000
0000
,
0010
0000
0000
0000
;

//--------------- dance-single - X.-ESP ----------------
#NOTES:
     dance-single:
     X.:
     Hard:
     15:
     0,0,0,0,0:
0000
0000
0000
0000
,
0000
0000
0000
0000
,
0000
0000
0000
0000
,
0000
0000
0000
0000
,
0001
0000
1000
0000
0010
0000
0001
1000
0100
0000
0010
0000
0001
0000
0010
0001
,
1000
0000
0010
0000
0100
0000
1000
0001
0010
0000
0001
0000
0010
0000
0001
0000
,
0100
1000
0100
0010
0001
0010
0100
1000
0001
0100
0001
0010
0001
1000
0010
1000
,
0020
0000
0000
0030
,
0010
0000
0001
0000
0010
0000
0000
1000
0000
0000
0010
0000
0100
0000
0000
0000
,
0001
0000
0100
0000
0010
0000
0000
1000
0000
0000
0001
0000
0100
0000
0010
0000
,
0010
0000
0000
1000
0000
0000
0001
0000
0000
0000
0100
0000
0010
0000
0001
0000
,
0010
0001
0010
0001
0100
0000
1000
0010
1000
0010
1000
0000
0100
0000
0001
0000
,
0010
0000
0000
0000
1000
0000
0000
0001
0000
0000
0100
0000
0010
0000
1000
0000
,
0001
0000
0000
0100
0000
0000
0010
0000
0000
0000
0001
0000
1000
0000
0010
0000
,
0001
0000
0000
0100
0000
0000
0010
0000
0000
0000
1000
0000
0001
0000
0010
0000
,
0001
0010
0001
1000
0100
1000
0001
0010
0100
0010
0100
1000
0001
0100
0010
0100
,
0001
1000
0010
0100
0001
0010
0000
1000
,
0000
0000
0010
0000
0001
0000
0100
0000
0010
0000
0000
1000
0000
0000
0001
0000
,
0010
0000
1000
0000
0001
0000
0100
0010
0000
0100
0000
0001
1000
0000
0010
0000
,
1000
0000
0100
0000
0010
0001
0000
1000
,
0001
1000
0010
0100
0001
0010
0000
1000
,
0000
0000
0001
0000
0100
0000
0010
0000
1000
0000
0000
0001
0000
0000
0100
0000
,
0001
0000
0100
0000
1000
0000
0001
1000
0000
0100
0000
0010
0100
0000
0001
0000
,
1100
0000
0000
0000
0011
0000
0000
0000
0110
0000
1001
0000
0000
0000
0001
0010
,
0001
1000
0010
0100
0001
0000
1000
0010
,
0000
0000
0100
0000
0001
0000
1000
0000
0020
0000
0000
0000
0030
0000
0100
0010
,
0100
0001
1000
0010
0100
0010
0001
1000
,
0000
0000
0001
0000
1000
0000
0010
0000
0200
0000
0000
0000
0300
0000
0010
0001
,
0010
0000
0100
0000
1000
0000
0001
0000
0200
0000
0000
0000
0300
0000
0010
0100
,
0010
1000
0001
0100
0010
0000
1000
0001
,
0100
0010
0000
1000
0000
0100
0000
0001
,
0100
0010
0000
1000
0000
0200
0000
0000
,
0320
0000
0000
0030
1000
0001
0100
0010
,
2000
0000
0000
3000
0001
0100
0010
1000
,
0000
0200
0000
0300
0010
0001
0010
1000
,
0200
0000
0000
0300
0010
0001
1000
0010
,
0000
0011
0000
1010
0000
0110
0000
0000
,
0010
0000
1000
0000
0001
1000
0100
0010
,
0000
1000
0000
0010
0000
0001
0100
0020
,
0000
0000
0000
0000
0030
1000
0001
0200
,
0000
0000
0000
0000
0300
0010
1000
0001
,
0010
0100
0000
0010
0000
1000
0000
0010
,
0000
0000
0100
0000
0000
0000
0001
0000
0010
0100
0010
1000
0001
1000
0100
0010
,
2002
0000
0000
3003
0100
0001
1000
0010
,
0100
0000
1000
0000
0100
0000
0000
0001
0000
0000
0100
0000
0010
0000
0000
0000
,
1000
0000
0010
0000
0100
0000
0000
0001
0000
0000
1000
0000
0010
0000
0100
0000
,
0100
0000
0000
0001
0000
0000
1000
0000
0000
0000
0010
0000
0100
0000
1000
0000
,
0100
1000
0100
1000
0010
0000
0001
0100
0001
0100
0001
0000
0010
0000
1000
0000
,
0100
0000
0000
0000
0001
0000
0000
1000
0000
0000
0010
0000
0100
0000
0001
0000
,
1000
0000
0000
0010
0000
0000
0100
0000
0000
0000
1000
0000
0001
0000
0100
0000
,
1000
0000
0000
0010
0000
0000
0100
0000
0000
0000
0001
0000
1000
0000
0100
0000
,
1000
0100
1000
0001
0010
0001
1000
0100
0010
0100
0010
0001
1000
0010
0100
0010
,
1000
0000
0100
0000
0001
0000
0100
0000
0000
0010
0000
0000
1000
0000
0000
0000
,
0001
0000
0100
0000
0001
0000
0010
0000
0000
1000
0000
0000
0001
0000
0000
0000
,
0100
0000
1000
0000
0010
0000
0100
0000
0000
0001
0000
0000
1000
0000
0000
0000
,
0010
1000
0010
0000
1001
0000
0110
0000
,
0010
0000
0001
0010
0001
0010
0001
0000
1000
0100
1000
0100
1000
0000
0000
0000
,
0001
1000
0001
1000
0001
0000
0010
0100
0010
0100
0010
0000
1000
0000
0001
0000
,
0100
0000
0010
0000
0001
0010
0001
0000
1000
0100
1000
0000
0001
0010
0001
0000
,
0010
0100
0010
0100
0010
1000
0100
0010
0100
0010
0001
1000
0010
1000
0001
0010
,
0200
0000
0300
0000
1000
0001
0100
0010
,
2000
0000
0000
3000
0001
0100
0010
1000
,
0000
0200
0000
0000
0300
0001
0100
0020
,
0000
0000
0000
0000
0030
1000
0001
0200
,
0000
0000
0000
0000
0300
0010
1000
0001
,
0010
0100
0000
0010
0000
1000
0000
0010
,
0000
0000
0100
0000
0000
0000
0001
0000
0010
0100
0010
1000
0001
1000
0100
0010
,
2002
0000
0000
3003
0100
0001
1000
0010
,
0010
0000
0001
0000
0010
0000
0000
1000
0000
0000
0010
0000
0100
0000
0000
0000
,
0001
0000
0100
0000
0010
0000
0000
1000
0000
0000
0001
0000
0100
0000
0010
0000
,
0010
0000
0000
1000
0000
0000
0001
0000
0000
0000
0100
0000
0010
0000
0001
0000
,
0010
0001
0010
0001
0100
0000
1000
0010
1000
0010
1000
0000
0100
0000
0001
0000
,
0100
0000
0000
0000
0001
0000
0000
1000
0000
0000
0010
0000
0100
0000
0001
0000
,
1000
0000
0000
0010
0000
0000
0100
0000
0000
0000
1000
0000
0001
0000
0100
0000
,
1000
0000
0000
0010
0000
0000
0100
0000
0000
0000
0001
0000
1000
0000
0100
0000
,
1000
0100
1000
0001
0010
0001
1000
0100
0010
0100
0010
0001
1000
0010
0100
0010
,
0100
0000
0000
0000
;

//--------------- dance-single - X.-CSP ----------------
#NOTES:
     dance-single:
     X.:
     Challenge:
     17:
     0,0,0,0,0:
0000
0000
0000
0000
,
0000
0000
0000
0000
,
0000
0000
0000
0000
,
0000
0000
0000
0000
,
0001
0000
1000
0000
0010
0000
0100
0001
0000
0100
0000
0001
1000
0000
0010
0000
,
0100
0000
0001
0000
1000
0000
0010
0001
0000
0100
0000
0001
1000
0000
0010
0000
,
0100
0010
0100
1000
0001
0010
0100
0010
0100
1000
0100
0010
0001
0010
0001
0100
,
2000
0000
3000
1001
,
0100
1000
0010
1000
0001
0100
0001
0000
0010
1000
0100
1000
0001
1000
0010
0000
,
0010
0100
0010
1000
0010
0100
0001
0000
0100
1000
0001
0010
0100
0010
0100
0000
,
0010
0001
0010
0000
1000
0000
0100
0000
0001
0000
0000
0100
0000
0000
0100
0000
,
0010
0001
0010
0001
0100
0000
1000
0010
1000
0010
1000
0000
0100
0000
0001
0000
,
0010
0100
0010
1000
0001
0010
0100
0000
0100
0010
0100
1000
0001
0100
0010
0000
,
0010
1000
0001
0100
0001
0010
0100
0000
0100
1000
0100
1000
0001
0100
0001
0000
,
0100
1000
0100
0000
0001
0000
0010
0000
1000
0000
0000
0010
0000
0000
0010
0000
,
0100
1000
0100
0010
0100
1000
0001
1000
0001
0010
0001
1000
0100
0010
0100
0010
,
1000
0001
1000
0010
0100
0010
0000
0001
,
0000
0000
1000
0000
0001
0000
0100
0000
0010
0000
0000
1000
0000
0000
0001
0000
,
0010
0000
0001
0000
1000
0000
0010
0100
0000
0001
0000
1000
0100
0000
0010
0000
,
1100
0000
0011
0000
1001
0110
0000
1000
,
0010
0000
0100
0000
0001
0000
0010
0000
0001
0010
0001
0000
0000
0000
1000
0000
,
0000
0000
0010
0000
0100
0000
0001
0000
1000
0000
0000
0010
0000
0000
0100
0000
,
0010
0000
1000
0000
0001
0000
0100
0010
0000
1000
0000
0001
0100
0000
0010
0000
,
0101
0000
0000
0000
1010
0000
0000
0000
0001
0000
0100
0000
0000
0000
0010
0001
,
0010
1000
0010
0100
0001
1000
0001
0010
,
0000
0000
0100
0000
0001
0000
1000
0000
0020
0000
0030
0000
0000
0000
0010
0001
,
0010
1000
0010
0100
0001
0100
1000
0010
,
0000
0100
0001
1000
0010
0000
1001
0000
,
0010
1000
0010
0000
0001
0000
1000
0000
0010
0000
0000
0000
0000
0000
0000
0000
,
0010
0001
0010
0000
1000
0000
0010
0000
0001
0000
0000
0000
0100
0000
0001
0000
,
1000
0000
0010
0000
0000
0000
0100
0000
0000
0000
0001
0000
0000
0000
1000
0010
,
1000
0000
0001
0000
0000
0000
0100
0000
0010
0000
0100
1000
0010
0100
0010
1000
,
0020
0000
0000
0000
0030
0000
0000
0000
0001
0000
1000
0000
0010
0000
0001
0010
,
0001
0000
1000
0000
0100
0000
0001
0000
0100
0000
0000
0010
0000
0000
0001
0000
,
0000
0000
1000
0000
0000
0000
0010
0000
0100
0001
0100
0000
0001
1000
0001
0000
,
1000
0000
0000
0000
0001
0000
0000
0000
0100
0000
0010
0000
1000
0001
1000
0000
,
0000
0000
0001
0010
0001
0000
1000
0010
1000
0000
0001
0100
0001
0000
0010
0000
,
1000
0000
0000
0000
0001
0000
0000
0000
0100
0000
0010
0000
1000
0010
1000
0000
,
0000
0000
0100
0001
0100
0000
0010
0000
0000
0000
1000
0000
0001
0000
0100
0000
,
0000
0000
0001
0000
0000
1000
0000
0000
0010
0000
0000
0100
0000
0000
0001
0000
,
1000
0000
0010
0000
0100
0000
0000
0010
0000
0000
1000
0001
0000
0000
0100
0000
,
0000
0000
0010
0000
0000
0000
1000
0000
0000
0000
0100
0000
0000
0000
0010
0001
,
0010
0000
1000
0010
1000
0000
0010
0000
0001
1000
0001
1000
0010
0100
0010
1000
,
0200
0000
0300
0000
0001
1000
0010
0001
,
0010
0001
0100
0001
1000
0010
1000
0000
0100
0001
0010
0001
1000
0001
0100
0000
,
0100
0010
0100
0001
0100
0010
1000
0000
0010
0001
1000
0100
0010
0100
0010
0000
,
0100
1000
0100
0000
0001
0000
0010
0000
1000
0000
0000
0010
0000
0000
0010
0000
,
0100
1000
0100
1000
0010
0000
0001
0100
0001
0100
0001
0000
0010
0000
1000
0000
,
0100
0010
0100
0001
1000
0100
0010
0000
0010
0100
0010
0001
1000
0010
0100
0000
,
0100
0001
1000
0010
1000
0100
0010
0000
0010
0001
0010
0001
1000
0010
1000
0000
,
0010
0001
0010
0000
1000
0000
0100
0000
0001
0000
0000
0100
0000
0000
0100
0000
,
0010
0001
0010
0100
0010
0001
1000
0001
1000
0100
1000
0001
0010
0100
0010
0100
,
0001
0000
1000
0000
0010
0000
0100
0000
0000
0001
0000
0000
0000
1000
0000
0000
,
0010
0000
0100
0000
0001
0000
1000
0000
0000
0001
0000
0000
0000
0100
0000
0000
,
0010
0000
1000
0000
0001
0000
0100
0000
0000
0000
0010
0000
0000
1000
0000
0000
,
0001
0100
0010
0000
0101
0000
1010
0000
,
0010
0000
0001
0000
0010
0000
0001
0010
0001
0000
1000
0000
0010
0000
0100
0000
,
0001
0000
1000
0000
0010
0000
1000
0010
1000
0000
0001
0000
0100
0000
0010
0000
,
0100
0000
0001
0100
0001
0000
1000
0000
0010
0000
1000
0010
1000
0000
0001
0000
,
0100
0000
0010
0000
1000
0000
0001
0000
0100
0010
0000
1000
0001
0100
0010
0000
,
2002
0000
0000
0000
0000
0000
3003
0000
1000
0000
0001
0000
0100
0000
1000
0100
,
1000
0000
0001
0000
0010
0000
1000
0000
0010
0000
0000
0100
0000
0000
1000
0000
,
0000
0001
0000
0100
0000
1000
0001
0100
,
0000
0000
0001
0000
0000
1000
0000
0000
0010
0000
0000
0100
0000
0000
0001
0000
,
1000
0000
0010
0000
0100
0000
0000
0010
0000
0000
1000
0001
0000
0000
0100
0000
,
0000
0000
0010
0000
0000
0000
1000
0000
0000
0000
0100
0000
0000
0000
0010
0001
,
0010
0000
1000
0010
1000
0000
0010
0000
0001
1000
0001
1000
0010
0100
0010
1000
,
0200
0000
0300
0000
0001
1000
0010
0001
,
0010
1000
0001
0100
0001
0100
0010
0000
0010
0100
0010
0100
0010
1000
0001
0000
,
0001
0100
0001
1000
0010
0100
0001
0000
1000
0010
0100
0001
1000
0010
1000
0000
,
0010
0001
0010
0000
1000
0000
0100
0000
0001
0000
0000
0100
0000
0000
0100
0000
,
0010
0001
0010
0001
0100
0000
1000
0010
1000
0010
1000
0000
0100
0000
0001
0000
,
1000
0100
1000
0100
0010
0100
1000
0000
0001
0010
0100
1000
0100
0010
0100
0000
,
0100
1000
0100
0010
0001
0100
0010
0000
0100
0010
1000
0001
0010
0100
0010
0000
,
0100
1000
0100
0000
0001
0000
0010
0000
1000
0000
0000
0010
0000
0000
0010
0000
,
0100
1000
0100
0010
0100
1000
0001
1000
0001
0010
0001
1000
0100
0010
0100
0010
,
0200
0000
0000
0300
;
