#TITLE:DUNE;
#ARTIST:napakick feat. Taja;
#GENRE:TRIP HOP;
#MUSIC:DUNE.ogg;
#BANNER:DUNE.png;
#BACKGROUND:DUNE-bg.png;
#CDTITLE:./CDTitles/bm IIDX 5th style.png;
#SAMPLESTART:0.349;
#SAMPLELENGTH:15;
#OFFSET:-0.020;
#BPMS:0=156.033;
#DISPLAYBPM:156;
#BGSTAGE:4;
#BGCHANGES:0.750=DUNE.mp4=1.000=0=0=0=StretchNoLoop====,
99999=-nosongbg-=1.000=0=0=0 // don't automatically add -songbackground-
;

//--------------- dance-single - XLev450X-bSP ----------------
#NOTES:
     dance-single:
     XLev450X:
     Beginner:
     2:
     0,0,0,0,0:
0000
0000
0000
0000
,
0000
0000
0000
0000
,
0000
0000
0000
0000
,
0000
0000
0000
0000
,
0000
0000
0000
0000
,
0000
0000
0000
0000
,
0000
0000
0000
0000
,
0000
0000
0000
0000
,
0000
1000
0000
0000
,
0000
0010
0000
0000
,
0000
0001
0000
0000
,
0000
0100
0000
0000
,
0000
0010
0000
0000
,
0000
1000
0000
0000
,
0000
0001
0000
0000
,
0000
0100
0000
0000
,
0000
0001
0000
0001
,
0000
0001
0000
0000
,
0000
1000
0000
0000
,
0000
0100
0000
0000
,
0000
0010
0000
0010
,
0000
0010
0000
0000
,
0000
0001
0000
0000
,
0000
1000
0000
0000
,
0000
0001
0000
0100
,
0000
0001
0000
0000
,
0000
1000
0000
0010
,
0000
1000
0000
0000
,
0000
0010
0000
0100
,
0000
0010
0000
0000
,
0000
0001
0000
1000
,
0000
0100
0000
0000
,
0000
0001
0000
0000
,
0000
1000
0000
0000
,
0000
0100
0000
0000
,
0000
0010
0000
0000
,
0000
1000
0000
0001
,
0000
0100
0000
0000
,
0000
1000
0000
0100
,
0000
1000
0000
0000
,
0000
0101
0000
0000
,
0000
1010
0000
0000
,
0000
0110
0000
0000
,
0000
1001
0000
0000
,
0000
0001
0000
0000
,
0000
1000
0000
0000
,
0000
0100
0000
0000
,
0000
0010
0000
0000
,
0000
0001
0000
0000
,
0000
0000
0000
0000
,
0000
1000
0000
0000
,
0000
0000
0000
0000
,
0000
0100
0000
0000
,
0000
0010
0000
0000
,
0000
0100
0000
0000
,
0000
0000
0000
0000
,
0000
0001
0000
0000
,
0000
0100
0000
0000
,
0000
1000
0000
0000
,
0000
0010
0000
0000
,
0000
0100
0000
0000
,
0000
0000
0000
0000
,
0000
0001
0000
0000
,
0000
0000
0000
0000
,
0000
1001
0000
0000
;

//--------------- dance-single - XLev450X-BSP ----------------
#NOTES:
     dance-single:
     XLev450X:
     Easy:
     4:
     0,0,0,0,0:
0000
0000
0000
0000
,
0000
0000
0000
0000
,
0000
0000
0000
0000
,
0000
0000
0000
0000
,
0000
1000
0000
0001
,
0000
1000
0010
1000
,
0000
0100
0000
0001
,
0000
0010
0001
0010
,
0000
1000
0001
1000
,
0000
0010
0100
0100
,
0000
0010
0001
1000
,
0010
0100
0001
0010
,
0000
1000
0000
0001
,
0000
0100
0010
1000
,
0000
0100
0000
0001
,
0000
0010
0001
0010
,
0000
1000
0000
0001
,
0000
1000
0010
1000
,
0000
0100
0000
0001
,
0000
0100
0001
0100
,
0000
1000
0000
0001
,
0000
1000
0010
0100
,
0001
1000
0000
0010
,
0000
2002
0000
0000
,
3003
0100
0000
0010
,
0000
1000
0000
0001
,
0000
1000
0010
1000
,
0000
0100
0001
0100
,
0000
0001
0000
1000
,
0000
0010
1000
0010
,
0100
0001
0000
1000
,
0000
0010
0001
0010
,
1000
0200
0000
0010
,
0000
0001
0000
0310
,
0000
2000
0000
0010
,
0000
0100
0000
3010
,
0000
0002
0000
0010
,
0000
1000
0000
0013
,
0000
0020
0000
1000
,
0000
0001
0000
0130
,
0000
0001
1000
0010
,
0000
1000
0001
0100
,
0000
0010
0001
0010
,
0001
1000
0010
0100
,
0000
1001
0000
0010
,
0000
1000
0001
0100
,
0000
0010
0000
0100
,
0000
0001
0000
0000
,
0000
1000
0001
1000
,
0000
1000
0010
1000
,
0000
0100
0010
0100
,
0000
0010
0001
0010
,
0000
0002
0000
0000
,
0003
2000
0000
0000
,
3000
0100
0000
0010
,
0000
1000
0001
0010
,
0000
2000
3000
0002
,
0003
1000
0010
0100
,
0000
0001
0000
0000
,
0000
1000
0000
0000
,
0000
0010
0100
0010
,
0000
0001
0010
0001
,
0000
1000
0000
0010
,
0000
0100
0001
1000
,
0010
2002
0000
0000
,
0000
0000
0000
0000
,
3003
0220
0000
0000
,
0000
0000
0000
0000
,
0330
0000
0000
0000
;

//--------------- dance-single - XLev450X-DSP ----------------
#NOTES:
     dance-single:
     XLev450X:
     Medium:
     8:
     0,0,0,0,0:
0000
0000
0000
0000
,
0000
0000
0000
0000
,
0000
0000
0000
0000
,
0000
0000
0000
0000
,
0000
1000
0000
0010
,
0000
1000
0000
0001
,
0000
0100
0010
1000
,
0000
0001
0000
0100
,
0000
0010
1000
0010
,
0000
0100
0001
1000
,
0000
0010
0100
1000
,
0001
0100
0010
1000
,
0000
0010
1000
0001
,
0000
0100
0010
1000
,
0000
0001
1000
0010
,
0100
0101
1010
0110
,
0000
0000
0010
0001
0010
0000
1000
0100
,
1000
0010
1000
0001
,
0000
0000
0010
1000
0010
0000
0100
0001
,
0100
1000
0010
0101
,
0000
0000
1000
0010
1000
0000
0100
0010
,
0100
0000
0010
0001
0010
0000
1000
0100
,
1000
0010
1000
0001
,
0100
1001
0000
0000
,
0000
0010
1000
0001
,
0000
0000
0100
0000
0010
0000
0001
0010
,
0001
1000
0010
1000
,
0100
0010
1000
0010
,
0000
1000
0001
0100
,
0000
0000
0010
0000
1000
0000
0010
0001
,
0010
1000
0100
1000
,
0000
1000
0010
0100
,
0001
1000
0001
0100
,
0000
1000
0001
1000
,
0010
0000
0100
0000
1000
0000
0001
0100
,
0001
0010
1000
0001
,
0000
1000
0010
0100
,
0000
0000
1000
0010
0001
0000
1000
0010
,
0100
0001
1000
0010
,
0000
1000
0010
0100
,
0000
0000
0010
0001
0010
0000
1000
0100
,
1000
0000
0010
0100
0010
0000
1001
0000
,
0000
1000
0001
0100
,
0000
1000
0010
0100
,
0000
0000
1000
0010
1000
0000
0100
0010
,
0100
0000
0001
0010
0001
0000
1000
0000
,
0001
0020
0000
2030
,
0000
3002
0000
0203
,
0000
0300
0010
1000
0010
0000
0100
0010
,
0100
0001
1000
0001
,
0100
0000
0010
1000
0010
0000
0100
0010
,
1000
0001
0100
0000
0010
0000
1000
0000
,
0000
0001
1000
0010
,
0000
0100
0001
1000
,
0010
0000
0001
0010
0001
0000
1000
0010
,
1000
0100
1000
0001
,
0100
0010
0000
1000
,
0001
0100
0000
1000
,
0010
0000
0100
0010
1000
0000
0001
0100
,
0010
0000
1000
0000
0001
0000
0010
0001
,
0010
1000
0001
0100
,
0000
1000
0010
0100
,
1000
0000
1000
0010
1000
0000
0100
0010
,
0100
0001
0010
0100
,
0010
2000
0000
0010
,
0000
0100
0000
3010
,
0000
0002
0000
0100
,
0000
0010
0000
0103
;

//--------------- dance-single - XLev450X-ESP ----------------
#NOTES:
     dance-single:
     XLev450X:
     Hard:
     13:
     0,0,0,0,0:
0000
0000
0000
0000
,
0000
0000
0000
0000
,
0000
0000
0000
0000
,
0000
0000
0000
0000
,
0000
0000
1000
0000
0001
1000
0001
0000
,
0000
0010
0000
0000
1000
0000
0000
0001
,
0000
0000
0000
0000
0100
0000
0001
0010
0001
0000
0000
0000
1000
0000
0000
0000
,
0000
0010
0000
0000
0100
0001
1000
0000
,
0000
0000
0000
0000
0001
0000
0000
0000
1000
0000
0000
0000
0010
0000
0000
0001
,
0000
0000
0100
0000
0000
0000
0010
0000
1000
0000
0000
0000
0001
0000
0000
1000
,
0000
0010
0100
0001
0010
0000
1000
0010
,
0100
0000
0001
1000
0010
0000
0100
0000
,
0010
0000
0000
0000
0001
0000
0000
0000
1000
0000
0000
0000
0010
0000
0000
0100
,
0000
0001
0000
0000
1000
0000
0000
0010
,
0000
0100
0001
1000
,
0000
0000
0001
0000
0100
0000
0000
0000
0010
0000
0000
1000
0001
0000
1000
0000
,
0100
0000
0000
0000
0010
0000
0000
0001
0010
0000
0000
1000
0010
0000
0000
0000
,
0100
0000
0001
1000
0010
0000
0100
0000
,
0010
0000
0000
0000
1000
0000
0000
0001
1000
0000
0000
0010
0100
0000
0000
0001
,
1000
0000
0000
0100
0010
0000
0000
0000
0001
0000
0000
0000
0010
0000
0001
0010
,
0001
0000
0000
0000
1001
0000
0000
0010
1000
0000
0000
0010
0100
0000
0000
0001
,
1000
0000
0000
0001
0100
0000
0000
0001
1000
0000
0000
0010
0100
0000
0000
0000
,
1000
0000
0000
0000
0001
0000
0000
0100
0001
0000
0000
1000
0010
0000
0000
0100
,
0010
0000
1000
0000
0001
0000
0000
0000
0100
0000
0000
0000
0010
0000
0000
1000
,
0000
0000
0001
0000
0100
0000
0000
0000
0010
0000
0000
0000
0001
0000
0010
0001
,
0010
0000
1000
0000
0000
0100
0000
0000
0010
0000
0000
0000
0100
0000
0000
0000
,
0001
0000
1000
0010
0100
0000
1000
0001
,
0100
0000
0000
0010
0000
0000
0001
0000
1000
0000
0000
0000
0001
0000
0100
0000
,
0010
0000
0000
0000
1000
0000
0000
0001
0000
0000
1000
0000
0100
0000
0000
0000
,
0010
0000
0000
0000
1000
0000
0001
0000
0000
0000
0100
0000
0000
0010
0000
0000
,
1000
0000
0001
0100
0010
0000
1000
0000
,
0001
0000
0000
0001
0100
0000
0000
1000
0000
0000
0100
0000
0010
0000
0000
0001
,
0000
0100
0010
0000
1000
0000
0001
0100
,
0010
1000
0000
0001
0100
1000
0001
0000
,
1000
0000
0000
0000
0010
0000
0100
0000
0001
0000
0000
0000
1000
0000
0000
0001
,
0000
0000
0100
0000
0000
0000
0010
0001
0010
0000
0000
0000
0010
0000
0000
0000
,
0001
0000
0000
0000
1000
0000
0000
0001
0100
0000
0000
0010
1000
0000
0000
0010
,
0100
0000
0000
0000
0001
0000
0000
1000
0000
0000
0001
0000
0000
0000
0100
0000
,
0010
0000
0000
0000
1000
0000
0000
0001
0000
0000
0100
0000
0000
0010
0000
0000
,
1000
0001
0100
0000
0100
0000
0001
1000
,
0010
0000
0000
0000
1001
0000
0000
1000
0010
0000
0000
0100
0001
0000
0000
1000
,
0010
0000
0000
0100
0001
0000
0000
1000
0001
0000
0000
1000
0010
0000
0000
0100
,
0010
0000
0000
1000
0001
0000
0000
0000
0010
0000
0000
0000
0001
0000
0010
0000
,
0001
0000
0000
0000
1000
0000
0010
0001
0010
0000
0001
0000
1000
0000
0010
0100
,
0010
0000
0010
0000
1000
0000
0000
0001
0100
0000
0000
0010
1000
0000
0000
0010
,
0100
0000
0000
0001
1000
0000
0000
0010
0001
0000
0000
1000
0010
0000
0000
0100
,
0010
0000
0000
1000
0001
0000
0000
0000
0020
0000
0000
0000
2030
0000
0000
0000
,
0000
0000
0000
0000
3002
0000
0000
0000
0000
0000
0000
0000
0103
0000
1000
0001
,
1000
0000
0100
0000
0010
0000
0000
1000
0001
0000
0000
0100
0010
0000
0000
0001
,
1000
0000
0000
0010
0100
0000
0000
0001
0100
0000
0000
0010
1000
0000
0000
0010
,
0100
0000
0000
0010
1000
0000
0000
0001
0100
0000
0000
0001
1000
0000
0000
0010
,
0100
0000
0000
0001
1000
0000
0000
0000
0010
0000
0000
0000
0001
0000
0010
0000
,
0001
0000
1000
0010
0100
0010
0001
1000
,
0010
0000
0000
0000
0100
0000
0001
0000
0010
0000
0001
0000
1000
0000
0001
0010
,
0001
0100
1000
0010
0100
0000
0010
1000
,
0001
0000
0000
0000
0100
0000
0010
0000
1000
0000
0001
0000
0100
0000
0000
0010
,
0000
0000
1000
0000
0101
0000
0000
0100
0001
0000
0000
1000
0010
0000
0000
0010
,
0100
0000
0000
0001
0010
0000
0000
1000
0010
0000
0000
0010
0100
0000
0000
0010
,
1000
0000
0000
0001
0100
0000
0000
0000
1000
0000
0000
0000
0001
0000
0100
0000
,
0010
0000
0000
0000
0001
0000
1000
0000
0010
0000
0100
0000
1000
0100
0001
0000
,
0010
0100
0010
0000
1000
0000
0000
0000
0001
0000
0000
0000
0100
0000
0000
0001
,
0000
1000
0010
0000
0100
0000
0010
0001
,
1000
0000
0010
0100
0001
0000
1000
0010
,
0100
0000
0000
0000
0001
0010
0001
0000
1000
0010
1000
0000
0010
0100
0010
0000
,
0001
0100
0001
0000
1000
0000
0000
0000
0001
0000
0000
0000
0100
0000
0000
0001
,
0000
0000
1000
0000
0000
0100
0000
0000
0010
0000
0000
0001
0000
0000
1000
0000
,
0000
0001
0000
0000
1000
0000
0010
0000
0100
0000
0000
0000
0001
0000
0000
1000
,
0000
0000
0010
0000
0000
0100
0000
0000
0001
0000
0000
0100
1000
0000
0010
0000
,
1000
0000
0000
0000
;
