#TITLE:DUE TOMORROW;
#ARTIST:Mr.T;
#GENRE:TECHNO;
#MUSIC:DUE TOMORROW.ogg;
#BANNER:DUE TOMORROW.png;
#BACKGROUND:DUE TOMORROW-bg.png;
#CDTITLE:./CDTitles/bm IIDX 13 DistorteD.png;
#SAMPLESTART:12.074;
#SAMPLELENGTH:15;
#OFFSET:-0.074;
#BPMS:0=400
,336=100
,352=400;
#BGCHANGES:8.000=DUE TOMORROW.avi=1.000=1=0=0=StretchNoLoop==CrossFade==,
99999.000=-nosongbg-=1.000=0=0=0=StretchNoLoop====;
#BGSTAGE:27;

//--------------- dance-single - XLev450X-bSP ----------------
#NOTES:
     dance-single:
     XLev450X:
     Beginner:
     5:
     0,0,0,0,0:
0000
0000
0000
0000
,
0000
0000
0000
0000
,
0000
0000
0000
0000
,
0000
0000
0000
0000
,
0000
0000
0000
0000
,
0000
0000
0000
0000
,
0000
0000
0000
0000
,
0000
0000
0000
0000
,
0000
0000
0000
0000
,
0000
0000
0000
0000
,
0000
0000
0000
0000
,
0000
0000
0000
0000
,
0001
0000
0001
0000
,
0001
0000
0000
0000
,
1000
0000
1000
0000
,
1000
0000
0000
0000
,
0010
0000
0100
0000
,
0010
0000
0100
0000
,
1001
0000
0000
0000
,
0000
0000
0000
0000
,
1000
0000
1000
0000
,
1000
0000
1000
0000
,
1000
0000
1000
0000
,
1000
0000
1000
0000
,
0001
0000
0001
0000
,
0001
0000
0001
0000
,
0001
0000
0001
0000
,
0001
0000
0001
0000
,
0010
0000
0010
0000
,
0010
0000
0010
0000
,
0010
0000
0010
0000
,
0010
0000
0010
0000
,
0100
0000
0100
0000
,
0100
0000
0100
0000
,
0100
0000
0000
0000
,
0000
0000
0000
0000
,
0001
0000
1000
0000
,
0010
0000
0100
0000
,
1000
0000
0001
0000
,
0100
0000
0010
0000
,
1000
0000
0010
0000
,
0100
0000
0001
0000
,
1000
0000
0010
0000
,
0100
0000
0000
0000
,
0001
0000
0010
0000
,
0001
0000
0000
0000
,
1000
0000
0100
0000
,
1000
0000
0000
0000
,
0001
0000
0100
0000
,
1000
0000
0010
0000
,
0100
0000
1000
0000
,
0001
0000
0000
0000
,
0010
0000
0010
0000
,
1000
0000
0001
1000
,
0000
0000
0001
0000
,
0010
0000
1000
0000
,
0010
0000
0100
0000
,
1000
0000
0001
0000
,
0100
0000
0010
0000
,
1000
0000
1000
0000
,
0001
0000
0100
0000
,
1000
0000
0001
0000
,
1000
0000
0010
0000
,
0100
0000
0000
0000
,
1000
0000
0010
0000
,
0100
0000
0001
0000
,
0010
0000
0100
0000
,
0001
0000
0000
0000
,
1000
0000
0000
0000
,
0001
0000
0000
0000
,
1000
0000
0000
0000
,
0100
0000
0000
0000
,
1000
0000
0000
0000
,
0001
0000
0000
0000
,
1000
0000
0010
0000
,
1000
0000
0000
0000
,
0100
0000
0000
0000
,
0001
0000
0000
0000
,
1000
0000
0000
0000
,
0010
0000
0000
0000
,
1000
0000
0000
0000
,
0001
0000
0000
0000
,
0100
0000
0010
0000
,
1000
0000
0000
0000
,
0001
0000
1000
0000
,
0010
0000
0100
0000
,
0010
0000
0001
0000
,
1000
0000
0001
0000
,
0001
0000
0001
0000
,
0001
0000
0001
0000
,
1000
0000
1000
0000
,
1000
0000
1000
0000
,
0010
0000
0010
0000
,
0010
0000
0010
0000
,
0100
0000
0100
0000
,
0100
0000
0100
0000
,
0010
0000
0100
0000
,
0010
0000
1000
0000
,
0001
0000
1000
0000
,
0001
0000
1000
0010
,
0000
0000
1000
0000
,
0001
0000
0100
0000
,
0010
0000
0000
0000
,
0000
0000
0000
0000
,
0001
0000
0000
0000
,
1000
0000
0000
0000
,
0001
0000
0000
0000
,
0100
0000
0000
0000
,
1000
0000
0001
0000
,
0100
0000
0000
0000
,
1010
0000
0000
0000
,
0000
0000
0000
0000
,
1000
0000
0000
0000
,
0001
0000
0000
0000
,
0100
0000
0000
0000
,
1000
0000
0000
0000
,
0010
0000
1000
0000
,
0001
0000
0000
0000
,
0100
0000
0000
0000
,
0010
0000
0000
0000
,
1001
0000
0000
0000
,
0000
0000
0000
0000
,
0000
0000
0000
0000
,
0000
0000
0000
0000
,
0000
0000
0000
0000
,
0000
0000
0000
0000
,
0000
0000
0000
0000
,
0000
0000
0000
1001
,
0000
0000
0000
0000
,
0000
0000
0000
0000
,
0000
0000
0000
0000
,
0000
0000
0000
0000
,
0000
0000
0000
0000
,
0000
0000
0000
0000
,
0000
0000
0000
0000
,
0000
0000
0000
0000
,
0010
0000
0000
0010
,
0000
0010
0000
0000
,
0010
0000
0000
0010
,
0000
0000
1000
0000
,
0001
0000
0000
1000
,
0000
0010
0000
0000
,
1000
0000
0000
0001
,
0000
0010
0000
0000
,
0100
0000
0000
1000
,
0000
0000
0001
0000
,
0100
0000
0000
1000
,
0000
0010
0000
0000
,
1000
0000
0000
0001
,
0000
0000
0100
0000
,
0010
0000
0000
1000
,
0000
0001
0000
0000
,
0100
0000
0000
0000
;

//--------------- dance-single - XLev450X-BSP ----------------
#NOTES:
     dance-single:
     XLev450X:
     Easy:
     9:
     0,0,0,0,0:
0000
0000
0000
0000
,
0000
0000
0000
0000
,
0000
0000
0000
0000
,
0000
0000
0000
0000
,
0000
0000
0000
0000
,
0000
0000
0000
0000
,
0000
0000
0000
0000
,
0000
0000
0000
0000
,
0000
0000
0000
0000
,
0000
0000
0000
0000
,
0000
0000
0000
0000
,
0000
0000
0000
0000
,
0001
0000
1000
0000
,
0010
1000
0010
0000
,
0100
0000
0010
0000
,
0001
0010
0001
0000
,
1000
0000
0001
0000
,
0100
0010
0100
0000
,
1001
0000
0000
0000
,
0000
0000
0000
0000
,
0001
0000
0000
1000
,
0000
0000
0010
0000
,
1000
0000
0000
0001
,
0000
0000
0100
0000
,
0010
0000
0000
1000
,
0000
0000
0001
0000
,
0010
0000
0010
0000
,
0100
0000
0001
0000
,
0001
0000
0000
1000
,
0000
0000
0010
0000
,
0100
0000
0000
1000
,
0000
0000
0001
0000
,
0100
0000
0000
0010
,
0000
0000
1000
0000
,
0010
0000
0100
0000
,
0000
0000
0000
0000
,
0001
0000
1000
0000
,
0010
0000
0100
0000
,
1000
0000
0010
0000
,
0001
0000
0000
0000
,
0100
0000
1000
0000
,
0001
0000
1000
0000
,
0010
0000
0100
0000
,
1000
0000
0000
0000
,
0010
0000
1000
0000
,
0001
0000
0010
0000
,
0100
0000
1000
0000
,
0001
0000
0010
0000
,
0100
0000
1000
0000
,
0001
0000
1000
0000
,
0010
0000
0000
0000
,
0000
0000
0000
0000
,
0010
0000
1000
0000
,
0001
0000
0010
0000
,
1000
0000
0000
0001
,
0000
0000
0100
0000
,
0010
0000
1000
0000
,
0001
0000
0010
0000
,
0100
0000
0000
0001
,
0000
0000
1000
0000
,
0010
0000
1000
0000
,
0001
0000
0100
0000
,
1000
0000
0000
0001
,
0000
0000
1000
0000
,
0010
0000
0100
0000
,
1000
0000
0001
0000
,
0100
0000
0000
0010
,
0000
0000
0000
0000
,
0001
0000
0000
0000
,
1000
0000
0000
0000
,
0010
0000
1000
0000
,
0010
0100
0000
0000
,
0001
0000
0000
0000
,
1000
0000
0000
0000
,
0010
0000
1000
0000
,
0001
0000
0100
0000
,
1000
0000
0000
0000
,
0001
0000
0000
0000
,
1000
0000
0010
0000
,
1000
0000
0001
0000
,
0100
0000
0000
0000
,
0010
0000
0000
0000
,
0000
0000
0000
0000
,
0000
0000
0000
0000
,
0010
0000
1000
0000
0001
0000
0010
1000
,
0010
0100
0001
0000
,
0001
0000
1000
0000
0010
0000
0100
0010
,
0100
1000
0001
0000
,
0010
0000
1000
0000
,
0001
0000
0010
0000
,
1000
0001
1000
0000
,
0010
0000
1000
0000
,
0010
0000
0100
0000
,
0001
0000
0010
0000
,
0001
0010
0001
0000
,
1000
0010
1000
0000
,
0001
0000
1000
0000
,
0010
0000
0100
0000
,
0010
0001
0010
0000
,
1000
0010
1000
0000
,
0001
0000
0100
0000
,
0001
0000
1000
0000
,
0010
0000
0000
0000
,
0000
0000
0000
0000
,
0001
0000
0000
1000
,
0000
0000
0010
0000
,
1000
0000
0000
0001
,
0000
0000
0100
0000
,
0010
0000
0000
1000
,
0000
0000
0001
0000
,
0100
0000
0000
0001
,
0000
0000
1000
0000
,
0010
0001
0010
0000
,
1000
0000
0010
0000
,
0001
0010
0001
0000
,
1000
0000
0010
0000
,
0010
0100
0010
0000
,
1000
0000
0001
0000
,
1000
0000
0001
0000
,
0100
0000
0000
0000
,
1001
0000
0000
0000
,
0000
0000
0000
0000
,
0000
0000
0000
0000
,
0000
0000
0110
0110
,
0000
0000
0000
0000
,
0000
0000
0000
0000
,
0000
0000
0000
0000
,
0000
0000
0000
1001
,
1001
0000
0000
0000
,
0000
0000
0000
1001
,
0000
0000
0000
0000
,
0000
0000
0000
0110
,
0000
0000
0000
1100
,
0000
0000
0000
0011
,
0000
0000
0000
0110
,
0000
0000
0000
0000
,
0001
0000
1000
0000
,
0001
0000
1000
0000
,
0010
0000
0100
1000
,
0100
0010
0001
0000
,
0010
0000
0100
0000
,
1000
0001
1000
0010
,
0100
0000
0001
0000
,
0010
0000
0001
0000
,
1000
0010
1000
0000
,
0001
0100
0001
0000
,
0010
0000
1000
0000
,
0010
0001
0010
0000
,
0100
1000
0100
0000
,
0001
0000
0100
0000
,
0010
1000
0001
0100
,
0010
1000
0001
0010
,
0100
0000
0000
0000
;

//--------------- dance-single - XLev450X-DSP ----------------
#NOTES:
     dance-single:
     XLev450X:
     Medium:
     11:
     0,0,0,0,0:
0000
0000
0000
0000
,
0000
0000
0000
0000
,
0000
0000
0000
0000
,
0000
0000
0000
0000
,
0000
0000
0000
0000
,
0000
0000
0000
0000
,
0000
0000
0000
0000
,
0000
0000
0000
0000
,
0000
0000
0000
0000
,
0000
0000
0000
0000
,
0000
0000
0000
0000
,
0000
0000
0000
0000
,
0001
1000
0010
1000
,
0010
0000
0001
0000
,
0010
0001
0010
0001
,
1000
0000
0001
0000
,
0100
1000
0001
0000
,
0010
1000
0010
0000
,
2001
0000
0000
0000
,
0000
0000
3000
0000
,
0010
0000
1000
0000
,
0001
0000
0100
0000
,
1000
0000
0001
0000
,
0010
0001
0010
0000
,
1000
0001
1000
0000
,
0010
1000
0010
0000
,
0001
0000
1000
0000
,
0100
0000
1000
0000
,
0010
1000
0010
0000
,
0001
0000
0100
0000
,
0001
0100
0001
0000
,
0010
0000
0100
0000
,
1000
0010
1000
0000
,
0010
0000
0100
0000
,
0001
1000
0010
0220
,
0000
0000
0330
0000
,
0001
0000
1000
0000
,
0010
0000
0100
0000
,
1000
0000
0010
0000
,
0010
1000
0010
0001
,
1000
0000
0001
0000
,
0001
0000
1000
0000
,
0001
1000
0001
0000
,
1000
0010
1000
0000
,
0001
0000
0100
0000
,
1000
0001
0010
0000
,
1000
0000
0010
0000
,
0001
0000
0001
0000
,
1000
0000
0010
0000
,
0100
1000
0100
0000
,
0001
0000
0100
0000
,
2002
0000
3003
0000
,
0010
0000
0010
0000
,
1000
0000
0100
0000
,
0001
0000
1000
0000
,
0010
0000
1000
0010
,
1000
0000
0001
0000
,
0100
0000
0001
0000
,
0001
1000
0010
1000
,
0001
0100
1000
0001
,
0010
0000
1000
0000
,
0100
0000
1000
0000
,
0010
0000
1000
0000
,
0010
1000
0010
0000
,
0100
0000
1000
0000
,
0001
0000
0010
0000
,
0100
0010
0100
0012
,
0000
0000
0000
0003
,
1000
0000
0010
0000
,
1000
0000
0001
0000
,
1000
0001
1000
0000
,
0010
0000
1000
0000
,
0010
1000
0010
0000
,
0001
0010
0001
0000
,
0100
0010
0100
0010
,
1000
0000
0001
0000
,
1000
0010
1000
0000
,
0001
0000
0001
0000
,
1000
0010
1000
0000
,
0100
0000
1000
0000
,
0001
1000
0010
1000
,
0001
0000
0100
0000
,
1000
0001
0010
1000
,
0100
0001
0010
0100
,
0001
0000
1000
0000
0010
1000
0100
0001
,
0010
0000
1000
0000
0010
0001
0010
1000
,
0010
1000
0010
0000
0001
0010
0001
0000
0100
0010
0100
0000
1000
0000
0001
0000
,
1000
0001
1000
0000
0010
1000
0010
0000
0001
0010
0001
0000
1000
0000
0010
0000
,
0001
0000
1000
0000
,
0010
0000
1000
0000
,
0100
0000
0001
0010
,
0001
0000
1000
0010
,
1000
0000
0010
0000
,
0100
0000
1000
0000
,
0010
0000
0010
0000
,
1000
0000
0010
0000
,
0001
1000
0001
0000
,
0001
0000
0001
0000
,
1000
0010
1000
0000
,
0100
0000
1000
0000
,
0010
0100
1000
0001
,
0100
1000
0100
0001
,
0010
1000
0001
0100
,
0020
0000
0000
0030
,
0001
0000
1000
0000
,
0010
0000
0100
0000
,
1000
0000
0001
0000
,
0100
0000
1000
0000
,
0001
0000
0101
0000
,
0000
1010
0000
0000
,
0110
0000
0000
1010
,
0000
1000
0001
0010
,
0001
0000
1000
0000
,
0100
0000
1000
0000
,
0001
1000
0001
1000
,
0010
0000
1000
0000
,
0010
1000
0010
0000
,
0001
0010
0001
0000
,
0100
0000
1000
0001
,
0200
0000
0000
0300
,
1001
0000
0000
0000
,
0000
0000
0000
0000
,
0000
0000
0000
0000
,
0000
0000
0010
0100
,
0000
0000
0000
0000
,
0000
0000
0000
0000
,
0000
0000
0000
0000
,
0000
0000
0000
0001
,
1000
0000
0000
0000
,
0000
0000
0000
0000
0000
0000
1000
0001
,
1000
0000
0000
0000
,
0000
0000
0000
0000
0000
0000
0010
1000
,
0000
0000
0010
0000
0000
0000
0010
0100
,
0000
0000
0100
0000
0000
0000
0001
0010
,
0000
1000
0000
0002
,
0000
0000
0003
0000
,
1000
0001
1000
0001
,
1000
0010
1000
0010
,
0100
1000
0001
0100
,
0010
1000
0001
1000
,
0010
1000
0001
1000
,
0010
0001
1000
0001
,
1000
0010
1000
0001
,
0020
0000
0030
0000
,
0100
1000
0001
1000
,
0010
1000
0010
0100
,
1000
0001
0010
1000
,
0001
0100
0010
1000
,
0001
1000
0010
1000
,
0001
1000
0010
1000
,
0010
0001
0100
0000
1000
0000
0001
1000
,
0010
0000
1000
0100
0010
0001
1000
0100
,
0001
0000
0000
0000
;

//--------------- dance-single - XLev450X-ESP ----------------
#NOTES:
     dance-single:
     XLev450X:
     Hard:
     17:
     0,0,0,0,0:
0000
0000
0000
0000
,
0000
0000
0000
0000
,
0000
0000
0000
0000
,
0000
0000
0000
0000
,
0000
0000
0000
0000
,
0000
0000
0000
0000
,
0000
0000
0000
0000
,
0000
0000
0000
0000
,
0000
0000
0000
0000
,
0000
0000
0000
0000
,
0000
0000
0000
0000
,
0000
0000
0000
0000
,
0010
0100
0010
1000
,
0100
0000
1000
0000
0001
1000
0100
0000
,
0001
0100
0001
1000
,
0010
0000
0100
0000
0010
0001
1000
0000
,
0010
0100
0001
1000
,
0100
0000
0010
0100
0001
0000
1000
0000
,
0020
0100
0000
0100
,
0000
0000
0000
0100
0000
0000
0130
0000
0000
0000
0000
0000
,
0010
0000
0010
1000
0000
1000
0001
0000
,
0001
0010
0000
0010
0100
0000
1000
0000
,
0100
0000
0100
1000
0000
1000
0010
0000
,
0010
0100
0000
0100
0001
0000
0100
0000
,
0001
0000
0001
0100
0000
0100
0010
0000
,
0010
1000
0000
1000
0010
0000
0100
0000
,
0001
0100
1000
0100
0001
0100
1000
0100
,
0001
0010
1000
0010
0001
0010
1000
0010
,
0001
0000
0001
0010
0000
0010
1000
0000
,
1000
0010
0000
0010
0001
0000
0010
0000
,
0001
0000
0001
0100
0000
0100
1000
0000
,
1000
0100
0000
0100
0001
0000
0100
0000
,
0010
0000
0010
0100
0000
0100
0001
0000
,
0001
1000
0000
1000
0001
0000
1000
0000
,
0001
0100
1000
0100
0001
0100
1000
0100
,
0001
0010
1000
0010
0001
0010
1000
0010
,
0001
0001
0010
0100
,
1000
0010
0100
0001
,
1000
1000
0010
0100
,
0001
0010
0100
0010
,
0001
0001
0100
0010
,
1000
0001
1000
0100
,
0010
0010
0100
1000
,
0001
0100
0010
1000
,
0010
0001
1000
0010
0100
0000
0010
0000
,
0100
1000
0100
1000
,
0001
1000
0100
0001
0010
0000
0100
0000
,
0010
0100
0001
0010
,
0100
1000
0010
0000
0001
0000
0010
0000
,
0100
0010
1000
0000
0010
0000
1000
0100
,
0001
0010
0100
1000
,
0100
0001
0010
1000
0001
0100
0010
0001
,
0010
0000
0001
0100
0000
0100
0010
0000
,
0010
1000
0000
1000
0010
0000
0100
0000
,
0001
0000
0001
1000
0000
1000
0100
0000
,
0100
1000
0000
1000
0001
0000
0100
0000
,
0010
0000
0010
0100
0000
0100
0001
0000
,
0001
1000
0000
1000
0010
0000
0100
0000
,
0001
0100
1000
0100
0001
0100
1000
0100
,
0001
0010
1000
0010
0001
0010
1000
0010
,
0100
0100
0010
1000
,
0001
0010
0100
1000
,
1010
0010
1000
0100
,
0010
0001
0100
0010
,
0110
0100
0001
1000
,
0100
0010
0100
1000
,
0001
1000
0001
1000
0001
1000
0001
0000
,
1000
0010
1000
0010
1000
0010
1000
0000
,
1000
1000
0100
0010
,
0001
0100
0010
1000
,
0001
0001
0010
0100
,
0010
0001
1000
0010
,
0100
0100
1000
0100
,
0010
1000
0001
0010
,
0100
0100
0001
0100
,
0010
0001
1000
0010
,
0001
1000
0001
0100
0001
0000
0010
0000
,
0100
1000
0010
0100
0010
0000
0100
0000
,
0001
0100
0001
0010
0001
0000
0100
0000
,
0010
1000
0001
1000
0010
0000
1000
0000
,
0100
0010
0100
0010
0100
0000
1000
0000
,
0010
0100
0010
0100
0010
0000
1000
0000
,
1000
0100
1000
0000
0010
1000
0001
1000
,
0100
1000
0010
1000
0001
1000
0001
1000
,
0001
1000
0010
1000
0001
1000
0010
1000
0001
0010
0100
1000
0001
1000
0010
0100
,
0001
0100
1000
0000
0010
0000
1000
0000
0001
0000
1000
0000
0100
0000
0010
0000
0001
0000
1000
0000
0010
1000
0010
0000
0001
0000
1000
0000
0010
0001
1000
0000
,
0100
0000
1000
0000
0001
0000
1000
0100
0001
0000
1000
0000
0100
0000
0010
0000
0001
1000
0010
0000
0100
0000
1000
0000
0010
0000
0001
0000
1000
0000
0010
0000
,
0001
0100
1000
0000
0001
0000
1000
0001
0100
0000
0001
0000
1000
0100
0001
0000
0010
0100
1000
0100
0010
0001
0010
1000
0010
0001
1000
0100
0001
0010
1000
0001
,
1000
1000
1000
1000
,
0001
0001
0001
0001
,
0010
0010
0010
0010
,
0100
1000
0010
0000
0100
0001
0010
0000
,
0001
0001
0001
0001
,
1000
1000
1000
1000
,
0010
0010
0010
0010
,
0100
0001
0100
0000
0010
1000
0010
0000
,
1000
1000
1000
1000
,
0001
0001
0001
0001
,
0010
0010
0010
0010
,
0100
1000
0001
0000
0010
0001
1000
0000
,
0001
0001
0001
0001
,
0100
0100
0100
0100
,
0010
1000
0001
0010
0100
1000
0010
0100
,
0012
0000
0000
0003
,
1000
0100
0001
0100
,
1000
0010
0001
0010
,
1000
0100
0001
0100
,
1000
0010
0001
0010
,
1000
0100
0001
0100
,
1000
0010
0001
0010
,
1000
0100
0001
0100
,
1000
0010
0001
0010
,
0001
0100
1000
0100
0001
0010
0100
1000
,
0100
0010
0001
0010
0100
1000
0100
0000
,
1000
0100
0010
0001
1000
0100
0010
0001
,
1000
0100
0010
0001
1000
0100
0010
0000
,
0001
0010
0100
1000
0001
0010
0100
1000
,
0001
0010
0100
1000
0001
0010
0100
0000
,
1000
0100
0010
0001
0010
0100
1000
0100
,
0010
0001
0010
0100
1000
0100
0010
0001
,
0100
0000
0000
0000
,
0000
0000
0000
0000
,
0000
0000
0000
0000
,
0000
0000
1001
1001
,
0000
0000
0000
0000
,
0000
0000
0000
0000
,
0000
0000
0000
0000
,
0000
0000
0000
0011
,
0110
0000
0000
0000
,
0000
0000
0000
0000
0000
0000
1000
0100
,
1000
0000
0000
0000
,
0000
0000
0000
0000
0000
0000
1000
0001
,
1000
0000
0110
0000
0000
0000
0010
0001
,
0010
0000
1100
0000
0000
0000
0001
1000
,
0100
0001
1000
0001
,
0100
0010
0001
1000
,
0100
0000
0000
0000
0000
0000
0000
0000
0000
0000
0000
0000
1000
0000
0000
0000
0000
0000
0000
0000
0000
0000
0000
0000
0100
0000
0000
0000
0000
0000
0000
0000
0000
0000
0000
0000
0010
0000
0000
0000
0000
0000
0000
0000
0000
0000
0000
0000
,
0001
0000
0000
0000
0000
0000
0000
0000
0000
0000
0000
0000
0010
0000
0000
0000
0000
0000
0000
0000
0000
0000
0000
0000
0100
0000
0000
0000
0000
0000
0000
0000
0000
0000
0000
0000
1000
0000
0000
0000
0000
0000
0000
0000
0000
0000
0000
0000
,
0001
0000
0000
0000
0000
0000
0000
0000
0000
0000
0000
0000
0100
0000
0000
0000
0000
0000
0000
0000
0000
0000
0000
0000
0001
0000
0000
0000
0000
0000
0000
0000
0000
0000
0000
0000
1000
0000
0000
0000
0000
0000
0000
0000
0000
0000
0000
0000
,
0001
0000
0000
0000
0000
0000
0000
0000
0000
0000
0000
0000
0100
0000
0000
0000
0000
0000
0000
0000
0000
0000
0000
0000
0010
0000
0000
0000
0000
0000
0000
0000
0000
0000
0000
0000
0100
0000
0000
0000
0000
0000
0000
0000
0000
0000
0000
0000
,
0010
0000
0000
0000
0000
0000
0000
0000
0000
0000
0000
0000
1000
0000
0000
0000
0000
0000
0000
0000
0000
0000
0000
0000
0100
0000
0000
0000
0000
0000
0000
0000
0000
0000
0000
0000
1000
0000
0000
0000
0000
0000
0000
0000
0000
0000
0000
0000
,
0010
0000
0000
0000
0000
0000
0000
0000
0000
0000
0000
0000
0100
0000
0000
0000
0000
0000
0000
0000
0000
0000
0000
0000
0010
0000
0000
0000
0000
0000
0000
0000
0000
0000
0000
0000
0100
0000
0000
0000
0000
0000
0000
0000
0000
0000
0000
0000
,
0001
0000
0000
0000
0000
0000
0000
0000
0000
0000
0000
0000
1000
0000
0000
0000
0000
0000
0000
0000
0000
0000
0000
0000
0100
0000
0000
0000
0000
0000
0000
0000
0000
0000
0000
0000
0010
0000
0000
0000
0000
0000
0000
0000
0000
0000
0000
0000
,
0001
0000
0000
0000
0000
0000
0000
0000
0000
0000
0000
0000
1000
0000
0000
0000
0000
0000
0000
0000
0000
0000
0000
0000
0100
0000
0000
0000
0000
0000
0000
0000
0000
0000
0000
0000
0010
0000
0000
0000
0000
0000
0000
0000
0000
0000
0000
0000
,
0001
0100
0001
0100
0001
0100
0001
0100
,
0001
1000
0001
1000
0001
1000
0001
0010
,
0001
0010
0001
0100
0001
1000
0010
0100
,
0010
0100
0001
0010
0001
0100
0001
0000
,
0100
0010
0100
0010
1000
0010
1000
0010
,
0100
0010
0100
0001
0100
0001
0010
0001
,
0100
0010
0100
0010
1000
0010
1000
0100
,
1000
0010
1000
0100
0010
0100
1000
0001
,
0100
0000
0000
0000
;
