#TITLE:DM STAR;
#ARTIST:NAOKI;
#GENRE:SPEED RAVE;
#MUSIC:DM STAR.ogg;
#BANNER:DM STAR.png;
#BACKGROUND:DM STAR-bg.png;
#SAMPLESTART:39.48;
#SAMPLELENGTH:15;
#BPMS:0=155.09;
#DISPLAYBPM:155;

//--------------- dance-single - XLev450X-bSP ----------------
#NOTES:
     dance-single:
     XLev450X:
     Beginner:
     3:
     0,0,0,0,0:
0000
0000
0000
0000
,
0000
0000
0000
0000
,
0000
0000
0000
0000
,
0000
0000
0000
0000
,
0000
0000
0000
0000
,
0010
0000
0001
0000
,
0010
0000
0000
0000
,
0100
0000
1000
0000
,
0100
0000
0000
0000
,
1001
0000
0000
0000
,
0010
0010
0000
0000
,
0100
0100
0000
0000
,
1000
1000
0000
0000
,
0001
0001
0000
0000
,
0010
0001
0000
0000
,
0100
1000
0000
0000
,
1000
0001
0000
0000
,
0001
1000
0000
0000
,
0010
0000
0010
0000
,
0010
0000
0000
0000
,
0100
0000
0100
0000
,
0100
0000
0000
0000
,
1000
0000
0100
0000
,
0100
0000
0000
0000
,
0001
0000
0010
0000
,
0010
0000
0000
0000
,
0010
0000
0100
0000
,
0010
0000
0000
0000
,
1000
0000
0100
0000
,
1000
0000
0000
0000
,
0001
0000
0010
0000
,
0001
0000
0000
0000
,
0001
0000
1000
0000
,
0001
0000
0000
0000
,
1001
0000
0000
0000
,
0000
0000
0000
0000
,
1001
0000
0000
0000
,
0000
0000
0000
0000
,
0110
0000
0000
0000
,
0000
0000
0000
0000
,
0110
0000
0000
0000
,
0000
0000
0000
0000
,
1000
1000
0000
0000
,
0000
0000
0000
0000
,
0001
0001
0000
0000
,
0000
0000
0000
0000
,
0100
0100
0000
0000
,
0000
0000
0000
0000
,
0010
0010
0000
0000
,
0000
0000
0000
0000
,
1000
0000
1000
0000
,
1000
0000
0000
0000
,
0010
0000
0100
0000
,
0010
0000
0000
0000
,
0001
0000
0001
0000
,
0001
0000
0000
0000
,
0001
0000
1000
0000
,
0001
0000
0000
0000
,
0010
0000
0010
0000
,
0010
0000
0000
0000
,
0100
0000
0100
0000
,
0100
0000
0000
0000
,
1000
0000
1000
0000
,
1000
0000
0000
0000
,
0001
0000
0001
0000
,
0001
0000
0000
0000
,
0010
0000
0010
0000
,
0000
0000
0000
0000
,
1000
0000
1000
0000
,
0000
0000
0000
0000
,
0100
0000
0100
0000
,
0000
0000
0000
0000
,
0001
0000
0001
0000
,
0000
0000
0000
0000
0000
0000
0000
0010
,
0000
0000
0000
0000
0000
0000
0000
0100
,
0000
0000
0000
0000
,
0000
1001
0000
0000
;

//--------------- dance-single - XLev450X-BSP ----------------
#NOTES:
     dance-single:
     XLev450X:
     Easy:
     6:
     0,0,0,0,0:
0000
0000
0000
0000
,
0000
0000
0000
0000
,
0000
0000
0000
0000
,
0000
0000
0000
0000
,
0000
0000
0000
0000
,
0001
1000
0001
0000
,
0010
1000
0010
0000
,
0100
0001
0100
0000
,
0010
0100
0010
0000
,
2002
0000
0000
3003
,
0001
0001
1000
1000
,
0010
0010
0100
0000
,
0001
1000
0001
1000
,
0100
1000
0001
0000
,
0010
1000
0010
0100
,
1000
0001
0100
0000
,
0010
1000
0001
0100
,
1000
0001
1000
0000
,
0010
1000
0100
1000
,
0001
0010
0001
0000
1000
0100
1000
0000
,
0001
0100
0010
1000
,
0010
1000
0010
0000
0010
0100
0010
0000
,
0001
0010
1000
0001
,
1000
0001
1000
0000
0010
0001
0010
0000
,
1000
0000
0100
0000
0001
0100
0001
0000
,
0010
0100
0000
0000
,
0001
1000
0010
0100
,
1000
0100
0001
0010
,
1000
0100
1000
0010
,
0001
0010
0001
0000
1000
0100
1000
0000
,
1001
0010
1000
0100
,
1000
0001
0100
1000
,
0010
1000
0100
0010
,
0001
0010
0001
0000
1000
0010
1000
0000
,
0001
0000
1000
0000
,
0100
0001
1000
0000
,
0010
1000
0010
0000
,
0100
0010
0100
0000
,
0001
0000
0000
1000
0000
0000
0010
0000
,
1000
0010
1000
0000
0100
0000
0001
0000
,
0001
0000
0000
0100
0000
0000
1000
2002
,
0000
0000
0000
3003
,
0010
1000
0100
0001
,
0010
1000
0100
0000
,
1000
0100
1000
0010
,
1000
0001
0010
0000
,
1000
0001
1000
0100
,
1000
0001
0010
0000
,
0100
0100
0001
0001
,
1000
0010
0100
0000
,
1000
0100
0001
0000
,
0010
1000
0100
1000
,
0001
0010
0000
1000
,
0100
0001
0000
1000
,
0010
0100
0000
0001
,
1000
0001
0000
1000
,
0100
0001
1000
0001
,
0100
0010
2000
3001
,
2002
0000
0000
0000
0000
0000
0000
3000
,
0200
0000
0000
0000
0000
0000
0000
0300
,
0020
0000
0000
0000
0000
0000
0000
0030
,
0200
0000
0000
0000
0000
0000
0000
0303
,
2002
0000
0000
0000
0000
0000
0000
0003
,
0020
0000
0000
0000
0000
0000
0000
0030
,
0200
0000
0000
0000
0000
0000
0000
0300
,
0020
0000
0000
0000
0000
0000
0000
3030
,
0001
1000
0001
0000
,
1000
0100
0010
1000
,
0001
0100
0001
0000
,
0010
0100
1000
0001
,
0010
0100
0001
0000
,
1000
0001
1000
0010
,
0100
0001
1000
0010
,
0100
0000
0000
0001
0000
0000
1000
0001
,
0000
0000
0100
0000
0010
0000
1000
0010
,
0000
0100
0001
0000
1000
0000
0001
0100
,
0000
2002
0000
3003
;

//--------------- dance-single - XLev450X-DSP ----------------
#NOTES:
     dance-single:
     XLev450X:
     Medium:
     10:
     0,0,0,0,0:
0000
0000
0000
0000
,
0000
0000
0000
0000
,
0000
0000
0000
0000
,
0000
0000
0000
0000
,
0000
0000
0000
0000
,
0001
1000
0010
0100
,
1000
0000
0001
0000
0010
0001
0010
0000
,
1000
0000
0100
0000
1000
0010
1000
0000
,
0001
0000
0100
0000
0010
0100
0010
0000
,
2002
0000
0000
3003
,
0001
1000
0100
0001
,
0010
0000
0100
0000
1000
0010
1000
0100
,
0001
1000
0100
0001
,
1000
0000
0010
0000
0001
0010
0001
0100
,
1000
0001
1000
0001
,
0100
0000
0010
0000
1000
0100
0001
0010
,
0100
0000
1000
0000
0001
0010
1000
0000
,
0001
0000
0100
0000
0010
1000
0010
0000
,
0001
1000
0001
0000
,
1000
0000
0100
0000
0010
1000
0010
0000
,
0100
0001
0010
0100
,
0001
0001
1000
0001
,
1000
0001
1000
0000
0010
0000
1000
0000
,
0100
0010
0001
0000
,
1000
1010
0001
0011
,
0001
0100
0001
0100
0002
1000
2000
3003
,
0010
0000
1000
0000
0100
1000
0100
0000
,
0001
0000
0001
0000
1000
0010
1000
0000
,
0010
0000
0001
0000
0100
1000
0001
0000
,
0010
0000
0100
0101
0001
1000
0001
1001
,
2000
3000
0010
0000
1000
0000
0001
0000
,
1000
0000
0010
0000
0100
0010
0100
0000
,
1000
0000
0001
0000
0010
0001
0010
0000
,
1000
0000
0010
0000
1000
0000
0010
0000
1000
0000
0001
0000
0100
0000
0001
0100
,
1000
0000
0000
0000
0001
0000
0000
0100
0000
0000
0001
0000
1000
0000
0000
0000
,
0010
0000
1000
0000
0001
0000
0000
0100
0000
0000
1000
0000
0001
0000
0000
0000
,
0010
0000
1000
0000
0010
0000
0000
0100
0000
0000
0001
0000
1000
0000
0000
0000
,
0010
0000
1000
0000
0001
0000
0000
0100
0000
0000
0010
0000
0000
0000
0000
0000
,
0001
1000
0010
0000
0100
1000
0001
0000
,
0010
1000
0010
0000
0001
0000
0100
0000
,
1000
0001
1000
0000
0010
0100
0010
2002
,
0000
0000
0000
0000
0000
0000
0000
3003
,
0010
0000
1000
0000
0100
1000
0100
0001
,
0010
0100
1000
0010
,
0001
0100
0001
0000
1000
0010
1000
0000
,
0100
0001
1000
0001
,
0010
0000
0100
0000
1000
0010
1000
0000
,
0100
0001
1000
0000
,
0001
0000
1000
0000
0001
1000
0001
0000
,
0020
0100
1000
0130
,
0001
1000
0010
1000
,
0100
0001
0000
0010
,
1000
0100
0000
0001
,
0100
0010
0000
1000
,
0100
0010
0000
0001
,
1000
0001
1000
0010
,
1000
0001
0100
0001
,
1000
0000
0001
0000
1000
0000
0000
0010
0000
0000
0001
0000
1000
0000
0100
0000
,
0002
0010
0010
0000
,
0100
0100
0010
0013
,
0020
0100
0100
0000
,
1000
0000
1000
0000
0100
0100
0130
0000
,
0200
1000
1000
0000
,
1000
1000
1000
1300
,
2000
0100
0100
0000
,
0010
0010
0001
3001
,
0001
1000
0100
0010
,
1000
0000
0001
0000
0010
0001
0010
0000
,
1000
0000
0100
0000
0010
0100
0010
0000
,
1000
0010
1000
0000
0001
0000
0100
0000
,
0001
1000
0001
1000
,
0010
0000
1000
0000
0100
1000
0100
0000
,
0001
0010
1000
0001
,
0100
0000
0010
0000
1000
0000
0001
0100
,
0000
1000
0010
0000
0100
0000
0001
0010
,
0000
1000
0001
1000
0010
0100
0001
2000
,
3100
0010
2002
0000
0000
0000
3003
0000
;

//--------------- dance-single - XLev450X-ESP ----------------
#NOTES:
     dance-single:
     XLev450X:
     Hard:
     14:
     0,0,0,0,0:
0000
0000
0000
0000
,
0000
0000
0000
0000
,
0000
0000
0000
0000
,
0000
0000
0000
0000
,
0000
0000
0000
0000
,
0000
0000
0000
0000
,
0000
0000
0000
0000
,
0000
0000
0000
0000
,
0000
0000
0000
0000
,
0002
0000
0000
0000
2000
0000
0000
0000
0000
0000
0000
0000
3003
0000
1000
0100
,
0001
0000
0010
0000
0010
0000
0100
0000
0010
0000
0000
0001
0000
0000
1000
0000
,
0100
0000
0001
0000
0100
0000
1000
0000
0010
0000
0100
0000
0010
0000
0010
0100
,
1000
0000
0100
0000
0100
0000
1000
0000
0001
0000
0000
0010
0000
0000
0001
0000
,
0100
0000
0001
0000
0100
0000
1000
0000
0100
0000
0010
1000
0100
0000
0001
0000
,
0001
0000
0010
0000
0100
0000
1000
0000
0010
0100
0010
0100
1000
0000
0001
0000
,
0100
0000
1000
0000
0001
0000
0100
0000
0001
1000
0010
0001
1000
0000
0001
0000
,
0100
0000
1000
0000
0010
0000
0100
0001
0100
0000
0001
0010
0001
0000
0100
0000
,
1000
0010
1000
0010
1000
0000
0001
0000
0100
0010
0100
0000
0220
0000
0330
0000
,
0001
1000
0010
1000
0001
0100
1000
0001
,
1000
0010
1000
0100
0001
0010
0001
0000
,
1000
0010
1000
0100
1000
0001
1000
0010
,
1000
0001
0010
1000
0001
0000
1010
0000
,
0010
0100
1000
0001
0010
0001
0010
1000
,
0001
0010
0001
0000
0011
0000
1001
0000
,
0010
1000
0001
0000
0010
1000
0100
0000
,
0001
0000
0000
0000
1000
0000
0000
0000
0010
0000
0000
0000
1000
0000
0001
0000
2000
0000
0000
0000
0000
0000
0000
0000
0200
0000
0000
0000
0000
3300
0000
0000
,
0002
0100
0103
0000
1000
0100
1000
0001
,
0100
0000
0010
0100
2000
0000
0000
0000
3001
0000
0000
0000
0011
0000
0000
0000
,
1020
1000
1030
0000
0001
0100
0001
0010
,
0100
0000
1000
0100
0002
0000
0010
0000
0013
0000
0100
0000
1000
0000
0010
0000
,
0100
0010
0010
0000
0001
1000
0100
1000
,
0000
0000
0010
0000
0100
0000
0010
0000
1000
0000
0100
0010
0001
0000
0010
0000
,
2020
0000
3030
0000
0100
0001
0010
0100
,
0000
0000
0100
0000
0010
0000
0001
0000
1000
0001
0010
1000
0100
0001
1000
0100
,
0001
0000
1000
0000
0010
0000
0000
0100
0000
0000
0001
0000
1000
0001
0000
0010
,
0100
0000
1000
0000
0100
0000
0001
1000
0100
0000
0001
0010
0000
0100
1000
0000
,
0100
0000
0001
0000
0100
0000
0000
0001
0000
0000
1000
0000
0010
0000
1000
0001
,
0100
0000
1000
0000
0001
0000
0000
0010
0000
0000
1000
0000
0100
0000
0010
0000
,
0001
1000
0010
0000
0001
0000
0010
0000
,
1000
0100
1000
0000
0001
0000
0001
0000
,
1000
0010
1000
0100
0001
0010
1000
1002
,
1000
1000
2000
0000
0000
0000
3003
0000
,
0001
0000
0100
0000
0100
0000
0010
0000
1000
0000
0000
0100
0000
0000
1000
0000
,
0001
0000
0010
0000
1000
0000
0010
0000
0100
0000
0010
1000
0001
0000
0010
0000
,
1000
0000
0010
0000
0010
0000
0100
0000
0001
0000
0000
0010
0000
0000
0100
0000
,
1000
0000
0100
0000
0001
0000
0100
0000
0010
0000
1000
0001
0010
0000
1000
0000
,
0100
0000
1000
0000
0100
0000
0010
0000
0001
0000
1000
0001
0010
0000
0010
0000
,
0100
0000
1000
0010
1000
0000
0100
0010
0100
0000
1000
0000
0001
0000
1000
0000
,
0100
0010
0001
0010
1000
0010
0001
1000
,
0100
0000
0001
0010
0000
0001
0000
1000
0010
0000
1001
0000
0110
0000
0000
0000
,
0001
1000
0010
1000
0100
1000
0001
0010
,
1000
0001
0100
1000
0010
0000
0101
0000
,
1000
0010
1000
0000
0100
1000
1100
0000
,
0001
0010
0001
1000
0010
0001
0011
0000
,
0001
1010
0001
0101
,
0001
1000
0010
1000
0100
1000
0001
0000
,
0010
1000
0100
0001
1000
0010
1000
0001
,
0100
0000
1000
0000
0001
0000
0010
0000
1000
0001
0100
0010
1000
0001
0010
0100
,
2000
0100
0100
0100
,
0100
0100
0100
0000
0100
0000
3100
0000
,
0200
0010
0010
0010
,
0010
0010
0010
0000
0010
0000
0310
0000
,
0020
0001
0001
0001
,
0001
0001
0001
0000
0001
0000
0031
0000
,
0002
1000
1000
1000
,
1000
0000
1000
0000
1000
0000
0000
0000
1000
0000
0000
0000
1003
0100
0001
1000
,
0100
0010
0010
0000
1000
0001
0010
0100
,
1000
0001
0010
1000
0001
0000
1000
0000
0010
0000
0100
0000
0001
0000
0010
0000
,
2200
0000
3300
0000
0001
0100
0010
0100
,
0010
0000
0001
0000
1000
0100
0010
0000
0001
0000
0010
0000
1000
0000
0001
0000
,
2010
0010
3001
0000
0001
0010
0001
0100
,
0010
0000
1000
0001
0200
0000
0010
0000
0310
0000
0000
0000
0110
0000
0000
0000
,
1002
0000
0000
0000
0103
0000
0000
0000
0001
0000
0010
0000
0001
0100
2000
0000
,
0010
0010
3010
0000
0010
0000
0001
1000
,
0000
0010
1000
0000
0101
0100
0001
0010
,
0100
0000
1000
0000
0001
0000
0100
0000
0010
0000
1000
0100
0001
0010
0100
1000
,
0200
0300
2002
0000
0000
0000
3003
0000
;
