#TITLE:DJ RESIDENT;
#ARTIST:BEMANI Sound Team;
#GENRE:THEME SONG;
#MUSIC:DJ RESIDENT.ogg;
#BANNER:DJ RESIDENT.png;
#BACKGROUND:DJ RESIDENT-bg.png;
#CDTITLE:./CDTitles/bm IIDX 30 RESIDENT.png;
#SAMPLESTART:104.298;
#SAMPLELENGTH:15;
#OFFSET:-0.111;
#BPMS:0=152.034;
#DISPLAYBPM:152;

//--------------- dance-single - XLev450X-bSP ----------------
#NOTES:
     dance-single:
     XLev450X:
     Beginner:
     3:
     0,0,0,0,0:
0000
0000
0000
0000
,
0000
0000
0000
0000
,
0000
0000
0000
0000
,
0000
0000
0000
0000
,
0000
0000
0000
0000
,
0000
0000
0000
0000
,
0000
0000
0000
0000
,
0000
0000
0000
0000
,
0000
0000
0000
0000
,
0000
0000
0000
0000
,
0001
0000
0001
0000
,
0001
0000
0000
0000
,
0010
0000
0010
0000
,
0010
0000
0000
0000
,
0100
0000
1000
0000
,
0100
0000
0000
0000
,
1001
0000
0000
0000
,
0000
0000
0000
0000
,
0010
0000
0000
0000
,
0010
0000
0000
0000
,
0010
0000
0000
0000
,
0000
0000
0000
0000
,
1000
0000
0000
0000
,
1000
0000
0000
0000
,
1000
0000
0000
0000
,
0000
0000
0000
0000
,
0001
0000
0000
0000
,
0001
0000
0000
0000
,
0001
0000
0000
0000
,
0000
0000
0000
0000
,
0100
0000
0000
0000
,
0100
0000
0000
0000
,
0100
0000
0000
0000
,
0000
0000
0000
0000
,
0010
0010
0000
0000
,
0001
0001
0000
0000
,
1000
1000
0000
0000
,
0100
0100
0000
0000
,
0010
0001
0000
0000
,
0100
1000
0000
0000
,
1000
0001
0000
0000
,
0010
0100
0000
0000
,
0001
0000
0001
0000
,
1000
0000
0000
0000
,
0010
0000
0010
0000
,
0001
0000
0000
0000
,
1000
0000
1000
0000
,
0100
0000
0000
0000
,
0010
0000
0000
0000
,
0000
0000
0000
0000
,
0100
0000
0001
0000
,
1000
0000
0000
0000
,
1000
0000
0001
0000
,
0100
0000
0000
0000
,
0010
0000
1000
0000
,
0100
0000
0000
0000
,
0001
0000
0001
0000
,
0001
0000
0000
0000
,
0010
0000
1000
0000
,
0100
0000
0000
0000
,
0001
0000
0010
0000
,
0100
0000
0000
0000
,
1000
0000
0001
0000
,
1000
0000
0000
0000
,
0100
0000
0100
0000
,
0100
0000
0000
0000
,
0010
0000
0000
0000
,
0000
0000
0000
0000
,
0100
0000
0000
0000
,
0000
0000
0000
0000
,
0001
0000
0000
0000
,
0000
0000
0000
0000
,
1000
0000
0000
0000
,
0000
0000
0000
0000
,
1001
0000
0000
0000
,
0000
0000
0000
0000
,
0110
0000
0000
0000
,
0000
0000
0000
0000
,
0010
0010
0010
0000
,
0001
0001
0001
0000
,
1000
1000
1000
0000
,
0100
0000
0000
0000
,
0110
0000
0000
0000
,
1001
0000
0000
0000
;

//--------------- dance-single - XLev450X-BSP ----------------
#NOTES:
     dance-single:
     XLev450X:
     Easy:
     6:
     0,0,0,0,0:
0000
0000
0000
0000
,
0000
0000
0000
0000
,
0000
0000
0000
0000
,
0000
0000
0000
0000
,
0000
0000
0000
0000
,
0000
0000
0000
0000
,
0000
0000
0000
0000
,
0000
0000
0000
0000
,
0000
0000
0000
0000
,
0000
0000
0000
0000
,
0002
1003
0001
0010
,
1000
0000
0010
0000
0010
0001
0010
0000
,
1000
0100
1000
0001
,
1000
0000
0001
0000
,
0010
0000
0100
0000
1000
0000
0001
1000
,
0001
0010
1000
0100
,
2002
0000
0000
3003
,
0020
0000
0000
0030
,
0001
1000
0001
0000
,
0010
1000
0010
0000
,
0100
0001
1000
0001
,
1000
0001
0010
0000
,
0100
1000
0100
0000
,
0001
1000
0001
0000
,
0010
0010
0100
1000
,
0001
0100
0010
0000
,
1000
1000
0100
0100
,
0010
0010
0001
0001
,
1000
0001
1000
0010
,
1000
0010
0100
0000
,
0001
0010
0100
1000
,
0001
0010
0100
1000
,
2002
0000
0000
3003
,
0200
0000
0000
0300
,
0001
0001
0001
1000
,
0100
1000
1000
1000
,
0010
0010
0010
0100
,
1000
0100
0100
0100
,
0001
1000
0001
1000
,
0010
1000
0010
0000
,
0001
1000
0100
0001
,
1000
0010
0100
0000
,
0001
0001
1000
1000
,
0010
0100
0010
0000
,
1000
1000
0001
0001
,
1000
0100
1000
0000
,
0001
1000
0001
0100
,
0010
0000
1000
0000
,
0220
0000
0000
0330
,
0002
0000
0000
0003
,
1000
0010
1000
0000
,
0001
0100
0010
1000
,
0001
0100
0010
0000
,
1000
0001
1000
0000
,
0100
1000
0010
0000
,
0100
1000
0001
0010
,
1000
0001
0100
0000
,
1000
0000
0001
0000
,
1000
0010
0100
0000
,
1000
0001
1000
0001
,
0100
1000
0001
0000
,
1000
0001
0100
0000
,
0010
0010
1000
0001
,
0100
1000
0001
0000
,
1000
0010
1000
0100
,
2002
0000
0000
3003
,
0002
0003
0020
0030
,
0200
0300
2000
3000
,
0200
0300
0020
0030
,
0002
0000
1000
0003
,
2000
3000
0200
0300
,
0020
0030
0002
0003
,
0020
0030
0200
0300
,
2000
0000
0001
3000
,
0001
1000
0010
0100
,
1000
0000
0001
0000
0010
0001
0010
0000
,
0100
0000
1000
0000
0010
1000
0010
0000
,
0100
0000
0000
0000
0001
0000
0000
0000
1000
0000
0000
0001
0000
0000
0100
0000
,
0010
0001
1000
0010
,
1000
0010
1000
0000
0010
0100
0010
0000
,
0001
1000
0001
0100
,
2002
0000
0000
3003
,
0220
0000
0000
0000
0000
0000
0330
0000
,
0022
0000
0033
0000
0000
0000
0000
0000
;

//--------------- dance-single - XLev450X-DSP ----------------
#NOTES:
     dance-single:
     XLev450X:
     Medium:
     10:
     0,0,0,0,0:
0000
0000
0000
0000
,
0000
0000
0000
0000
,
0000
0000
0000
0000
,
0000
0000
0000
0000
,
0000
0000
0000
0000
,
0000
0000
0000
0000
,
0000
0000
0000
0000
,
0000
0000
0000
0000
,
0000
0000
0000
0000
,
0000
0000
0000
0000
,
1002
0000
0000
0003
0001
0000
1000
0000
0001
0000
0010
0000
0001
0000
1000
0000
,
0010
0001
0010
0000
0100
1000
0100
0000
,
0010
0010
1000
0001
0100
0001
1000
0000
,
0001
0000
0000
0000
1000
0000
0001
0000
1000
0000
0000
0001
0000
0000
0100
0000
,
0010
0000
0001
0000
1000
0000
0010
1000
,
0100
0001
1000
0000
0001
0100
0010
1000
,
2002
0000
0000
0000
0000
0000
0000
3003
,
0001
0000
0000
1000
0000
0000
0001
0000
0000
0100
0000
0000
0010
0000
1000
0000
,
0001
1000
0001
0010
,
0100
1000
0001
1000
,
0010
0001
0010
0000
0100
1000
0100
0000
,
0010
0100
0010
0000
0001
1000
0001
1000
,
0001
1000
0010
0100
,
0001
1000
0010
0100
,
1000
0001
0010
0010
,
1000
0010
1000
0000
0001
0010
0001
0000
,
0100
1000
0001
1000
,
0010
1000
0100
1000
,
0001
1000
0001
0000
0010
1000
0010
0000
,
0100
1000
0100
0000
0001
0010
0001
0000
,
1000
0001
1000
0010
,
1000
0001
0100
0000
1000
0000
0001
0000
,
2000
0000
0000
0000
0100
0000
3100
0000
,
0001
0000
0000
1000
0000
0000
0001
0000
0000
0100
0000
0000
0010
0000
1000
0000
,
0001
0000
0001
0000
1000
0000
0001
0000
,
1000
0010
1000
0000
0001
0000
0100
0000
,
0001
0000
0100
0000
1000
0000
0001
1000
,
0001
1000
0101
1010
,
0010
0000
1000
0010
1000
0000
0001
0010
,
0001
0000
1000
0100
1000
0001
1000
0001
,
1000
0000
0010
0000
1000
0000
0100
1000
,
0100
0001
1000
0100
,
0001
0000
1000
0001
1000
0000
0010
1000
,
0010
0000
0010
0100
0010
0000
0001
0010
,
0001
0000
1000
0000
0001
0000
1000
0001
,
1000
0001
0100
1000
,
0001
0000
1000
0001
1000
0000
0010
1000
,
0010
0000
0100
1000
0100
0000
0001
0000
,
2002
0000
0000
0000
0000
0000
0000
3003
,
1000
0000
0000
0001
0000
0000
0100
0000
0000
0010
0000
0000
1000
0000
0001
0010
,
0200
0300
1000
0100
0001
0000
1000
0000
,
0001
0000
1000
0000
0010
1000
0001
0100
,
1000
0001
0010
1000
,
0100
0000
1000
0000
0001
0000
0000
0000
0010
0000
0000
0100
0000
0000
0001
0000
,
1000
0000
0001
0000
1000
0001
1000
0000
,
0010
0000
1000
0000
0100
1000
0001
0100
,
0010
0000
0100
0000
1000
0000
0001
1000
,
0020
0100
0100
0130
,
0001
0000
1000
0001
1000
0000
0010
0000
,
1000
0100
1000
0001
0100
0000
1000
0000
,
0010
0000
1000
0010
1000
0100
0001
0001
,
1000
0000
0000
0000
0010
0000
0000
0000
0100
0000
0000
1000
0000
0000
0001
0000
,
0010
0000
0001
0000
1000
0001
1000
0001
,
1000
0000
0010
0000
1000
0100
1000
0001
,
0010
0000
0100
0000
1000
0000
0001
0010
,
0200
0000
0010
0000
0010
0000
0310
0000
,
0001
0000
1000
0001
0010
0000
1000
0000
,
0001
0000
0000
0100
0000
0000
1000
0000
0001
0000
0000
0000
0010
0000
0000
0000
,
1000
0000
0010
0100
1000
0000
0001
0010
,
1000
0000
0000
0001
0000
0000
0100
0000
0010
0000
0000
0100
0000
0000
1000
0000
,
0001
0000
1000
0100
0001
0000
1000
0010
,
1000
0000
0000
0001
0000
0000
0100
0000
0010
0000
0000
0000
0001
0000
1000
0000
,
0010
0000
0100
1000
0001
0000
0100
0010
,
1000
0000
0000
0001
0000
0000
0100
0000
0010
0000
0000
1000
0000
0000
0001
0000
,
0020
0030
1000
0001
1000
0000
0010
0000
,
1000
0010
1000
0000
0001
0010
0001
0000
,
0100
0000
1000
0000
0001
1000
0001
0000
,
1000
0000
0010
0000
0100
0000
1000
0000
0001
0000
0000
0010
0000
0000
0100
0000
,
1000
0001
1000
0001
,
0010
0001
1000
0001
0100
0000
1000
0000
,
0001
1000
0010
0000
1000
0000
0100
0000
,
0002
0000
1000
0000
1000
0000
1003
0000
,
0002
0000
0000
0000
0000
0000
0003
0000
1000
0000
0000
0001
0000
0000
0100
0010
,
0200
0000
0300
0000
0000
0000
0000
0000
;

//--------------- dance-single - XLev450X-ESP ----------------
#NOTES:
     dance-single:
     XLev450X:
     Hard:
     14:
     0,0,0,0,0:
0000
0000
0000
0000
,
0000
0000
0000
0000
,
0000
0000
0000
0000
,
0000
0000
0000
0000
,
0000
0000
0000
0000
,
0000
0000
0000
0000
,
0000
0000
0000
0000
,
0000
0000
0000
0000
,
0000
0000
0000
0000
,
0000
0000
0000
0000
,
0001
0000
1000
0000
0010
0001
0010
0000
,
1000
0010
0100
0001
1000
0001
0100
0000
,
0001
0000
1000
0000
0010
1000
0010
0000
,
0010
0000
0001
0000
1000
0000
0001
0000
0100
0000
0000
0001
0000
0000
1000
0000
,
0010
0000
0001
0000
1000
0010
1000
0000
,
0001
0010
0100
0001
1000
0010
0100
0001
,
2002
0000
0000
0000
0000
0000
3003
0000
,
0001
0000
0000
1000
0000
0000
0010
0000
0000
0001
0000
0000
1000
0000
0001
0100
,
0001
1000
0001
0100
,
0010
0000
1000
0000
0010
0001
0010
0001
,
1000
0001
0100
0001
,
1000
0000
0010
0000
2000
0000
0000
3000
,
0010
0001
0010
0000
1000
0010
0100
0000
,
0001
0100
0001
1000
0001
0000
0100
0000
,
0001
0010
0001
0000
1000
0000
0010
0000
,
2002
3003
0000
0000
0202
0303
0000
0000
2020
3030
0000
0000
0220
0330
0000
0000
,
0001
0010
0001
1000
0001
0100
0001
0000
,
1000
0000
0010
0000
1000
0001
1000
0000
,
0010
0001
1000
0000
0010
0100
0010
0000
,
1000
0001
0100
0010
1000
0000
0001
0000
,
1000
0001
1000
0001
0100
0000
0001
0000
,
1000
0010
0100
0001
1000
0010
0100
0001
,
2002
0000
0000
0000
0000
0000
3003
0000
,
0001
0000
0000
1000
0000
0000
0010
0000
0000
0100
0000
0000
0001
0000
1000
0000
,
0001
1000
0010
0100
,
0010
0001
0010
0000
1000
0000
0000
0000
0001
0000
0000
0000
0100
0000
0000
0000
,
0010
0000
1000
0000
0010
0100
0010
0000
,
0010
1000
0010
0000
0001
0000
0000
0000
1000
0000
0000
0001
0000
0000
1000
0000
,
0001
0000
0010
0000
0001
0000
1000
0010
,
0001
0010
0001
0000
1000
0000
0010
0000
0100
0001
0100
0000
1000
0000
0010
0000
,
0100
0000
0001
0000
1000
0000
0001
1000
,
0100
0001
1000
0000
0010
1000
0010
0000
0001
1000
0100
0001
0010
1000
0100
0010
,
0001
0000
1000
0000
0001
0010
0001
0010
,
0001
0010
0001
0000
1000
0010
1000
0000
0010
0100
0010
0000
0001
0000
0000
0000
,
1000
0010
0100
0001
1000
0000
0010
0000
,
0010
0100
0010
0000
1000
0010
1000
0000
0010
0000
0000
0100
0000
0000
0001
0000
,
1000
0000
0001
0100
0001
0000
1000
0001
,
0010
0001
0010
0000
1000
0010
1000
0000
0010
0100
0010
0000
0001
0000
0010
0000
,
2002
0000
0000
0000
0000
0000
3003
0000
,
0001
0000
0000
1000
0000
0000
0010
0000
0000
1000
0000
0000
0010
0000
0100
0000
,
0001
0000
0010
0000
1000
0001
1000
0001
,
1000
0000
0000
0000
0010
0000
0000
0000
1000
0010
0001
0100
1000
0000
0001
0000
,
0010
0000
0000
0000
0100
0000
0000
0000
0010
0000
0001
0000
0010
0001
0010
0000
,
1000
0000
0000
0000
0001
0000
0000
0000
0100
0000
0000
0001
0000
0000
1000
0000
,
0010
0000
1000
0000
0010
1000
0010
0000
,
0100
0000
0010
0000
1000
0000
0001
0000
0010
0000
0001
0010
0001
0000
1000
0000
,
0010
0000
0000
0000
0100
0000
0000
0000
0001
0000
1000
0001
1000
0000
0100
0000
,
0001
0000
0000
0000
1000
0000
0000
0000
1000
0001
0010
0100
1000
0001
1000
0100
,
0010
0000
1000
0000
0001
0000
0100
0000
0010
0000
0000
1000
0000
0000
0100
0000
,
0001
0000
0100
0000
0010
0000
1000
0000
0001
0000
0000
0100
0000
0000
0001
0000
,
0010
0000
0001
0000
0010
0000
1000
0000
0000
0010
0000
0000
1000
0000
0000
0000
,
0001
0000
0010
0000
0001
0000
0010
0000
1000
0100
0010
0001
0010
1000
0100
0001
,
0010
0000
0000
1000
0010
0000
0001
0000
0100
0001
0100
0000
0010
1000
0010
0000
,
0010
0000
0000
0000
0100
0000
0010
0000
1000
0001
0100
1000
0001
0000
0100
0000
,
0010
0000
1000
0000
0001
0010
0001
0000
,
2002
0000
0000
3003
,
0001
0000
1000
0001
0010
0000
1000
0100
,
0001
0000
0000
0001
0000
0000
1000
0000
0010
0000
0001
1000
0100
0000
0001
0000
,
0010
1000
0010
0000
0100
0000
0001
0000
,
1000
0000
0000
0001
0000
0000
0010
0000
0001
0000
0010
0001
0010
0000
1000
0010
,
1000
0001
0010
0000
0100
0000
0001
1000
,
0001
0000
0000
0100
0000
0000
0001
0000
1000
0000
0001
0000
0010
0000
1000
0000
,
0010
0000
0100
0001
1000
0000
0010
1000
,
0001
0000
0000
0100
0000
0000
0010
0000
1000
0100
0010
0001
0010
0100
0010
0100
,
1001
0000
0010
1000
0010
0001
0101
0000
,
0010
0001
1000
0000
0001
1000
0100
0000
0010
0000
1000
0000
0001
0000
0000
0000
,
0010
0000
0001
0000
0100
0000
1000
0000
0010
0000
0100
0010
0001
0100
1000
0100
,
0001
0000
0010
0000
0001
0000
0010
0000
0001
0010
0000
1000
0000
0100
0000
0001
,
0200
0300
0010
1000
0001
0100
0010
1000
,
0010
1000
0010
0000
0100
0001
0100
0000
0010
0000
1000
0000
0001
0000
0100
0000
,
0010
0000
1000
0000
0001
0010
0001
0000
,
1000
0000
0001
0000
1000
0000
0100
0000
0010
0001
1000
0100
0001
1000
0010
0100
,
0002
0000
0000
0000
0000
0000
0000
0000
0000
0000
0000
0000
1003
0000
0000
0000
0000
0000
0010
0000
0000
0000
0000
0000
0100
0000
0000
0001
0000
0000
0000
0000
0000
1000
0000
0000
0000
0000
0000
0001
0000
0000
1000
0000
0000
0100
0000
0000
,
0020
0000
0000
0000
0000
0000
0000
0000
0000
0000
0000
0000
0000
0000
0000
0000
0000
0000
0000
0000
0000
0000
0000
0000
0030
0000
0000
0000
0000
0000
0000
0000
0000
0000
0000
0000
0000
0000
0000
0000
0000
0000
0000
0000
0000
0000
0000
0000
0000
0000
0000
0000
0000
0000
0000
0000
0000
0000
0000
0000
0000
0000
0000
0000
0000
0000
0000
0000
0000
0000
0000
0000
0000
0000
0000
0000
0000
0000
0000
0000
0000
0000
0000
0000
0000
0000
0000
0000
0000
0000
0000
0000
0000
0000
0000
0000
;
