#TITLE:DIAMOND CROSSING;
#ARTIST:S-C-U vs L.E.D.;
#GENRE:HARD ELECTRIC POP;
#MUSIC:DIAMOND CROSSING.ogg;
#BANNER:DIAMOND CROSSING.png;
#BACKGROUND:DIAMOND CROSSING-bg.png;
#CDTITLE:./CDTitles/bm IIDX 23 copula.png;
#SAMPLESTART:4;
#SAMPLELENGTH:15;
#OFFSET:-0.333;
#BPMS:0=180;
#BGSTAGE:16;

//--------------- dance-single - XLev450X-bSP ----------------
#NOTES:
     dance-single:
     XLev450X:
     Beginner:
     5:
     0,0,0,0,0:
0000
0000
0000
0000
,
0000
0000
0000
0000
,
0000
0000
0000
0001
,
0001
1000
0001
0010
,
1000
0001
0000
1000
,
1000
0100
0001
0010
,
0100
1000
0000
0001
,
0001
1000
0000
0010
,
0010
1000
0000
0100
,
0001
0100
0001
1000
,
0001
1000
0000
0001
,
0001
1000
0000
0010
,
0010
0100
0000
0001
,
1000
0001
0010
1000
,
0010
0100
0000
0001
,
0010
0001
0000
0100
,
1000
0100
0000
2002
,
0000
0000
0000
0000
,
0000
0000
0000
0000
0000
3003
0001
0000
,
1000
0001
0000
0010
,
1000
0010
0100
0001
,
0100
0001
0000
1000
,
1000
0001
0000
0010
,
0010
0100
0000
1000
,
0010
1000
0000
0001
,
0010
0001
1000
2002
,
0000
0000
3003
0001
,
1000
0001
0010
1000
,
0100
0010
0000
0001
,
0001
0100
0000
1000
,
1000
0100
0000
0010
,
0100
0010
0001
1000
,
0001
1000
0000
0010
,
1000
0010
0000
0001
,
0000
1000
0001
1000
,
0010
0100
0001
1000
,
0001
0010
0000
0100
,
0100
0010
1000
0001
,
0100
1000
0000
1000
,
1000
0100
0000
0010
,
0010
0001
0000
0001
,
1000
0001
0000
0001
,
1000
0010
0000
0001
,
1000
0010
0100
0001
,
0000
1000
0001
1000
,
0000
0010
1000
0010
,
0000
0100
0001
1000
,
0001
0100
1000
0010
,
0000
1000
0100
0010
,
0000
0001
0010
0100
,
0000
1000
0001
1000
,
0000
0001
0000
1000
,
0001
1000
0000
0010
,
0100
0010
0000
0001
,
0000
1000
0001
1000
,
0000
0100
0010
0100
,
0000
1000
0000
0001
,
0000
1000
0001
2002
,
0000
0000
0000
0000
,
0000
0000
0000
3003
,
0000
0000
0000
0000
,
0000
0000
0000
0000
,
0000
0000
0000
0001
,
0000
1000
0000
0001
,
0000
0000
0000
0010
,
1000
0010
0000
0100
,
0010
0100
0000
0001
,
0000
0010
0000
0001
,
0000
1000
0000
0001
,
1000
0001
0000
0100
,
0100
0010
0000
1000
,
0000
0001
0000
1000
,
0001
1000
0000
0010
,
0010
0100
0000
0001
,
0001
0100
0000
1000
,
1000
0100
0000
0010
,
1000
0001
1000
2002
,
0000
0000
0000
0000
,
0000
0000
0000
0000
,
3003
0000
0000
0000
;

//--------------- dance-single - XLev450X-BSP ----------------
#NOTES:
     dance-single:
     XLev450X:
     Easy:
     9:
     0,0,0,0,0:
0000
0000
0000
0000
,
0000
0000
0000
0000
,
0000
0000
0000
0001
,
1000
0001
0100
0010
,
1000
0000
0001
0000
0010
0000
0001
0010
,
0001
0000
0010
0100
0010
0000
1000
0000
,
0001
0000
1000
0001
1000
0000
0010
0000
,
1000
0100
0001
0010
,
0100
0000
1000
0000
0001
0000
0010
1000
,
0010
0000
0001
0010
0001
0000
0001
0100
,
0001
1000
0001
1000
0001
0000
0010
0000
,
1000
0100
0010
0001
,
0010
0000
0100
0000
1000
0000
0010
0010
,
1000
0000
0001
0001
0100
0000
0001
1000
,
0001
0000
0010
1000
0010
0000
0001
0000
,
0010
0000
0100
0000
1000
0000
0001
1000
,
0001
0010
1000
2002
,
0000
0000
3003
0220
,
0000
0000
0330
0001
,
1000
0010
1000
0100
,
0010
0001
0001
1000
,
0001
0000
1000
0000
0010
0000
0010
1000
,
0010
0000
0001
0010
0001
0000
0100
0000
,
1000
0000
0001
0000
1000
0000
0001
1000
,
0001
0000
0010
0000
1000
0000
0010
0100
,
0010
0000
0001
0010
0001
0000
2000
0000
,
0001
0000
0002
0000
0000
3003
0001
0000
,
1000
0001
0100
0010
,
1000
0010
1000
0000
0001
0000
0010
0000
,
0100
1000
0001
0100
,
0001
0100
0001
0000
0010
0000
1000
0000
,
0001
1000
0010
1000
,
0010
1000
0010
0000
0100
0000
0001
0000
,
1000
0010
0000
0001
,
1000
0000
0000
0000
0100
0000
0000
0000
0001
0000
0000
0000
0001
0000
0000
1000
,
0000
0000
0000
0000
0001
0000
0000
0100
0000
0000
0000
0000
0010
0000
0000
1000
,
0000
0000
0000
0000
0001
0000
0000
0100
0000
0000
0000
0000
0010
0000
0000
0001
,
0000
0001
1000
0100
,
0010
0000
0001
0010
0001
0000
1000
0000
,
0001
0000
1000
0000
0100
0000
0010
1000
,
0010
0100
0001
0001
,
1000
0000
0010
0000
1000
0000
0010
1000
,
0010
0000
0001
0010
0001
0000
1000
0000
,
0001
0000
1000
0001
1000
0000
0001
0000
,
0100
0000
1000
0000
0010
0100
0000
0000
,
0001
1000
0010
1000
,
0001
0100
0010
1000
,
0001
0010
0100
0001
,
0010
0000
0001
0010
0001
0000
1000
0000
,
0001
0000
1000
0000
0100
0000
0010
1000
,
0010
0000
0001
0100
0001
0000
1000
0000
,
0001
0000
0100
0000
0000
0000
0010
1000
,
0010
0000
0010
0100
0010
0000
0001
0000
,
1000
0000
0001
1000
0001
0000
0001
0000
,
0000
1000
0010
0100
,
0000
0001
0010
0100
,
1000
0000
0001
0000
1000
0000
0010
1000
,
0010
0001
0100
0002
,
0000
0000
0000
0000
0000
1000
2000
0000
,
0000
0000
0000
0000
3003
0100
0200
0000
,
0000
0001
0002
0000
0003
1000
2000
3300
,
0001
0000
1000
0000
0010
0000
1000
0010
,
1000
0000
0001
0010
0001
0000
2002
0000
,
3003
0000
0000
0000
1000
0000
0000
0001
0000
0000
1000
0000
0000
0000
0000
0000
,
0000
0000
0100
0000
0001
0000
1000
0000
0000
0001
0000
0000
0100
0000
0000
0000
,
0001
0000
1000
0000
0010
0000
0100
0010
,
0100
0001
0010
0001
,
1000
0000
0001
1000
0001
0000
0010
0000
,
1000
0100
0000
0001
,
0010
0100
1000
0001
,
1000
0001
0000
0010
,
1000
0000
0100
0000
0010
0000
0001
0010
,
0001
0100
1000
0001
1000
0000
0001
0000
,
1000
0100
0001
1000
,
0010
0100
0000
0010
,
1000
0000
0001
0000
0100
0000
0001
0100
,
0001
0000
0010
1000
0010
0000
2002
0000
,
0000
0000
0000
0000
,
0000
0000
0000
0000
,
3003
0000
0000
0000
;

//--------------- dance-single - XLev450X-DSP ----------------
#NOTES:
     dance-single:
     XLev450X:
     Medium:
     13:
     0,0,0,0,0:
0000
0000
0000
0000
,
0000
0000
0000
0000
,
0000
0000
0000
0000
0000
0000
0001
1000
,
0001
0000
0010
0000
1000
0000
0001
1000
,
0001
0000
0010
0000
1000
0000
0010
0001
,
0010
0000
0010
0100
0010
0000
0010
1000
,
0010
1000
0001
0100
0001
1000
0001
0000
,
0001
0000
1000
0010
1000
0000
0010
0000
,
0100
0000
0001
0000
0010
0000
0001
1000
,
0001
0000
0010
1000
0010
0000
0010
0100
,
0010
0000
0001
0010
0001
0000
0001
0000
,
1000
0000
0001
1000
0001
0000
0010
0000
,
1000
0000
0100
0000
0010
0000
0001
0010
,
0001
0000
0010
0100
0010
0000
0010
1000
,
0010
0000
0001
0000
1000
0000
0001
1000
,
0001
0000
0010
0000
1000
0000
0100
0001
,
0100
0000
0001
0000
1000
0000
0001
1000
,
0010
1000
0100
0010
0001
0010
0100
0000
,
0001
0000
0000
0000
1000
0000
0001
0000
1000
0000
0000
0000
0010
0000
1000
0001
,
0000
1000
0000
0010
0000
0000
0100
0000
0000
0000
0010
0000
1000
0000
0100
0001
,
0000
0100
0000
0010
0000
0000
0000
0000
0010
0000
0000
0000
1000
0000
0100
1000
,
0000
0010
0000
0100
0000
0000
0001
0000
0000
0000
0100
0000
0010
0000
1000
0100
,
0000
0000
0010
0000
0000
0000
1000
0000
0000
0001
0000
0000
0100
0000
0010
0100
,
0000
0010
0000
1000
0000
0000
0010
0000
0000
0000
0100
0000
0010
0000
1000
0001
,
0000
1000
0000
0010
0000
0000
0001
0000
0100
0000
0010
0000
1000
0000
0000
0001
,
0000
0200
0000
0000
0300
0000
1000
0000
,
0001
0000
1000
0000
1001
0000
0001
1000
,
0010
0000
0010
1000
0100
0000
0010
0001
,
0100
0001
0000
1000
0001
0000
0001
1000
,
0010
1000
0000
0010
0100
0010
0001
0010
,
0100
1000
0000
0001
1000
0001
1000
0010
,
1000
0010
0000
0010
0100
0010
0001
0010
,
0001
0100
0000
0001
1000
0001
1000
0000
,
0001
0100
0000
0001
1000
0000
0010
0000
,
1000
0000
0000
0000
0001
0000
0100
0000
0001
0000
0000
0000
0001
0000
0000
0010
,
0000
0000
0100
0000
0010
0000
0000
0100
0000
0000
1000
0000
0100
0000
0000
1000
,
0000
0000
0010
0000
1000
0000
0000
0010
0000
0000
0001
0000
0010
0000
0000
0100
,
0000
0000
0010
0000
0100
0000
0000
1000
0000
0000
0100
0000
1000
0000
0000
0100
,
0000
1000
0100
0001
0100
0001
0100
0010
,
0100
0000
0010
0001
0010
0000
0001
0100
,
0001
0000
0100
1000
0100
0000
1000
0010
,
1000
0000
0010
0000
0100
0000
0001
0000
0100
0000
0001
0000
0200
0000
0000
0010
,
0000
0010
0020
0000
0330
0000
1000
0001
,
1000
0001
1000
0001
1000
0000
1001
0000
,
0110
0000
0000
0000
1000
0000
0000
0100
0000
0000
0001
0000
0000
0000
0001
0000
,
0100
0000
1000
0000
0100
0000
0000
0010
0000
0000
0001
0000
2000
0000
0000
0000
,
0000
3001
0010
0001
0000
0100
0000
0010
,
1000
0100
0010
0001
0100
0010
1000
0000
,
1001
0000
0000
0000
0010
0000
0000
0100
0000
0000
0001
0000
0000
0000
0100
0000
,
0010
0000
0100
0000
1000
0000
0100
0000
0010
0000
0100
0000
0001
0000
0100
0010
,
0100
0000
0000
0000
0010
0100
0010
0000
0000
0000
0100
0010
0100
0000
0000
0000
,
0100
0000
0000
0000
0001
0100
0001
0000
1000
0100
1000
0000
0020
0000
0000
0000
,
0000
0100
0200
0000
0330
0000
0001
1000
,
0100
0000
0110
0000
1001
0000
0001
1000
,
0001
0000
0010
1000
0010
0000
0010
0100
,
0001
1000
0001
1000
0001
0000
0010
1000
,
0010
0000
0001
0100
0001
0000
0001
0000
,
1000
0000
0001
1000
0001
0000
2002
0000
,
0000
0000
0000
0000
0003
0001
0002
0000
,
0000
0000
0000
0000
3000
1000
2000
0000
,
0003
0001
0002
0000
3000
1000
2003
0000
,
0001
0000
3002
0000
1003
0000
1000
0010
,
0001
0100
1000
0010
0100
0000
1001
0000
,
0011
0000
0000
0000
0100
0000
0000
1000
0000
0000
1000
0000
0000
0000
1000
0000
,
0100
0000
0010
0000
0001
0000
0000
0001
0000
0000
0010
0000
0100
0000
0000
0000
,
1001
0000
1000
0001
1000
0010
0100
0000
,
1100
0000
0000
0000
1010
0000
0000
1001
0000
0000
0010
0000
1000
0000
0000
0000
,
1100
0000
0000
0000
1000
0000
0000
1000
0000
0000
1000
0000
0000
0000
0001
0000
,
1000
0001
1000
0001
1000
0010
0100
0000
,
1000
0000
0100
1000
0100
0000
1000
0000
0100
1000
0100
0000
0010
0000
0001
0000
,
0110
0000
0000
0000
1000
0001
1000
0000
0001
1000
0001
0000
0110
0000
0000
0000
,
2000
0001
0002
0000
0000
3003
0001
1000
,
0010
0000
1000
0000
0100
0000
0010
0000
0001
0000
1000
0000
0001
0000
0000
1000
,
0000
0000
0010
0000
0100
0000
0000
0001
0000
0000
1000
0000
0010
0000
0000
0100
,
0000
0000
0010
0000
0001
0000
0000
1000
0000
0000
0010
0000
1000
0000
0000
0100
,
0000
0000
0010
0000
0001
0000
0000
0100
0000
0000
1000
0000
0001
0000
0000
1000
,
0000
0000
0010
0000
0100
0000
0000
0010
0000
0000
0100
0000
2002
0000
0000
0000
,
0000
0000
0000
0000
,
0000
0000
0000
0000
,
3003
0000
0000
0000
;

//--------------- dance-single - XLev450X-ESP ----------------
#NOTES:
     dance-single:
     XLev450X:
     Hard:
     16:
     0,0,0,0,0:
0000
0000
0000
0000
,
0000
0000
0000
0000
,
0000
0000
0000
0000
0000
0000
0000
0000
0000
0000
0000
0000
0001
1000
0001
0000
,
0010
1000
0010
0100
0001
0010
1000
0010
,
1000
0000
0010
0000
1000
0001
1000
0000
0001
0000
1000
0000
0001
0000
1000
0000
,
0100
0000
0010
0000
1000
0100
0001
0000
0100
0000
0010
0000
1000
0010
0001
0000
,
0100
1000
0010
0000
0001
1000
0001
1000
0001
1000
0100
0010
0001
0000
1000
0000
,
0010
0000
1000
0000
0100
0000
0010
0000
0001
0000
0010
0100
1000
0000
0100
0000
,
0010
0000
1000
0000
0001
0000
1000
0000
0010
0000
1000
0001
0100
0000
0010
1000
,
0001
0000
0010
0001
0100
0000
1000
0100
0001
0000
1000
0001
0010
0000
1000
0001
,
0100
0000
0010
0000
1000
0000
0001
0000
1000
0100
0001
0010
1000
0000
0001
0000
,
0010
0001
1000
0100
0010
1000
0001
0010
,
0001
0000
1000
0000
0001
0000
0100
0000
0001
0000
0100
0010
0001
0000
1000
0001
,
0100
0000
0001
0100
1000
0000
0010
0001
1000
0000
0001
1000
0010
0000
1000
0001
,
0100
0000
0001
1000
0010
0000
0001
1000
0010
0001
1000
0100
0001
0000
0100
0001
,
1000
0000
0001
0000
1000
0000
0010
0000
0100
0000
0010
0000
1000
0000
0001
1000
,
0100
0000
0010
0000
1000
0000
0001
0000
1000
0000
0001
0000
0010
1000
0010
1000
,
0001
0010
0001
0010
0001
1000
0010
0100
0010
1000
0100
0010
0001
0100
0001
0100
,
0010
1000
0100
0010
0100
1000
0010
1000
0010
1000
0001
0010
0100
0000
0100
0010
,
0000
1000
0000
0001
0000
0000
0010
0000
0100
0000
1000
0000
0001
0000
0100
0010
,
0000
1000
0000
1000
0000
0000
0000
0000
0101
0000
0000
0000
1000
0100
1000
0100
,
0000
0001
0000
0100
0000
0000
0010
0000
1000
0000
0100
0000
0001
0000
1000
0100
,
0000
0000
0101
0000
0000
0000
1100
0000
0000
0101
0000
0000
1000
0100
1000
0100
,
0000
0010
0000
0110
0000
0000
0001
0000
0100
0000
1000
0000
0100
0000
0001
0100
,
0000
0000
1100
0000
0000
0000
0110
0000
0001
0000
1000
0000
0110
0000
0000
1100
,
0000
0000
0101
0000
0000
0000
0010
0000
0000
0000
0100
0000
1001
0000
0010
0100
,
0010
0000
1000
0100
1000
0100
1000
0000
0001
0100
0001
0000
0010
0000
1000
0000
,
0010
0100
0001
0010
0100
1000
0001
1000
,
0001
1000
0100
0001
0100
0000
0001
1000
,
0010
0100
0010
0001
0010
0001
0100
1000
,
0001
1000
0010
1000
0100
0000
0010
0100
,
0010
0001
0010
0100
1000
0001
1000
0001
,
1000
0010
1000
0001
1000
0000
0010
1000
,
0100
0010
0001
0010
0100
1000
0001
0000
,
1000
0000
0000
0000
0001
0000
0100
0000
0010
0000
1000
0000
0020
0000
0000
0001
,
0000
0000
0001
0000
0032
0000
0000
0100
0000
0000
0100
0000
0203
0000
0000
1000
,
0000
0000
1000
0000
2300
0000
0000
0001
0000
0000
0001
0000
3002
0000
0000
0010
,
0000
0023
0100
0000
0230
0000
0302
0010
,
0010
0000
0013
0000
1000
0000
0001
0000
0200
0000
0001
0000
0301
0000
1000
0010
,
1000
0000
0100
0001
0200
0000
0000
0000
0320
0000
0000
0000
1030
0000
0001
0010
,
0001
0000
0100
0010
0200
0000
0000
0000
0302
0000
0000
0000
1003
0000
0010
0100
,
0010
0000
1000
0100
2000
0000
0100
0000
3020
0000
0100
0000
0032
0000
0000
1000
,
0000
0100
0203
0000
0000
0000
0320
0000
,
2030
3200
0302
0013
,
0011
0000
0000
0000
0110
0000
0000
1100
0000
0000
1100
0000
0000
0000
0100
0000
,
0010
0000
0001
0000
0110
0000
0000
1001
0000
0000
1001
0000
0110
0000
0000
0000
,
0000
0000
1100
0000
0010
0000
1001
0000
0001
1000
0001
0000
1010
0000
0100
1000
,
0100
0000
1000
0000
1000
0000
0000
1000
0000
0000
1001
0000
1001
0000
0000
0000
,
1001
0000
0000
0000
1001
0000
0000
1001
0000
0000
0110
0000
0000
0000
1000
0000
,
1000
0000
1000
0000
1000
0000
0000
1000
0000
0000
1001
0000
0000
0000
0010
0100
,
0010
0000
1000
0000
0001
1000
0001
0000
0110
0000
0001
1000
0001
0000
1001
0000
,
1001
0000
0000
0000
1000
0100
1000
0100
0001
0100
0001
0100
0002
0000
0000
0000
,
0000
0000
0100
0000
0203
0000
0000
0000
0000
0000
0300
0000
0010
1000
0100
0010
,
0100
0010
0100
1000
0010
1000
0100
0010
0001
0010
0100
0010
0200
0000
0000
0000
,
0001
0320
1000
0230
,
0001
0320
0001
2030
,
0000
3200
0000
0000
0302
0000
0023
0000
,
0100
0100
0130
1002
,
0000
0010
0100
2003
,
0000
0000
0000
0000
0100
0000
0000
0000
3020
0000
0000
0000
0031
0000
0100
0001
,
0100
0000
0010
1000
0010
0000
0100
0001
0100
0000
0010
0000
0101
0000
0000
1010
,
0000
0000
0110
0000
1002
0000
0000
0000
0000
0000
0003
0000
0100
1000
0010
0100
,
0001
1000
0001
1000
0100
1000
0001
0010
0100
1000
0001
0100
0010
0000
0000
0000
,
1100
0000
0000
0000
0110
0000
0000
0011
0000
0000
0011
0000
0000
0000
0010
0000
,
0100
0000
1000
0000
0110
0000
0000
1001
0000
0000
1001
0000
0110
0000
0000
0000
,
0000
0000
0011
0000
0100
0000
1001
0000
1000
0001
1000
0000
0101
0000
0010
0001
,
0010
0000
0001
0000
0001
0000
0000
0001
0000
0000
1001
0000
1001
0000
0000
0000
,
1001
0000
0000
0000
1001
0000
0000
1001
0000
0000
0110
0000
0000
0000
0001
0000
,
0001
0000
0001
0000
0001
0000
0000
0001
0000
0000
1001
0000
0000
0000
0100
0010
,
0100
0000
0001
0000
1000
0001
1000
0000
0110
0000
1000
0001
1000
0000
1001
0000
,
1001
0000
0000
0000
0001
0010
0001
0010
1000
0010
1000
0010
2000
0000
0000
0000
,
0000
0000
0000
0000
0010
0000
0000
0000
3020
0000
0000
0000
0000
0000
0000
0000
0000
0000
0000
0000
0000
0030
0000
0000
0010
0000
1000
0000
0100
0000
0010
0000
,
0100
0010
0100
1000
0010
1000
0100
0010
0001
0100
0001
0010
0001
0000
0100
0000
,
0001
0100
0001
1000
0100
1000
0010
0100
,
0001
0100
0001
0010
0100
0010
0001
1000
,
0100
0010
0100
0010
0001
0010
0100
1000
,
0001
0000
0010
0000
0001
0000
1000
0100
0001
0000
0100
1000
0020
0000
0000
0000
,
0000
0000
0000
0000
,
0000
0000
0000
0000
,
0030
0000
0000
0000
;
