#TITLE:DENIM (ELECTRO MIX);
#ARTIST:SLAKE (another mixed by DEPROGRAM MAN);
#GENRE:TECHNO;
#MUSIC:DENIM (ELECTRO MIX).ogg;
#BANNER:DENIM (ELECTRO MIX).png;
#BACKGROUND:DENIM (ELECTRO MIX)-bg.png;
#CDTITLE:./CDTitles/bm IIDX 28 BISTROVER.png;
#SAMPLESTART:4.868;
#SAMPLELENGTH:15;
#OFFSET:-0.118;
#BPMS:0=150;
#BGSTAGE:15;

//--------------- dance-single - XLev450X ----------------
#NOTES:
     dance-single:
     XLev450X:
     Challenge:
     17:
     0,0,0,0,0:
0000
0000
0000
0000
,
0000
0000
0000
0000
,
0000
0000
0000
0000
,
0010
0000
1000
0000
0100
0000
0010
0001
0000
1000
0010
0000
0001
1000
0100
0010
,
0001
0000
0100
0000
0001
0000
0010
1000
0000
0001
0010
0000
0100
1000
0010
0100
,
0010
0000
1000
0000
0010
0000
0100
1000
0000
0001
0100
0000
0001
1000
0100
0010
,
0001
0000
1000
0000
0010
0000
1000
0100
0000
0001
0100
0000
0001
1000
0010
0001
,
0100
0000
0010
0000
0001
0000
0100
0010
0000
0100
1000
0000
0010
0001
1000
0010
,
0100
0000
1000
0000
0001
0000
0100
0010
0000
0001
0100
0000
0010
0001
0100
1000
,
0010
0000
1000
0000
0100
0000
0010
1000
0000
0100
0010
0000
0100
0001
0010
1000
,
0100
0000
1000
0000
0100
0000
0010
1000
0000
0100
0010
0000
1001
0000
0000
0000
,
0010
0000
0100
0000
0010
0000
0100
0000
0001
1000
0100
1000
0010
0100
0001
0100
,
0001
0000
1000
0000
0100
0000
0001
0000
0010
0100
0010
1000
0010
1000
0001
0010
,
0001
0000
1000
0000
0010
0000
1000
0000
0100
1000
0001
0010
0001
0010
0001
0100
,
0001
0000
1000
0000
0100
0000
0010
0000
0001
1000
0100
0010
0100
0010
0001
0010
,
0100
0000
1000
0000
0010
0000
0100
0000
0010
1000
0001
0010
0001
0010
0001
0100
,
0010
0000
1000
0000
0001
0000
1000
0000
0010
0100
0001
1000
0010
0100
0001
1000
,
0100
0000
0010
0000
0001
0000
1000
0000
0100
0010
0001
1000
0001
1000
0100
1000
,
0010
0000
1000
0000
0001
0000
0010
0000
0100
0010
0001
1000
0001
1000
0010
1000
,
0100
1000
0100
0010
0100
1000
0001
1000
,
0010
1000
0100
1000
0100
0010
0100
0010
0001
1000
0010
0100
0010
1000
0100
1000
,
0001
0100
0001
0100
0010
0100
0010
1000
,
0010
0100
0001
1000
0100
0010
0001
0010
0100
1000
0100
0010
0001
0100
0001
0100
,
0001
0000
0100
1000
0000
0001
0100
0010
0000
1000
0000
0010
0000
0100
0000
0001
,
0010
0000
1000
0010
0000
0001
0100
1000
0000
0010
0000
1000
0000
0001
0000
0100
,
1000
0000
0010
1000
0000
0100
0001
0010
0000
1000
0000
0010
0000
0100
0000
0001
,
1000
0000
0010
0100
0000
0001
0000
0100
1001
0000
0101
0000
1010
0000
0110
0000
,
0001
0000
0100
0001
0000
0010
0100
1000
0000
0010
0000
0001
0000
0100
0000
1000
,
0010
0000
1000
0001
0000
0010
0100
0001
0000
0100
0000
0001
0000
1000
0000
0100
,
0010
0000
1000
0001
0000
0010
0100
1000
0000
0010
0000
1000
0000
0010
0000
0100
,
1001
0000
0000
0000
0110
0000
0000
0010
0000
0100
0000
0000
0101
0000
0000
0000
,
0100
0010
0100
0010
0100
1000
0010
1000
0100
1000
0100
0010
0001
1000
0010
1000
,
0001
1000
0010
0100
0001
0100
0010
1000
0001
0010
0001
0010
0001
0100
0010
1000
,
0001
0100
0010
0100
0010
1000
0001
1000
0001
0010
0001
0010
0100
0010
0001
0100
,
0001
0100
0001
1000
0100
1000
0001
1000
0100
0010
0100
1000
0001
0100
0001
0010
,
0100
1000
0001
0010
0100
0010
0100
1000
0100
1000
0010
0100
0010
1000
0010
0100
,
0001
1000
0001
0100
0010
1000
0010
1000
0100
1000
0001
0100
0010
0100
0010
1000
,
0100
0010
0100
1000
0010
0100
0010
1000
0001
1000
0010
1000
0001
0010
0100
1000
,
0010
1000
0001
0010
0001
1000
0100
1000
0100
1000
0010
0100
0010
0000
0000
0000
,
0001
0000
0100
1000
0000
0001
0100
0010
0000
1000
0000
0010
0000
0100
0000
0001
,
0010
0000
1000
0010
0000
0001
0100
1000
0000
0010
0000
1000
0000
0001
0000
0100
,
1000
0000
0010
1000
0000
0100
0001
0010
0000
1000
0000
0010
0000
0100
0000
0010
,
1000
0000
0010
0100
0000
0001
0000
0100
1001
0000
0101
0000
1010
0000
0110
0000
,
0001
0000
0100
0001
0000
0010
0100
1000
0000
0010
0000
0001
0000
0100
0000
1000
,
0010
0000
1000
0001
0000
0010
0100
0001
0000
0100
0000
0001
0000
1000
0000
0001
,
0010
1000
0100
0000
0010
0100
0001
1000
0000
0000
0001
1000
0000
0100
0001
0010
,
0100
0010
0001
0100
0010
0001
1000
0000
0100
1000
0010
0100
0000
0010
0000
0000
,
1001
0000
0000
0000
;
