#TITLE:DEATH†ZIGOQ ~怒りの高速爆走野郎~;
#ARTIST:L.E.D.ALiCE(DJ NAGAI Vs. BEMANI Sound Team "L.E.D.-G");
#TITLETRANSLIT:DEATH ZIGOQ ~ikari no kousoku bakusou yarou~;
#ARTISTTRANSLIT:L.E.D.ALiCE(DJ NAGAI Vs. L.E.D.-G);
#GENRE:SEIKIMATSU CORE;
#MUSIC:DEATH ZIGOQ ~ikari no kousoku bakusou yarou~.ogg;
#BANNER:DEATH ZIGOQ ~ikari no kousoku bakusou yarou~.png;
#BACKGROUND:DEATH ZIGOQ ~ikari no kousoku bakusou yarou~-bg.png;
#CDTITLE:./CDTitles/bm IIDX 25 CANNON BALLERS.png;
#SAMPLESTART:92.847;
#SAMPLELENGTH:15;
#OFFSET:0.733;
#BPMS:0=200;
#BGCHANGES:0=DEATH ZIGOQ ~ikari no kousoku bakusou yarou~.mp4=1.000=0=0=0=StretchNoLoop====,
99999.000=-nosongbg-=1.000=0=0=0=StretchNoLoop====;
#BGSTAGE:30;

//--------------- dance-single - XLev450X vs. StormTaker21-bSP ----------------
#NOTES:
     dance-single:
     XLev450X vs. StormTaker21:
     Beginner:
     5:
     0,0,0,0,0:
0000
0000
0000
0000
,
0000
0000
0000
0000
,
0000
0000
0000
0000
,
0000
0000
0000
0000
,
0000
0000
0000
0000
,
0000
0000
0000
0000
,
0000
0000
0000
0000
,
0000
0000
0000
0000
,
0000
0000
0000
0000
,
0001
0000
0001
0000
,
0001
0000
0000
0000
,
1000
0000
1000
0000
,
1000
0000
0000
0000
,
1001
0000
0000
0000
,
0001
1000
0001
0000
,
0010
1000
0010
0000
,
0100
0010
0100
0000
,
0001
0010
0001
0000
,
1000
0100
0001
0010
,
1000
0100
0010
0000
,
1001
0000
0000
0000
,
0000
0000
0000
0000
,
0001
1000
0010
0000
,
0001
0100
1000
0000
,
1000
0100
0001
0000
,
0010
1000
0010
0000
,
0100
0100
1000
0001
,
0100
0010
1000
0000
,
0001
1000
0001
1000
,
0001
0000
0000
0000
,
1000
0000
0010
0000
,
1000
0000
0000
0000
,
0100
0000
0010
0000
,
0100
0000
0000
0000
,
0001
0000
0010
0000
,
0001
0000
0000
0000
,
1000
0000
0001
0000
,
1000
0000
0000
0000
,
0001
0000
0001
0000
,
1000
0000
1000
0000
,
0010
0000
1000
0000
,
0010
0000
0000
0000
,
0100
0000
0001
0000
,
0100
0000
0001
0000
,
1000
0000
0001
0000
,
1000
0000
0000
0000
,
0110
0000
0000
0000
,
1100
0000
0000
0000
,
0011
0000
0000
0000
,
1001
0000
0000
0000
,
0001
0000
0001
0000
,
0001
0000
0000
0000
,
0100
0000
0100
0000
,
0100
0000
0000
0000
,
1000
0000
0000
0000
,
0001
0000
0000
0000
,
1000
0000
0010
0000
,
1000
0000
0000
0000
,
0001
0000
0100
0000
,
0001
0000
0000
0000
,
1000
0000
0001
0000
,
1000
0000
0000
0000
,
0010
0000
0000
0000
,
1000
0000
0000
0000
,
0001
0000
0000
0000
,
0100
0000
0000
0000
,
1000
0000
0001
0000
,
1000
0000
0000
0000
,
0010
0000
1000
0000
,
0010
0000
0000
0000
,
1001
0000
0000
0000
,
0000
0000
0000
0000
,
0000
0000
0000
0000
,
0000
0000
0000
0000
,
1001
0000
0000
0000
,
0000
0000
0000
0000
,
1000
0000
0000
0000
,
0001
0000
0000
0000
,
0010
0000
1000
0000
,
0010
0000
0000
0000
,
0001
0000
0100
0000
,
1000
0000
0000
0000
,
0010
0000
1000
0000
,
0010
0000
0000
0000
,
0100
0000
0001
0000
,
1000
0000
0000
0000
,
0001
0000
1000
0000
,
0010
0000
0100
0000
,
0001
0000
1000
0000
,
0010
1000
0010
0000
,
0001
0100
1000
0001
,
1000
0010
1000
0000
,
0110
0000
0000
0000
,
0001
0000
0000
0000
,
2002
0000
0000
0000
,
0000
0000
0000
0000
,
0000
0000
0000
0000
,
0000
0000
0000
0000
,
0000
0000
0000
0000
,
0000
0000
0000
0000
0000
0000
0000
3003
;

//--------------- dance-single - XLev450X vs. StormTaker21-BSP ----------------
#NOTES:
     dance-single:
     XLev450X vs. StormTaker21:
     Easy:
     10:
     0,0,0,0,0:
0000
0000
0000
0000
,
0000
0000
0000
0000
,
0000
0000
0000
0000
,
0000
0000
0000
0000
,
0000
0000
0000
0000
,
0000
0000
0000
0000
,
0000
0000
0000
0000
,
0000
0000
0000
0000
,
0000
0000
0000
0000
,
1001
0000
0000
1000
0000
0000
0110
0000
,
0000
0010
0100
0000
0100
0010
0000
0000
,
1010
0000
0000
0010
0000
0000
1001
0000
,
0000
0010
1000
0000
1000
0010
0000
0000
,
2002
0000
0000
3003
,
1001
0000
0001
0010
0001
0000
1000
0000
,
0100
0010
0001
1000
,
1000
0000
0001
0100
0001
0000
0100
0000
,
0010
1000
0001
0020
,
0130
1000
0100
0001
,
0010
0100
1000
0001
,
0001
1000
0001
0000
0010
1000
0010
0000
,
2002
0000
0000
3003
,
0001
0000
0100
0010
0100
0000
0001
0000
,
0010
0010
0100
0100
,
1000
0000
0010
0100
0010
0000
0100
0000
,
0001
0001
0010
0002
,
0013
1000
0010
0000
0001
0000
0010
0000
,
0100
0001
0100
0000
0001
0000
0010
0000
,
1000
0001
1000
0000
0010
1000
0010
0000
,
2002
0000
0000
3003
,
0200
0000
0000
0300
,
1000
0000
0010
0000
,
0200
0000
0000
0302
0000
0000
0000
0000
,
0023
0000
0230
0000
,
2300
0000
0000
3000
,
0010
0000
0100
0000
,
0001
0001
1000
1000
,
0001
1000
0001
0000
1000
0001
1000
0000
,
1001
0000
0000
0001
0000
0000
0010
0000
,
0110
0000
0000
0100
0000
0000
1000
0000
,
0010
0010
0100
0100
,
0001
0000
1000
0000
,
1001
0000
0000
1000
0000
0000
0100
0000
,
0110
0000
0000
0010
0000
0000
0001
0000
,
0100
0100
0010
0010
,
2000
0000
0000
3000
,
0001
0000
0000
1001
0000
0000
0000
0000
,
1000
0000
0000
1010
0000
0000
0000
0000
,
0010
0000
0000
0110
0000
0000
0001
0000
,
1001
0000
0000
1010
0000
0000
0001
0000
,
0011
0000
1010
0000
,
0101
0000
1001
0000
,
0001
0000
1000
0000
0001
1000
0001
0000
,
2002
0000
0000
3003
,
0001
0100
0100
0010
,
1000
0000
1000
0000
0001
1000
0001
0000
,
1000
0100
0100
0010
,
0001
0000
0001
0000
1000
0001
1000
0000
,
0001
0100
0001
0010
,
0100
0000
0100
0000
1000
0001
1000
0000
,
1000
0100
1000
0010
,
0110
0100
0110
1001
,
0010
1000
0100
0001
,
0100
0001
0100
0000
0010
1000
0010
0000
,
0001
1000
0100
1000
,
0001
1000
0001
0000
0010
1000
0010
0000
,
0001
0010
0100
1000
,
0010
1000
0010
0000
0001
0000
0010
0000
,
0100
0010
0100
0000
0001
1000
0001
0000
,
0010
1000
0002
1003
,
2002
0000
0000
0000
,
0000
0000
0000
0000
,
0000
0000
0000
0000
,
0000
0000
0000
0000
,
0000
0000
0000
0000
,
0000
0000
0000
3003
,
1001
0000
0000
0110
0000
0000
1001
0000
,
0000
0110
0000
0000
0101
0000
0000
0000
,
0001
0000
0010
0000
0100
1000
0100
0000
,
1000
0000
0010
0000
0100
0001
0100
0000
,
0001
0001
1000
1000
,
0100
0100
0010
0010
,
0001
0000
0100
0000
0010
1000
0010
0000
,
1000
0000
0100
0000
0010
0001
0010
0000
,
0002
0023
0230
2300
,
3010
0000
0000
0100
0000
0000
0110
0000
,
0001
0000
0010
0000
0100
1000
0100
0000
,
1000
0000
0010
0000
0100
0001
0100
0000
,
0001
0001
1000
1000
,
0100
0000
0100
0000
0010
0100
0010
0000
,
0001
0000
0100
0000
0010
1000
0010
0000
,
1000
0000
0100
0000
0010
0001
0010
0000
,
0002
0023
0230
2300
,
3010
0000
0000
0100
0000
0000
0202
0000
,
0000
0000
0000
0000
,
0000
0000
0000
0303
;

//--------------- dance-single - XLev450X vs. StormTaker21-DSP ----------------
#NOTES:
     dance-single:
     XLev450X vs. StormTaker21:
     Medium:
     14:
     0,0,0,0,0:
0000
0000
0000
0000
,
0000
0000
0000
0000
,
0000
0000
0000
0000
,
0000
0000
0000
0000
,
0000
0000
0000
0000
,
0000
0000
0000
0000
,
0000
0000
0000
0000
,
0000
0000
0000
0000
,
0000
0000
0000
0000
,
0001
0100
0001
1000
0100
0001
0010
1000
,
0001
0100
0010
0000
0001
0010
0000
1000
,
0001
0100
0010
1000
0001
1000
0010
0001
,
1000
0100
0010
0000
0001
0010
0000
0100
,
1000
0000
2002
0000
0000
3003
0220
0330
,
2001
0000
3100
1000
0001
0000
0001
1000
,
0100
0000
0100
1000
0001
1000
0010
0100
,
0010
0000
0100
0001
1000
0000
1000
0001
,
0100
0000
0100
0001
1000
0100
0100
0000
,
0001
0010
0100
0000
1000
0001
1000
0000
,
0010
1000
0010
0000
0010
0100
0010
0000
,
0001
0010
0100
1000
0001
0010
0100
1000
,
2002
3003
0000
2020
3030
0000
0220
0330
,
1002
0000
0103
0010
1000
0001
1000
0010
,
0100
1000
0100
0001
0100
1000
0100
0001
,
1000
0000
0100
0010
0001
1000
0001
0010
,
0100
0001
0100
1000
0100
0010
0010
0000
,
0100
1000
0001
1000
,
0001
1000
0001
0000
0001
0000
1000
0000
,
0010
1000
0010
0000
0100
0010
0100
0000
,
2002
0000
0000
3003
,
2002
0000
0000
3003
,
1000
0010
0100
0000
0010
0100
0001
0000
,
2000
0000
3100
0020
0000
0031
2000
3001
,
0200
0000
0320
0000
1030
0010
1000
0001
,
0020
0000
0000
0030
,
0100
0010
0001
0000
0001
0010
0100
0000
,
0010
0100
0010
0100
0010
0100
0010
0100
,
0010
0100
0010
0000
0100
0000
0010
0000
0100
0010
0100
0000
1000
0000
0000
0000
,
0001
0000
0100
0010
0000
1000
0001
0000
,
1000
0000
0010
0100
0000
0001
1000
0000
,
0100
0010
0001
1000
0100
0010
0001
0000
,
0001
1000
0010
0000
0010
1000
0001
0000
,
1000
0000
0010
0100
0000
0001
1000
0000
,
0001
0000
0100
0010
0000
1000
0001
0000
,
0010
0100
1000
0001
0010
0100
1000
0000
,
2002
0000
0000
3003
,
1001
0000
0020
2000
3030
0000
0110
0000
,
0101
0000
0002
0020
0033
0000
1001
0000
,
1010
0000
1000
0010
0000
0100
0001
0010
,
0100
0000
0002
2000
3003
0000
1001
0000
,
0110
0000
1000
0100
1000
0000
0010
0001
,
0010
0000
1000
0001
1000
0000
1000
0010
,
1000
0100
0010
0001
0100
0010
1000
0100
,
0002
0000
1000
0000
1000
1000
2000
3003
,
0001
0010
0100
0010
1000
0010
0100
0010
,
0001
0001
1000
0000
0001
1000
1001
0000
,
1000
0010
0100
0010
0001
0010
0100
0010
,
1000
1000
0001
0000
1000
0001
1001
0000
,
1000
0100
0001
0100
1000
0000
0100
0010
,
0000
0100
1000
1000
0001
1000
1001
0000
,
0001
0100
1000
0100
0001
0000
0100
0000
,
0110
0000
0110
0000
0010
0100
0110
0000
,
0001
1000
0010
0000
0010
1000
0010
0000
,
0001
0010
0100
1000
0002
0200
0303
0000
,
0010
1000
0010
0000
0010
0100
0010
1000
,
0001
0010
0100
1000
0001
0010
1000
0000
,
0101
0000
1010
0000
0010
1000
0010
0000
,
0001
0010
0001
0000
0100
1000
0100
0000
,
0001
0010
1000
0100
0001
0010
1000
0001
,
1000
0000
0010
0100
0010
0000
1010
0000
,
2002
0000
0000
0000
,
0000
0000
0000
0000
,
0000
0000
0000
0000
,
0000
0000
0000
0000
,
0000
0000
0000
0000
,
0000
0000
0000
0000
0000
0000
0000
3003
,
1000
0001
1000
0000
0000
0000
0001
1000
0001
0000
0000
0000
0100
0010
0100
0000
,
0000
0000
0010
0100
0010
0000
0000
0000
1000
0000
0001
0000
1001
0000
0000
0000
,
1000
0000
0001
0010
1000
0001
0100
1000
,
0001
0000
0001
0100
1000
0001
0010
0100
,
0001
0001
1000
0000
1000
1000
0001
0000
,
0001
0001
0010
0100
1000
1000
1001
0000
,
0001
0000
1000
0010
0001
1000
0100
0001
,
1000
0000
1000
0100
0001
1000
0010
0100
,
1000
0100
1000
0000
0001
0000
0000
0000
1000
0010
1000
0000
0001
0000
0000
0000
,
0200
0000
0320
2030
0000
3002
0023
0230
,
1300
0000
0001
0100
1000
0001
0010
1000
,
0100
0000
1000
0100
0001
1000
0010
0100
,
1000
1000
0001
0000
0001
0001
1000
0000
,
1000
0010
1000
0000
0010
0000
0100
0000
0001
0000
0001
0000
1001
0000
0000
0000
,
0001
0000
1000
0100
0001
1000
0010
0001
,
0100
0000
0001
0100
1000
0001
0010
0100
,
0001
0100
0001
0000
1000
0000
0000
0000
0001
0010
0001
0000
1000
0000
0000
0000
,
0200
0000
0320
0032
0000
2003
3020
0230
,
0000
0000
0000
0000
,
0000
0000
0000
0000
,
0000
0000
0000
0000
,
0000
0000
0000
0000
,
0000
0000
0000
0000
,
0000
0000
0000
0000
0000
0000
0000
0300
;

//--------------- dance-single - XLev450X vs. StormTaker21-ESP ----------------
#NOTES:
     dance-single:
     XLev450X vs. StormTaker21:
     Hard:
     16:
     0,0,0,0,0:
0000
0000
0000
0000
,
0000
0000
0000
0000
,
0000
0000
0000
0000
,
0000
0000
0000
0000
,
0000
0000
0000
0000
,
0000
0000
0000
0000
,
0000
0000
0000
0000
,
0000
0000
0000
0000
,
0000
0000
0000
0000
,
0001
0000
0100
0001
1000
0000
0001
0000
1000
0000
0001
0000
0010
0000
1000
0000
,
0001
0000
0100
0000
0010
0000
0000
0000
0100
0000
0001
0000
0000
0000
1000
0100
,
0010
0000
0001
0000
1000
0000
0100
0000
0010
0000
1000
0000
0001
0000
0100
1000
,
0001
0000
1000
0000
0010
0000
0000
0000
0100
0000
1000
0000
0000
0000
0001
0100
,
1000
0220
0330
1001
,
1002
0000
0013
0100
0010
1000
0010
0100
,
0010
1000
0010
0100
0010
1000
0001
0100
,
1000
0000
0000
0000
0010
0100
0010
0100
0010
0000
0001
0000
0010
0000
0100
0000
,
0010
0001
0010
0100
0010
1000
0200
0000
,
0301
1000
0010
0001
0100
0010
1000
0100
,
0001
1000
0001
1000
0010
1000
0010
1000
,
0010
0001
0100
0010
0100
1000
0100
0010
,
2002
0000
3003
0000
0000
0000
2020
0000
0000
3030
0000
0000
0202
0000
0303
0000
,
0021
0000
0130
1000
0100
0001
0100
1000
,
0100
0010
0100
0000
0010
0001
0010
0000
0100
1000
0100
0000
0010
0000
0100
0000
,
1000
0000
0001
0100
0001
0010
0001
0100
,
0010
0100
0010
0000
1000
0001
1000
0000
0001
0010
0001
0000
0200
0000
0000
0000
,
0301
0100
1000
0001
0010
0100
1000
0100
,
0001
0100
1000
0001
0010
1000
0010
0100
,
0001
0000
0100
0000
0010
0000
1000
0100
0001
0000
1000
0000
0001
0000
0010
0000
,
0200
0000
0000
0001
0000
0000
1300
0000
,
2010
0000
3200
0000
,
0310
0100
0010
0001
1000
0010
0100
1000
,
0200
0000
0301
0020
0000
0130
2000
3010
,
0200
0000
0302
0000
1003
0001
1000
0100
,
1000
0020
0000
0000
1000
0000
1030
0000
,
0010
0000
0010
0000
1000
0001
1000
0001
,
1000
0001
1000
0000
0001
1000
0001
0000
0010
0100
0010
0000
0100
0010
0100
0000
,
1000
0001
1000
0001
1000
0001
1000
0001
1000
0001
1000
0001
0100
0000
0000
0000
,
0010
0000
0000
0000
0100
0000
0001
0000
0000
0000
0001
0000
0010
0100
0010
0000
,
0100
0000
0000
0000
1000
0000
0010
0000
0000
0000
0100
0000
0001
1000
0001
0000
,
0010
0100
0100
1000
0001
0100
0100
0010
,
1000
0010
1000
0000
0001
0100
0001
0000
1000
0001
1000
0000
0001
0010
0001
0000
,
2000
0000
0000
0000
3100
0000
0010
0000
0000
0000
0001
0000
1000
0010
1000
0000
,
0002
0000
0000
0000
1003
0000
0100
0000
0000
0000
1000
0000
0001
0100
0001
0000
,
0100
0000
0010
0000
0010
0000
1000
0000
0001
0000
0010
0000
0010
0100
0010
0000
,
0220
0000
0000
0330
,
0101
0000
0002
2000
0000
3003
1001
0000
,
1010
0000
0020
0200
0000
0330
0110
0000
,
1010
0000
2000
0002
0000
3003
1001
0000
,
0101
0000
0200
0020
0000
0330
0110
0000
,
1100
0000
1010
0000
,
0101
0000
0110
0000
,
1001
1001
1001
1001
,
2002
0000
0000
0000
0000
0000
0000
3003
,
0001
0000
0001
0000
0100
0000
0010
0000
0010
0000
1000
0000
0010
0100
0010
0100
,
0010
0100
0101
0001
1000
0100
1100
0000
,
1000
1000
0100
0010
0010
0001
0010
1000
,
0010
0100
1100
1000
0001
0100
0101
0000
,
0001
0100
0001
0100
0001
0000
1000
0000
0010
0000
0001
0000
0010
0000
0010
0000
,
0100
0000
1010
0000
0001
0010
0011
0000
,
1000
1000
0001
0010
0010
1000
0010
0010
,
0210
0300
0120
0030
0110
0001
1000
0000
,
0001
0100
1000
0000
0010
0000
1000
0000
0010
0000
0100
0000
0001
0000
0010
0000
,
0100
1000
0001
0010
2000
0020
3030
0000
,
0100
0000
1000
0000
0001
0000
1000
0000
0010
0000
1000
0000
0100
0000
0010
1000
,
0001
0100
0010
1000
0002
0200
0303
0000
,
1000
0000
0010
0001
1000
0000
0100
0000
1000
0000
0001
0000
0010
0000
1000
0000
,
0010
0100
0001
0010
2000
0002
3003
0000
,
0010
0000
1000
0000
0100
0000
0010
0000
1000
0000
0001
0000
0010
0000
1000
0100
,
0001
0100
1000
0001
0020
0000
0130
0000
,
2002
0000
0000
0000
,
0000
0000
0000
0000
,
0000
0000
0000
0000
,
0000
0000
0000
0000
,
0000
0000
0000
0000
,
0000
0000
0000
0000
0000
0000
0000
3003
,
0100
0001
0010
0000
0000
0000
0100
1000
0010
0000
0000
0000
0100
0001
0010
0000
,
0000
0000
0100
1000
0010
0000
0000
0000
0100
0000
0001
1000
0001
0000
0000
0000
,
2001
0000
3000
0000
0001
0010
0001
0000
0010
0100
0010
0000
0100
1000
0100
1000
,
0002
0000
0003
1000
0010
0000
1000
0010
1000
0000
0010
0100
0010
0000
0100
0000
,
0001
1000
0001
1000
0100
0000
1000
0001
1000
0001
0010
0000
0001
1000
0001
1000
,
0100
0000
1000
0001
1000
0001
0100
0000
0010
0100
0010
0100
0001
0000
1000
0000
,
1002
0000
0003
0000
1000
0100
1000
0000
0100
0010
0100
0000
0010
0001
0010
0001
,
2000
0000
3000
0001
0100
0000
0001
0100
0001
0000
0100
0010
0100
0000
0010
0000
,
1000
0001
1000
0000
0010
1000
0000
0001
0100
0001
0100
0000
0010
0100
0000
0001
,
0020
0000
0230
2300
0000
3002
0203
2300
,
3200
0000
0300
0000
0001
0010
0100
0000
0010
0100
1000
0000
0100
1000
0100
1000
,
0020
0000
0030
1000
0010
0000
1000
0010
0100
0000
0010
0100
0001
0000
0100
0000
,
0001
1000
0001
1000
0100
0000
1000
0001
1000
0001
0010
0000
0001
1000
0001
1000
,
0100
0000
1000
0001
1000
0001
0100
0000
0010
0100
0010
0100
0001
0000
1000
0000
,
2001
0000
3000
0000
0001
0010
0100
0000
1000
0100
0010
0000
0001
0010
0100
1000
,
0020
0000
0030
1000
0010
0000
1000
0010
0100
0000
0001
0100
0010
0000
1000
0000
,
0100
1000
0001
0000
0100
0001
0000
1000
0010
0100
0001
0000
0100
0010
0000
1000
,
0200
0000
0320
0032
0000
2003
3020
0032
,
0000
0000
0000
0000
,
0000
0000
0000
0000
,
0000
0000
0000
0000
,
0000
0000
0000
0000
,
0000
0000
0000
0000
,
0000
0000
0000
0000
0000
0000
0000
0003
;

//--------------- dance-single - XLev450X vs. StormTaker21†-CSP ----------------
#NOTES:
     dance-single:
     XLev450X vs. StormTaker21†:
     Challenge:
     18:
     0,0,0,0,0:
0000
0000
0000
0000
,
0000
0000
0000
0000
,
0000
0000
0000
0000
,
0000
0000
0000
0000
,
0000
0000
0000
0000
,
0000
0000
0000
0000
,
0000
0000
0000
0000
,
0000
0000
0000
0000
,
0000
0000
0000
0000
,
0001
0000
1000
0010
0001
0000
1000
0000
0001
0000
1000
0000
0010
0000
0001
0000
,
1000
0000
0100
0000
0010
0000
1000
0000
0001
0000
0010
0000
0100
0000
1000
0100
,
0001
0000
1000
0010
0001
0000
0010
0000
1000
0000
0001
0000
0100
0000
1000
0100
,
0001
0000
1000
0000
0001
0000
1000
0000
0010
0000
0100
0000
0001
0000
0010
1000
,
0010
0000
2002
0000
3003
0000
0220
0330
,
1001
0000
0000
0000
0001
0000
0010
0000
1000
0000
0010
0000
0001
0000
0010
0100
,
1000
0001
0100
0001
1000
0100
0010
0001
,
1000
0000
1000
0000
1000
0010
1000
0001
0100
0000
0100
0000
0100
0000
0010
1000
,
0001
0000
0010
0001
0010
0000
0100
0010
0100
0000
0000
0000
1001
0000
0000
0000
,
0001
0000
0010
0100
1000
0000
0001
0000
1000
0010
0100
0000
0001
0000
1000
0000
,
0100
0000
0010
0100
0010
0000
0001
0010
0001
0000
1000
0100
0020
0000
0000
0000
,
0130
0000
0000
1000
0001
0000
0100
0000
0010
1000
0001
1000
0010
1000
0001
1000
,
0100
0010
0001
0000
0000
0000
0100
0010
1000
0000
0100
0000
0010
0100
0010
0100
,
1000
0000
0001
0000
1001
0000
0000
0000
1000
0010
1000
0000
0010
0100
0001
0000
,
1000
0000
0100
0000
0001
0000
0100
0000
1000
0001
0010
0001
1000
0000
0100
0000
,
1000
0000
0001
0100
0010
0000
1000
0000
0100
0010
0001
0000
1000
0000
0010
1000
,
0010
0000
0100
0010
0100
0000
0001
1000
0100
0000
0000
0000
0120
0000
0000
0000
,
0031
0000
1000
0100
0010
0000
0001
0000
0100
0010
1000
0000
0100
0000
1000
0000
,
0010
1000
0010
0000
0100
0010
0100
0000
0001
1000
0010
1000
0001
0000
0100
0000
,
0110
0000
0000
0000
1000
0000
0001
1000
0001
0000
0010
0000
0100
1000
0100
1000
,
0001
0100
0001
0000
0100
0010
0000
1000
0100
0010
0100
0000
0010
0001
1000
0000
,
0001
0000
1000
0000
0010
0100
0010
0001
,
0010
1000
0010
1000
0010
0100
0001
0010
,
0100
1000
0010
1000
0010
0100
0001
0010
,
0100
1000
0001
1000
0001
1000
0001
1000
,
0010
1000
0010
0100
0010
1000
0001
0010
,
0100
1000
0100
0001
0010
0100
1000
0001
,
1000
0010
1000
0010
1000
0001
0100
0010
,
1000
0001
1000
0010
1000
0001
1000
0001
,
0011
0000
0011
0000
1000
0000
0000
0100
0000
0100
1000
0000
0001
0000
0000
0000
,
1010
0000
1010
0000
0001
0000
0100
0000
0010
1000
0010
0100
0001
0000
0000
0000
,
1100
0000
1100
0000
0001
0000
0000
1000
0000
1000
0010
0000
0100
0000
0001
0000
,
1000
0000
0100
1000
0100
0000
0010
0100
0010
0000
0001
1000
0100
1000
0100
0000
,
0011
0000
0011
0000
1000
0000
0100
1000
0000
1000
0010
0000
0100
0000
0000
0000
,
1010
0000
1010
0000
0001
0000
0100
0000
0001
1000
0001
1000
0010
0000
0000
0000
,
0110
0000
0110
0000
0001
0000
0000
1000
0000
1000
0100
0000
0010
0000
0001
0000
,
0200
0320
2030
3002
,
0013
0000
0011
2100
0000
0000
3010
0000
,
0110
0000
1010
0102
0000
0000
0013
0000
,
0110
0000
0000
0000
1100
0000
1020
0000
0000
0000
0130
0000
0100
0001
0100
0001
,
1000
0000
0000
0000
0101
0000
0021
0000
0000
0000
0130
1000
0100
0000
0010
0000
,
0120
0000
0000
0000
0130
1000
0001
1000
0020
0000
0000
0000
0130
0001
1000
0001
,
0020
0000
0000
0000
0130
1000
0010
1000
0200
0000
0000
0000
0310
0001
0100
0001
,
0020
0000
0130
1000
0020
0000
0130
0001
0020
0000
0130
1000
0002
0000
0000
0000
,
0100
0000
0000
0100
0000
0000
1003
0100
0010
0001
0000
0000
,
2002
0000
0000
0000
0000
0000
0000
0000
3003
0000
0000
0000
0001
1000
0001
1000
,
0010
0000
1000
0001
1000
0000
0010
1000
,
0010
0000
0001
0010
0001
0000
1000
0001
,
1000
0010
0100
0001
1000
0010
1000
0001
,
1000
0001
1000
0001
0010
0000
0100
0000
1000
0000
0100
0000
0001
1000
0001
0000
,
1000
0001
1000
0010
1000
0010
0200
0310
,
1000
0001
0010
0100
1000
0001
1000
0100
,
0002
0000
2000
3003
0010
1000
2002
3003
,
1010
0000
1000
0002
0100
0000
0100
0000
1000
0000
1000
0000
1000
0000
0010
0000
,
0010
0010
1000
1000
1003
1100
0011
0000
,
1001
0000
0001
0100
0010
0000
1000
0000
0100
0010
0001
0000
0100
0000
0010
1000
,
0100
0000
0010
0001
0100
0000
0001
1000
0100
0000
1100
0000
0011
0000
0000
0000
,
1000
0010
0100
0010
1000
0000
0001
0010
0100
0010
0001
0000
1000
0100
0010
0100
,
1000
0000
0001
0100
0010
0100
0001
0000
1000
0000
0001
0000
1001
0000
0000
0000
,
1000
0000
1000
0100
0010
0000
0010
0001
1000
0000
1000
0010
0100
0010
0100
0001
,
2000
0000
0100
3100
0020
0000
0031
0000
,
0001
0100
0001
1000
0010
0100
0001
1000
0100
0010
0001
0010
0100
1000
0001
1000
,
0001
0010
0001
1000
0100
0010
0100
0010
0001
0100
0001
0010
0100
0010
0001
0010
,
0100
1000
0010
0100
0001
0010
0100
1000
0010
0100
0010
0100
0010
1000
0100
0010
,
0100
1000
0100
0010
0001
1000
0001
1000
0001
0010
0100
0010
0001
0100
0010
0100
,
0010
0100
0001
1000
0001
0010
0001
1000
0010
0100
0001
1000
0010
1000
0010
1000
,
0001
0010
0100
1000
0100
1000
0010
0100
0010
0100
0010
1000
0100
1000
0001
1000
,
0200
0320
0032
0000
0003
0000
0200
0320
2030
0000
3000
0000
0020
2030
3200
0000
,
0300
0000
0020
0032
0203
0000
0300
0000
0020
2030
3002
0203
0320
0000
0030
0000
,
1000
0100
0010
0100
1000
0000
0001
0100
0010
0000
0010
1000
0001
0000
0010
0000
,
0001
0100
0010
0100
0001
0000
1000
0100
0010
0000
0010
0001
1000
0000
0010
0000
,
1000
0100
0010
0001
0200
0000
0301
0010
0100
1000
0020
0000
0130
0001
0010
0100
,
2000
0000
3010
1000
0100
0010
0002
0000
0103
0010
1000
0001
0200
0000
0320
0000
,
1030
0001
0010
0001
1000
0000
0100
0010
0001
0000
0001
1000
0010
0000
0100
0000
,
0001
1000
0010
1000
0001
0000
0100
0010
1000
0000
1000
0001
0010
0000
0100
0000
,
1000
0010
1000
0010
0100
0010
0000
1000
0001
0010
0100
0010
0001
1000
0100
1000
,
0001
0100
0010
1000
0100
0000
0010
0001
0000
0001
0100
0010
1000
0000
0100
0000
,
1000
0001
0010
0001
0100
0000
0010
1000
0001
0000
0001
1000
0100
0000
0010
0000
,
0001
1000
0010
1000
0100
0000
0010
0001
1000
0000
1000
0001
0100
0000
0010
0000
,
1000
0001
0010
1000
0020
0000
0031
1000
0010
0001
0020
0000
0031
1000
0100
0001
,
0200
0000
1300
0001
0100
1000
0200
0000
0301
1000
0010
0100
0002
0000
2003
0000
,
3100
0010
0001
0100
0010
0000
1000
0100
0010
0000
0010
0100
1000
0000
0001
0000
,
0100
0010
1000
0100
0010
0000
0100
0010
0001
0000
0001
0100
0010
0000
1000
0000
,
0001
0100
0010
0100
0001
1000
0010
1000
0001
0010
0100
1000
0001
0100
0010
1000
,
0001
0000
1100
1010
0000
0110
0101
0022
,
0000
0000
0000
0000
,
0000
0000
0000
0000
,
0000
0000
0000
0000
,
0000
0000
0000
0000
,
0000
0000
0000
0000
,
0000
0000
0000
0000
0000
0000
0000
0033
;
