#TITLE:DEADLOCK XXX;
#ARTIST:BlackY;
#BANNER:DEADLOCK XXX.png;
#BACKGROUND:DEADLOCK XXX-bg.png;
#CDTITLE:./CDTitles/SDVX II -infinite infection-.png;
#MUSIC:DEADLOCK XXX.ogg;
#SAMPLESTART:65.098;
#SAMPLELENGTH:15;
#SELECTABLE:YES;
#OFFSET:-0.219;
#BPMS:0=222;
#STOPS:104.333=0.960;
#BGSTAGE:30;

//--------------- dance-single - KurumA-bSP ----------------
#NOTES:
     dance-single:
     KurumA:
     Beginner:
     7:
     0,0,0,0,0:
0000
0000
0000
0000
,
0000
0000
0000
0000
,
0000
0000
0000
0000
,
0000
0000
0000
0000
,
0000
0000
0000
0000
,
0000
0000
0000
0000
,
0000
0000
0000
0000
,
0000
0000
0000
0000
,
0000
0000
0000
0000
,
0000
0000
0000
0000
,
1000
0000
0001
0000
,
0100
0000
0010
0000
,
0001
0000
1000
0000
,
0010
0100
0001
1000
,
0010
0000
0100
0000
,
1000
0000
0001
0000
,
0010
0000
1000
0000
0001
0000
0000
0100
,
0000
0010
1000
0000
,
0001
0000
0010
0000
,
0100
0000
0000
0000
,
0001
0000
1000
0000
,
0010
0000
0000
0000
,
0100
0000
0001
0000
,
1000
0000
0010
0000
,
0100
0000
0001
0000
,
1000
0010
0100
0000
,
0000
1000
0000
1000
0000
1000
0000
0000
,
0000
0001
0000
0001
0000
0001
0000
0000
,
0000
0100
0000
0010
0000
1000
0000
0001
,
0000
0100
0000
0010
0000
1000
0000
0000
,
0000
0010
0000
0010
0000
0100
0000
0100
,
0000
0001
0000
0001
0000
1000
0000
0000
,
0000
0010
0000
0100
0000
0001
0000
1000
,
0000
0010
0000
0100
0000
0001
0000
0000
,
0000
0010
0000
0000
0000
1000
0000
0000
,
0000
0010
0000
0100
0000
0001
0000
1000
,
0000
0010
0000
0000
0000
0100
0000
0000
,
0000
0001
0000
0010
0000
1000
0000
0001
,
0000
0100
0000
0010
0000
1000
0000
0000
,
0000
0010
0000
0100
0000
0001
0000
0000
,
0000
0010
0000
0000
0000
1000
0000
0000
,
0000
0001
0000
0100
0000
0010
0000
0000
,
0000
1000
0000
0000
0000
0000
0000
0000
,
0000
0001
0000
0000
0000
0000
0000
0000
,
0000
0010
0000
0000
0000
0100
0000
0000
,
0000
0001
0000
1000
0000
0010
0000
0000
,
0000
0100
0000
0000
0000
0000
0000
0000
,
0000
0001
0000
0000
0000
0000
0000
0000
,
0000
0100
0000
0000
0000
0001
0000
0000
,
0000
1000
0000
0010
0000
0100
0000
0000
,
0000
0001
0000
0000
0000
1000
0000
0000
,
0000
0010
0000
0100
0000
0001
0000
0000
,
0000
0010
0000
0001
0000
1000
0000
0010
,
0000
0000
0000
0100
0000
1000
0000
0000
,
0000
0010
0000
0001
0000
0100
0000
0010
,
0000
1000
0000
0001
0000
0010
0000
0000
,
0000
0001
0000
0010
0000
0100
0000
1000
,
0000
0010
0000
0100
0000
0010
0000
0000
,
0000
1001
0000
0000
0000
0000
0000
0000
,
0000
0010
0000
0010
0000
1000
0000
0001
,
0000
0100
0000
0010
0000
0001
0000
1000
,
0000
0010
0000
0100
0000
1000
0000
0001
,
0000
0100
0000
0010
0000
1000
0000
0000
,
0000
0001
0000
0100
0000
0010
0000
1000
,
0000
0001
0000
0100
0000
0010
0000
1000
,
0000
0001
0000
0100
0000
0010
0000
0001
,
0000
1000
0000
0010
0000
0100
0000
0000
,
0000
0001
0000
0000
0000
1000
0000
0010
,
0000
0100
0000
0001
0000
1000
0000
0010
,
0000
0100
0000
0000
0000
0001
0000
0000
,
0000
0010
0000
1000
0000
0001
0000
0000
,
0000
0100
0000
0000
0000
0010
0000
0000
,
0000
1000
0000
0001
0000
0100
0000
0000
,
0000
0010
0000
0000
0000
1000
0000
0000
,
0000
0010
0000
0000
0000
0100
0000
0000
,
0000
0001
0000
0000
0000
1000
0000
0000
,
0000
0010
0000
1000
0000
0001
0000
0000
,
0000
0100
0000
0000
0000
0000
0000
0000
,
0000
0010
0000
0000
0000
1000
0000
0000
,
0000
0001
0000
0010
0000
0100
0000
0000
,
0000
0001
0000
0000
0000
0010
0000
0000
,
0000
1000
0000
0000
0000
0010
0000
0000
,
0000
0001
0000
0000
0000
1000
0000
0000
,
0000
0220
0000
0000
0000
0000
0000
0000
,
0000
0000
0000
0000
,
0000
0000
0330
0000
;

//--------------- dance-single - KurumA-BSP ----------------
#NOTES:
     dance-single:
     KurumA:
     Easy:
     11:
     0,0,0,0,0:
0000
0000
0000
0000
,
0000
0000
0000
0000
,
0000
0000
0000
0000
,
0000
0000
0000
0000
,
0000
0000
0000
0000
,
0000
0000
0000
0000
,
0000
0000
0000
0000
,
0000
0000
0000
0000
,
0000
0000
0000
0000
,
0000
0000
0000
0000
,
0001
1000
0010
0100
,
0001
0000
1000
0000
0001
0100
0010
0000
,
1000
0001
0100
1000
,
0010
0000
0100
0000
0001
0010
0001
0000
,
1000
0010
0100
1000
,
0001
0000
0100
0000
0010
1000
0001
0000
,
0100
0010
0001
1000
,
0010
0000
0100
0000
0001
1000
0010
0000
,
0100
0000
0001
0000
,
1000
0010
0100
0000
,
0001
1000
0010
0000
,
1000
0000
0001
0000
,
0100
0010
0001
0000
,
1000
0010
0100
0000
,
0001
0010
1000
0001
,
0100
0010
1000
0000
0001
0100
0010
0000
,
0000
0001
1000
0010
0000
0100
0000
0001
,
0000
1000
0010
0100
0001
1000
0000
0010
,
0000
0001
0100
0010
0000
1000
0001
0100
,
0000
0010
0000
0001
1000
0010
0100
0001
,
0000
1000
0010
0100
0000
1000
0001
0100
,
0000
0010
0000
0001
0000
1000
0010
0100
,
0000
1000
0001
0100
0000
0010
0001
1000
,
0000
0010
0100
0001
1000
0010
0000
0000
,
0000
0001
0000
0000
0000
1000
0000
0000
,
0000
0010
0000
1000
0000
0001
0100
0010
,
0000
0001
0000
0000
0000
1000
0000
0000
,
0000
0010
0000
1000
0000
0001
0100
0010
,
0000
1000
0000
0000
0000
0001
0000
0000
,
0000
0100
0000
0010
0000
1000
0010
1000
,
0000
0001
0000
0000
0000
0010
0000
0000
,
0000
0100
0000
0001
0000
0010
0000
0000
,
0000
0220
0000
0000
0000
0000
0000
0330
,
0000
0020
0000
0000
0000
0000
0000
0030
,
0000
0200
0000
0000
0300
0002
0000
0000
,
0003
2000
0000
0000
3000
0020
0000
0000
,
0030
0200
0000
0000
0000
0000
0000
0000
,
0300
0002
0000
0000
0000
0000
0000
0000
,
0003
0020
0000
0000
0030
2000
0000
0000
,
3000
0010
0000
0100
0000
0001
0000
0000
,
0000
0010
0000
1000
0000
0001
0000
0100
,
0000
0010
1000
0001
0000
0000
0000
0010
,
0000
1000
0001
0100
0000
0010
0000
0000
,
0000
0010
0001
0010
0000
1000
0000
0000
,
0000
0010
1000
0010
0000
0100
0001
0100
,
0000
0010
0100
0010
0000
1000
0001
1000
,
0000
0010
0000
0000
0000
0100
0000
0000
,
0000
0001
0000
0000
0000
0010
0000
0100
,
0000
2002
0000
0000
0000
0000
0000
3003
,
0000
0010
0000
0100
0000
0001
0000
1000
,
0000
0010
0100
0001
0000
1000
0000
0010
,
0000
0100
0001
1000
0000
0010
0100
0001
,
0000
1000
0010
0100
0000
0001
0000
0010
,
0000
1000
0010
1000
0000
0001
0100
0001
,
0000
0010
0000
1000
0000
0001
0100
0010
,
0000
1000
0000
0001
0000
0100
0010
1000
,
0000
0001
0000
0010
0000
0100
0000
0000
,
0000
0001
0000
1000
0000
0010
0100
0001
,
0000
1000
0010
1000
0000
0001
0000
0100
,
0000
0010
1000
0010
0000
0100
0001
1000
,
0000
0010
0000
0100
0000
1001
0000
0000
,
0000
0010
0000
0100
0000
0001
0000
0010
,
0000
1000
0010
1000
0000
0001
0100
0010
,
0000
1000
0000
0001
0000
0100
0010
1000
,
0000
0001
0100
0010
1000
0001
0100
0010
,
0000
1001
0000
0000
0000
0010
0000
0000
,
0000
0100
0000
0001
0000
0010
0000
1000
,
0000
0001
0100
0010
0000
1000
0001
1000
,
0000
1000
0010
1000
0000
0001
0100
0010
,
0000
1000
0001
0100
0000
0010
1000
0001
,
0000
0100
0010
1000
0000
0001
0000
0000
,
0000
0100
0000
0010
0000
1000
0000
0001
,
0000
0100
0010
1000
0000
0001
0000
0010
,
0000
2002
0000
0000
0000
0000
0000
0000
,
0000
0000
0000
0000
,
0000
0000
3003
0000
;

//--------------- dance-single - KurumA-DSP ----------------
#NOTES:
     dance-single:
     KurumA:
     Medium:
     15:
     0,0,0,0,0:
0000
0000
0000
0000
,
0000
0000
0000
0000
,
0000
0000
0000
0000
,
0000
0000
0000
0000
,
0000
0000
0000
0000
,
0000
0000
0000
0000
,
0000
0000
0000
0000
,
0000
0000
0000
0000
,
0000
0000
0000
0000
,
0000
0000
0000
0000
,
1000
0010
0100
0001
1000
0000
0010
0000
,
0001
0010
0001
0000
1000
0010
1000
0000
,
0100
0000
0010
0000
1000
0001
0100
0010
,
1000
0000
0001
0000
0010
0001
1000
0000
,
0010
0000
0100
0000
0001
0010
0001
0000
,
1000
0000
0010
0000
0100
0001
1000
0000
,
0010
0000
0100
0000
0001
1000
0010
0000
,
0100
0000
0000
0000
0000
0000
0001
0000
0000
0000
0000
0000
0010
0000
0000
0100
0001
0000
1000
0000
0001
0100
0010
0000
,
0001
1000
0010
0000
0100
0000
0010
0000
,
0001
0010
0001
0000
1000
0010
1000
0000
,
0010
0000
0100
0000
0001
0100
0010
0000
,
1000
0000
0001
0000
0100
0010
1000
0000
,
0001
0000
0100
0000
0010
1000
0001
0000
,
0100
0000
0010
0000
1000
0001
0100
0000
,
0010
0001
1000
0010
,
1000
0000
0001
0000
1000
0000
0010
0000
0100
0010
0001
1000
0001
0100
0010
0100
,
0002
0000
0000
0000
0000
0003
0000
0000
1000
0000
0000
0000
0000
0000
0000
0000
0010
0000
0000
0000
0000
0000
0000
0000
0100
0000
0000
0000
0000
0000
0000
0000
0001
0000
0000
0000
0000
0000
0000
0000
1000
0000
0000
0000
0000
0000
0000
0000
0000
0000
0000
0000
0000
0000
0000
0000
0010
0000
0000
0000
0000
0000
0000
0000
,
0000
0001
0010
0001
0000
1000
0010
1000
,
0000
0010
0100
0001
1000
0010
0000
0100
,
0000
0000
0001
0000
0010
0000
0001
0000
0000
0000
1000
0000
0010
0000
0100
0010
,
1000
0100
0001
0000
0000
0000
0010
0000
0000
0000
0100
0000
0001
0000
1000
0000
,
0000
0010
0100
0001
0000
1000
0010
0100
,
0000
0001
0000
1000
0000
0010
0100
0001
,
0000
0000
0010
0000
0001
0000
0010
0000
1000
0000
0100
0001
0020
0000
0000
0000
,
0030
0001
0000
1000
0000
0010
0100
0001
,
0000
0010
0001
1000
0010
0100
0000
0001
,
0000
0010
0001
0010
0000
1000
0010
1000
,
0000
0010
0100
0001
1000
0010
0000
0000
,
0000
0100
0001
1000
0000
0100
0001
1000
,
0000
0010
0100
0001
0000
1000
0020
0000
,
0030
0001
0000
1000
0000
0010
0000
0001
,
0000
1000
0100
1000
0010
0001
0010
0100
,
0010
0100
0000
0000
0000
1000
0000
0000
,
0000
0001
0000
0010
0000
0001
0000
0000
,
0000
1000
0000
0000
0000
0010
0000
0000
,
0000
0100
0000
0001
0000
1000
0010
0100
,
0000
0001
0000
0000
0000
0010
0000
0000
,
0000
0001
0000
1000
0000
0010
0000
0000
,
0000
0100
0000
0001
0000
1000
0000
0000
,
0000
0010
0000
1000
0000
0010
1000
0001
,
0100
0001
0100
1000
0000
0010
1000
0001
,
0000
0100
1000
0001
0000
0010
0001
0100
,
0000
1000
0001
0010
0000
0100
0001
0100
,
0000
0100
0010
1000
0000
0100
0010
0100
,
0000
0001
1000
0010
0000
0100
0001
1000
,
0000
0010
0100
0001
0000
1000
0010
0100
,
0000
0100
0010
0100
0010
0001
0100
0010
,
1000
0000
0010
0000
1000
0000
0100
0000
0010
0000
0100
1000
0100
1000
0010
1000
,
0001
0200
0000
0000
0000
0000
0000
0000
0000
0300
0020
0000
0000
0000
0000
0000
,
0000
0030
1000
0000
0001
0000
0100
0000
0000
0000
0010
0000
0000
0000
0001
0000
,
0000
0010
0001
0010
0000
1000
0010
1000
,
0000
0100
0010
1000
0000
0001
0100
0010
,
0000
0000
0000
1000
0000
0000
0100
0000
0010
0000
0001
0000
0100
0000
1000
0000
0100
0000
0001
0000
0010
0000
0100
0000
,
1000
0100
0000
0001
0000
1000
0010
0100
,
0000
0001
0010
0001
0000
1000
0010
0100
,
0000
0001
0000
0010
0000
1000
0001
0100
,
0000
0010
1000
0001
0100
0010
0000
0000
,
0000
1000
0000
0001
0000
0100
0010
0001
,
0000
1000
0010
0100
0001
1000
0100
0000
,
0000
0010
1000
0001
0000
0100
0010
0001
,
0000
1000
0010
0100
0000
0000
0000
0000
,
0000
0001
0000
0010
0000
1000
0001
0100
,
0000
0010
0001
0010
0000
1000
0010
1000
,
0000
0100
0001
1000
0000
0010
0100
0001
,
0000
0010
0001
1000
0100
0010
1000
0001
,
0100
0010
0100
1000
0000
0001
0000
1000
,
0000
0010
0000
0001
0000
1000
0010
0100
,
0000
0001
0000
0010
0000
1000
0001
0100
,
0000
0010
1000
0001
0100
0020
0000
0000
,
0030
0001
1000
0010
0000
0001
0010
0001
,
0000
1000
0010
0100
0001
2000
0000
0000
,
3000
0010
0000
0100
0000
0001
1000
0010
,
0000
0100
0001
1000
0100
0010
0100
0001
,
1000
0020
0000
0000
0000
0000
0000
0000
,
0000
0000
0000
0000
,
0000
0000
0030
0000
;

//--------------- dance-single - KurumA-ESP ----------------
#NOTES:
     dance-single:
     KurumA:
     Hard:
     17:
     0,0,0,0,0:
0000
0000
0000
0000
,
0000
0000
0000
0000
,
0000
0000
0000
0000
,
0000
0000
0000
0000
,
0000
0000
0000
0000
,
0000
0000
0000
0000
,
0000
0000
0000
0000
,
0000
0000
0000
0000
,
0000
0000
0000
0000
,
0000
0000
0000
0000
,
0001
1000
0010
0100
0001
1000
0010
0100
,
0001
1000
0010
0100
0001
0000
0010
0000
,
0001
1000
0010
0100
0001
0000
1000
0000
,
0010
0001
1000
0010
0100
0001
1000
0000
,
0010
0000
0001
0000
0010
1000
0001
0000
,
0100
0010
1000
0001
0100
0000
0010
0000
,
0001
1000
0010
0100
0001
0000
1000
0000
,
0010
0000
0000
0001
0000
0000
0010
0000
0000
1000
0000
0000
0001
0000
0010
0100
0001
0000
1000
0000
0001
0100
0010
0000
,
1000
0001
0100
0010
1000
0000
0001
0000
,
0010
0001
1000
0000
0010
0100
0010
0000
,
0001
0010
0001
1000
0010
0100
0001
0000
,
1000
0010
0100
0001
1000
0000
0010
0000
,
0001
1000
0010
0100
0001
0000
0010
0000
,
0001
1000
0010
0100
0001
0000
1000
0000
,
0010
0100
0001
1000
0010
0100
0001
0010
,
0100
1000
0100
0010
0001
0010
0100
1000
0001
0100
0001
1000
0100
0010
0100
1000
,
0002
0000
0000
0000
0000
0003
0000
0000
1000
0000
0000
0000
0000
0000
0000
0000
0010
0000
0000
0000
0000
0000
0000
0000
0100
0000
0000
0000
0000
0000
0000
0000
0001
0000
0000
0000
0000
0000
0000
0000
1000
0000
0000
0000
0000
0000
0000
0000
0010
0000
0000
0000
0000
0000
0000
0000
0100
0000
0000
0000
0000
0000
0000
0000
,
0001
1000
0010
0001
1000
0010
0100
0001
,
1000
0100
0010
0000
0001
0000
0010
0000
1000
0000
0010
0000
0100
0000
0001
0000
,
1000
0000
0010
0000
0001
0000
1000
0000
0001
0000
0100
0000
0010
1000
0001
0100
,
0010
0001
0010
1000
0100
0001
0100
0010
,
1000
0100
0001
0000
1000
0000
0010
0000
0100
0000
0001
0000
1000
0000
0010
0001
,
1000
0001
0100
0010
1000
0001
0100
0010
,
0001
0000
1000
0000
0010
0000
0100
0000
0001
0000
1000
0001
0010
0100
2000
0000
,
0000
3000
0001
0000
1000
0000
0010
0000
0100
0000
0001
0000
1000
0000
0010
0000
,
1000
0001
0010
0001
0100
1000
0010
0100
,
0010
1000
0001
0000
1000
0000
0010
0000
0100
0000
0001
0000
1000
0000
0010
0000
,
0100
0000
0001
0000
1000
0000
0010
0000
0100
0000
0001
0000
0020
0000
0000
0030
,
0000
0010
1000
0001
0100
0010
1000
0001
,
0100
0010
1000
0001
0100
0010
2000
0000
,
3000
0100
0010
1000
0001
0100
0010
1000
,
0001
0000
0100
0010
0001
1000
0010
0100
0001
0100
0010
1000
0100
0010
0001
0010
,
0001
1000
0010
0000
0000
0000
0100
0000
0000
0000
0001
0000
0010
0000
0001
0000
,
0000
1000
0010
0000
0100
0001
1000
0010
,
0000
0100
0001
0000
1000
0010
0100
0001
,
0000
0010
0001
1000
0010
0100
0001
1000
,
0000
0010
0100
0001
1000
0010
0000
0100
,
0000
0001
0010
0001
0000
1000
0010
0100
,
0000
0001
1000
0010
0100
0001
0000
0010
,
0000
1000
0001
0100
0010
1000
0001
0010
,
1000
0000
0000
0010
0000
0100
0000
0001
0000
1000
0000
0010
0000
0100
0000
0010
0000
1000
0000
0100
0000
1000
0000
0100
,
0000
1000
0000
0001
0000
0010
0000
0100
0000
1000
0000
0100
0000
0010
0000
0100
0000
1000
0000
0010
0000
1000
0000
0100
,
0000
1000
0000
0001
0000
0100
0000
0001
0000
1000
0000
0010
0000
1000
0000
0001
0000
0100
0000
0010
0000
1000
0000
0010
,
0000
1000
0000
0001
0000
0010
0000
0001
0000
0100
0000
0001
0000
0100
0000
0010
0000
0100
0000
0001
0000
1000
0000
0001
,
0000
1000
0000
0010
0000
0000
1000
0000
0000
0001
0000
0000
1000
0000
0000
0001
0000
0000
0010
0000
0000
0001
0000
0000
,
0010
0100
1000
0100
0010
0100
0010
0001
,
0100
0000
0000
0010
0000
0100
0000
0001
0000
0010
0000
0001
0000
0100
0000
0001
0000
0100
0000
0010
0000
0100
0000
0001
,
0000
0000
0010
0000
0000
0000
0001
0000
0000
0000
1000
0000
0000
0000
0001
0000
0000
0000
1000
0000
0000
0000
0010
0000
0000
0000
1000
0000
0000
0000
0100
0000
0000
0010
0000
0000
0001
0000
0000
0100
0000
0000
0010
0000
0000
0100
0000
0000
,
0010
1000
0200
0000
0000
0000
0000
0000
0300
0000
0020
0000
0000
0000
0000
0000
,
0030
0001
1000
0010
0100
0001
1000
0010
,
0100
0001
1000
0010
0100
0001
1000
0010
,
0100
1000
0001
0000
1000
0000
0010
0000
0001
0000
0100
0000
0001
0000
1000
0000
,
0010
0000
0000
0100
0000
1000
0000
0010
0000
0100
0000
0010
0000
1000
0000
0001
0000
0100
0000
0010
0000
1000
0000
0010
,
0000
0100
0000
0010
0000
0000
1000
0000
0000
0001
0000
0000
0010
0000
0000
1000
0000
0000
0010
0000
0000
0100
0000
0000
,
0001
1000
0010
0100
0001
1000
0010
0001
,
0100
0001
1000
0000
0010
0000
0100
0000
0001
0000
1000
0000
0010
0000
0100
0000
,
1000
0000
0001
0100
0000
0010
0000
0001
0000
0100
1000
0001
0000
0100
0000
0010
,
0000
1000
0001
0000
0100
0000
0010
0000
1000
0000
0001
0000
0100
0000
0001
0000
,
0010
0000
1000
0000
0001
0000
1000
0001
0100
1000
0001
0010
2000
0000
0000
0000
,
3000
0001
1000
0010
0001
0100
0001
1000
,
0100
0000
0010
0000
0000
0001
0000
0100
0000
0001
0100
1000
0000
0100
0000
0010
,
0000
1000
0001
0000
1000
0000
0010
0000
0100
0000
0001
0000
0010
0000
1000
0000
,
0001
0010
0100
0001
0100
1000
0010
0100
,
0010
0001
1000
0010
0100
0001
1000
0010
,
0100
0000
0001
0000
1000
0000
0010
0000
0100
0000
0001
0000
0010
1000
0001
1000
,
0010
0100
0010
0000
0001
0000
0100
0000
1000
0000
0001
0000
1000
0000
0010
0000
,
0001
0100
0001
1000
0100
0020
0000
0000
,
0030
1000
0010
0100
1000
0001
0010
0100
,
1000
0001
0100
0020
0000
1000
0000
0001
,
0030
0010
0100
0001
0100
1000
0010
0100
,
0010
0000
0001
0000
1000
0000
0010
0000
0100
0000
0001
0000
0010
0000
0100
1000
,
0010
1000
0001
0000
0100
0000
0001
0000
0100
0000
1000
0000
0010
0000
0100
0000
,
0010
0000
0000
0000
0000
0000
0001
0000
0000
0000
1000
0000
0000
0000
0100
0000
0000
0000
0010
0000
0000
0000
0100
0000
0000
0000
1000
0000
0001
0000
0000
0000
0010
0000
0000
0000
0001
0000
0000
1000
0000
0000
0010
0000
0000
0100
0000
0000
,
0010
1000
0002
0000
0000
0000
0000
0000
0000
0000
0000
0000
0000
0000
0000
0000
,
0000
0000
0000
0000
,
0000
0000
0003
0000
;
