#TITLE:DEADLOCK (STARDOM Remix) (RGR-Special);
#ARTIST:RoughSketch;
#MUSIC:DEADLOCK (STARDOM Remix) (RGR-Special).ogg;
#BANNER:DEADLOCK (STARDOM Remix) (RGR-Special).png;
#BACKGROUND:DEADLOCK (STARDOM Remix) (RGR-Special)-bg.png;
#CDTITLE:./CDTitles/DANCERUSH STARDOM.png;
#SAMPLESTART:74.804;
#SAMPLELENGTH:15;
#OFFSET:-0.243;
#BPMS:0=119;
#BGSTAGE:28;
#BGCHANGES:3.500=DEADLOCK (STARDOM Remix) (RGR-Special).mp4=1.000=0=0=1,
99999.000=-nosongbg-=1.000=0=0=0=StretchNoLoop====;

//--------------- dance-single - XLev450X ----------------
#NOTES:
     dance-single:
     XLev450X:
     Challenge:
     15:
     0,0,0,0,0:
0000
0000
0000
0000
,
0000
0000
0000
0000
,
0000
0000
0000
0000
,
0000
0000
0000
0000
,
0000
0000
0000
0000
,
0100
0000
0010
0000
0001
1000
0000
0100
0001
0000
0100
0000
0001
0010
0000
1000
,
0010
0000
1000
0000
0001
0100
0000
0010
0001
0000
1000
0000
0010
0100
0000
0001
,
0010
1000
0100
1000
0010
1000
0100
0010
,
0001
0000
0000
1000
0000
0000
0010
0000
0000
0100
0000
0000
0001
0000
0000
1000
0000
0000
0001
0000
0000
0100
0000
0000
0020
0000
0000
0000
0000
0000
0000
0000
0000
0030
0000
0000
0000
0000
0000
1000
0100
0000
0001
0000
0000
0010
0000
0000
,
0100
0000
0010
1000
0001
0000
0100
0010
0000
0100
0010
0000
0100
0000
1000
0000
,
0100
0010
1000
0000
0001
0000
1000
0001
0000
1000
0010
0000
0100
0010
0001
0010
,
0100
0000
0010
0000
0001
0000
0010
0100
0000
0001
0010
0000
0100
0001
1000
0100
,
0010
0000
0001
0100
0010
0000
1000
0100
0010
0000
0001
0100
0001
1000
0010
0100
,
0002
0003
0100
0000
0010
0000
1000
0100
0000
0001
0000
1000
0001
0000
0010
0000
,
0100
0000
1000
0001
0100
0000
0010
1000
0000
0001
0100
0000
0100
0010
0100
0010
,
0001
0000
0100
0000
0010
0000
0100
1000
0000
0100
0010
0000
0100
0000
1000
0001
,
0100
0000
0000
0000
0000
0000
0001
0000
0000
0000
0000
0000
1000
0000
0000
0000
0000
0000
0100
0000
0000
0010
0000
0000
0001
0000
0000
0000
0000
0000
0100
0000
0000
1000
0000
0000
0010
0000
0000
0000
0000
0000
0100
0000
1000
0010
0100
0000
,
0001
0000
1000
0000
0100
0000
1000
0001
0000
0100
0010
0000
0001
0000
0100
0000
,
0010
0000
1000
0000
0001
0000
1000
0001
0000
0010
1000
0000
0010
0100
0001
0010
,
0100
0000
1000
0000
0100
0000
1000
0001
0000
1000
0100
0000
0001
0000
0010
0000
,
0001
0010
0100
1000
0100
0010
0001
0010
0001
1000
0100
0010
0100
0010
0100
1000
,
0020
0000
0000
0000
0030
0000
0001
0000
0100
1000
0010
0000
1000
0000
0001
0000
,
0100
0000
0000
0100
0000
0000
0010
0000
0100
0010
0001
0000
0010
1000
0100
0001
,
0100
0000
0010
0000
0001
0000
1000
0001
0000
0100
0010
0000
0100
0001
0010
1000
,
0010
0000
0000
0000
0000
0000
0000
0000
0000
1000
0000
0000
0000
0000
0000
0000
0000
0000
0001
0000
0000
0000
0000
0000
0010
0000
0000
0100
0000
0000
0001
0000
0000
0100
0000
0000
0010
0000
0000
1000
0000
0000
0001
0000
0010
1000
0001
0000
,
0200
0000
0000
0000
0000
0000
0000
0000
0000
0000
0000
0000
0000
0000
0000
0300
,
2000
0000
0000
0000
0000
0000
0000
0000
0000
0000
0000
0000
0000
0000
0000
3000
,
0002
0000
0000
0000
0000
0000
0000
0000
0000
0000
0000
0000
0000
0000
0000
0003
,
0020
0000
0000
0000
0000
0000
0000
0000
0000
0000
0000
0000
0000
0000
0000
0030
,
2000
0000
0000
0000
0010
0000
0000
0000
0000
0000
0000
0000
0001
0000
0000
3000
,
0020
0000
0000
0000
1000
0000
0000
0000
0000
0000
0000
0000
0001
0000
0000
0030
,
0200
0000
0000
0000
0010
0000
0000
0000
0000
0000
0000
0000
1000
0000
0000
0300
,
0002
0000
0000
0000
0010
0000
0000
0000
0000
0000
0000
0000
1000
0000
0000
0003
,
0100
0000
0010
0000
0001
0010
0000
0001
0100
0000
1000
0000
0010
1000
0000
0100
,
0001
0000
1000
0000
0010
0100
0000
1000
0001
0000
0100
0000
0020
0000
0030
0100
,
0001
0000
0100
0000
0010
0000
1000
0100
0001
0000
0100
0000
0010
1000
0100
0000
,
0001
0000
0000
0010
0000
0000
0100
0000
0000
0010
0000
0000
0100
0000
0000
1000
0000
0000
0001
0000
0000
0100
0000
0000
0020
0000
0000
0000
0000
0000
0000
0000
0000
0030
0000
0000
0000
0000
0000
0010
0001
0000
0100
0000
0000
1000
0000
0000
,
0001
0000
0000
0010
0000
0000
0100
0000
0000
1000
0000
0000
0100
1000
0001
0010
,
1000
0000
0000
0100
0000
0000
0010
0000
0100
0010
0000
0010
0100
1000
0100
0010
,
0001
0000
0000
1000
0000
0000
0001
0000
0000
0100
0000
0000
0010
0100
0001
0100
,
0010
0000
0000
1000
0000
0000
0001
0000
0100
0001
0000
0010
0001
0100
0010
1000
,
0200
0300
0010
0000
0001
1000
0001
0000
0010
1000
0010
0000
0001
0100
0001
1000
,
0001
0100
0010
0000
0010
0100
0001
0000
0100
1000
0000
0100
0001
1000
0001
0100
,
0001
0000
0100
0010
0100
0000
0100
1000
0010
0000
0001
0100
0001
0000
0010
1000
,
0100
0010
0100
0000
0001
0100
0010
0000
0001
1000
0010
0100
0010
1000
0001
1000
,
0100
0000
0000
0000
0000
0000
1000
0000
0000
0000
0000
0000
0100
0000
0000
0000
0000
0000
0010
0000
0000
0001
0000
0000
0100
0000
0000
0000
0000
0000
1000
0000
0000
0000
0000
0000
0010
0000
0000
0000
0000
0000
0010
0000
0001
0100
1000
0000
,
0001
0000
0010
0000
0100
0000
0010
0100
0000
0001
1000
0000
0100
0000
0010
0000
,
0100
0000
0010
0000
0001
0000
1000
0010
0000
1000
0010
0000
0001
0100
0010
1000
,
0010
0000
1000
0000
0010
0000
0100
0010
0000
0001
0010
0000
0100
1000
0010
0001
,
0010
0000
0100
0000
0001
0000
0010
0000
0001
0010
0100
1000
0001
0010
0100
0010
,
0200
0300
0010
0000
0001
0000
0100
0010
0000
0100
0000
1000
0010
0000
0100
0000
,
0001
0000
0100
0000
0001
0000
0100
0001
0000
0100
1000
0000
0100
0010
0001
0010
,
0100
0000
1000
0000
0010
0000
1000
0100
0000
0001
1000
0000
0010
0001
0100
0010
,
1000
0000
0000
0000
0000
0000
0000
0000
0000
0010
0000
0000
0000
0000
0000
0000
0000
0000
0100
0000
0000
0000
0000
0000
0001
0000
0000
0010
0000
0000
0001
0000
0000
0010
0000
0000
0100
0000
0000
1000
0000
0000
0100
0000
1000
0010
0001
0000
,
0100
0000
0000
1001
0000
0000
0000
0000
0000
0000
0000
0000
0000
0000
0000
0000
;
