#TITLE:DDDaR;
#ARTIST:DJ.DAI feat. Nofia;
#MUSIC:DDDaR.ogg;
#BANNER:DDDaR.png;
#BACKGROUND:DDDaR-bg.png;
#CDTITLE:./CDTitles/DANCE aROUND.png;
#SAMPLESTART:11.98;
#SAMPLELENGTH:15;
#OFFSET:0.020;
#BPMS:0=100;
#BGSTAGE:4;

//--------------- dance-single - XLev450X-bSP ----------------
#NOTES:
     dance-single:
     XLev450X:
     Beginner:
     2:
     0,0,0,0,0:
0000
0000
0000
0000
,
0000
0000
0000
0000
,
0000
0000
0000
0000
,
0000
0000
0000
0000
,
0000
0000
0000
0000
,
0000
0000
0000
0000
,
0000
0000
0000
0000
,
0000
0000
0000
0000
,
0000
0000
0000
0000
,
0001
0000
1000
0000
,
0010
0000
0100
0000
,
0001
0000
1000
0000
,
0001
0000
0010
0000
,
1000
0000
0010
0000
,
0100
0000
0001
0000
,
1000
0000
0001
0000
,
0010
0000
0100
0000
,
0001
0001
0001
0000
,
1000
1000
1000
0000
,
0010
0100
0010
0000
,
0001
1000
0001
0000
,
0000
0010
0100
0000
,
0001
1000
0010
0000
,
1000
0001
0100
0000
,
1000
0001
1000
0001
,
0010
0000
0100
0001
,
1000
0000
0010
0100
,
0001
0000
1000
0001
,
0010
0000
0100
0001
,
1000
0000
0010
1000
,
0100
0000
0001
0010
,
0100
0000
1000
0010
,
0100
0001
1000
0000
,
0001
0001
0001
0000
,
1000
0010
0100
0000
,
0001
1000
0010
0000
,
0100
0010
0100
0010
,
1000
0001
0100
0000
,
1000
0010
0100
0000
,
0001
1000
0010
0100
,
2002
0000
0000
0000
,
3003
0000
0000
0000
;

//--------------- dance-single - XLev450X-BSP ----------------
#NOTES:
     dance-single:
     XLev450X:
     Easy:
     5:
     0,0,0,0,0:
0000
0000
0000
0000
,
0000
0000
0000
0000
,
0000
0000
0000
0000
,
0000
0000
0000
0000
,
0000
0000
0000
0000
,
1000
0001
0010
0100
,
1000
0001
0010
0000
,
1000
0010
0100
0010
,
0001
0001
1000
1000
0001
1000
1001
0000
,
0001
1000
0001
0000
,
1000
0010
0100
0000
,
0001
0010
0001
0100
,
1000
0100
1000
0000
,
0001
1000
0100
0001
,
0010
0100
0001
1000
,
0010
0100
0001
1000
,
0010
0001
0100
0000
0010
0100
1000
0000
,
0001
1000
0001
0000
,
1000
0010
0100
0000
,
0001
0010
1000
0001
,
1000
1000
0001
0000
0010
0010
0100
0000
,
0001
1000
0010
1000
,
0001
0100
0010
1000
,
0010
0100
0001
0010
,
0001
0001
1000
1000
0001
0001
1000
0000
,
0001
1000
0010
0100
,
0001
1000
0010
0000
,
1000
0001
0100
0001
,
0010
0100
1000
0010
,
0000
1000
0001
1000
,
0010
0100
0001
0000
,
1000
0010
0100
0010
,
0001
0001
1000
1000
0010
0100
0001
0000
,
1000
0001
0100
0010
,
1000
0001
0010
0000
,
1000
0001
0100
0010
,
0001
1000
0001
0000
,
0100
0001
1000
0010
,
0100
0010
1000
0000
,
0001
0001
1000
1000
0010
0100
0010
0100
,
2002
0000
0000
0000
,
3003
0000
0000
0000
;

//--------------- dance-single - XLev450X-DSP ----------------
#NOTES:
     dance-single:
     XLev450X:
     Medium:
     8:
     0,0,0,0,0:
0000
0000
0000
0000
,
0000
0000
0000
0000
,
0000
0000
0000
0000
,
0000
0000
0000
0000
,
0000
0000
0000
0000
,
1000
0001
0100
0000
0010
0000
1000
0000
,
1000
0010
0100
0000
0001
0000
0010
0000
,
0001
1000
0010
0000
0100
0001
1000
0010
,
1000
0000
0000
0010
0000
0001
0100
0000
0000
0100
0000
1000
0010
0000
0000
0100
0000
0020
0000
0000
0030
1000
0000
0100
,
0001
0000
1000
0000
0001
0100
0010
0000
,
0001
0000
0000
0000
0000
0000
1000
0000
0000
0000
0000
0000
0001
0000
0000
0100
0000
0000
0020
0000
0000
0000
0030
0000
,
1000
0000
0001
0010
1000
0000
0001
0000
,
0100
0001
1000
0000
0010
0000
0001
0000
,
0010
0001
0010
0000
1000
0010
1000
0000
,
0100
0001
1000
0010
0100
0000
0001
0000
,
1000
0001
0100
0000
0010
0001
1000
0000
,
0010
0100
0001
1000
0010
0000
2002
3003
,
0001
1000
0010
0000
0100
0001
1000
0000
,
0010
0001
0010
0000
1000
0001
0100
0010
,
1000
0000
0001
0000
0010
0001
0010
0000
,
1000
0101
0000
1010
0000
0110
1001
0000
,
0001
0010
1000
0000
0010
0100
0001
0000
,
1000
0000
0010
0000
1000
0001
0100
0000
,
0010
0001
1000
0000
0010
0100
0001
1000
,
0010
0000
0000
1000
0000
0001
0000
0000
0000
0100
0000
0010
0000
0000
0000
1000
0000
0001
0100
0000
0000
0000
0000
0000
,
1000
0000
0001
0000
0010
0001
1000
0010
,
0100
0000
0001
0000
0010
0001
1000
0010
,
0100
0000
0001
0000
1000
0010
0100
0001
,
0010
0000
1000
0000
0001
0100
0010
1000
,
0000
0000
0001
0000
1000
0010
0100
0000
,
0010
0001
0010
0000
1000
0010
0100
0000
,
0001
1000
0010
0100
0001
1000
0010
0100
,
0001
0000
0000
1000
0000
0010
0100
0000
0000
0010
0000
1000
0001
0000
0000
0100
0000
0020
0000
0000
0000
0000
0030
0000
,
0001
0010
1000
0000
0001
0010
1000
0100
,
0010
0000
0001
0000
1000
0010
0100
0001
,
0010
0000
1000
0000
0010
0100
0001
0010
,
1000
0101
0000
1010
0000
0110
1001
0000
,
0001
0010
1000
0000
0010
0100
0001
1000
,
0010
0000
0100
0000
0001
1000
0010
0100
,
1000
0000
0000
0010
0000
0001
0100
0000
0000
0100
0000
1000
0010
0000
0000
0100
0000
0010
1000
0000
0001
1000
0000
0100
,
0020
0000
0000
0000
,
0030
0000
0000
0000
;

//--------------- dance-single - XLev450X-ESP ----------------
#NOTES:
     dance-single:
     XLev450X:
     Hard:
     12:
     0,0,0,0,0:
0000
0000
0000
0000
,
0000
0000
0000
0000
,
0000
0000
0000
0000
,
0000
0000
0000
0000
,
0000
0000
0000
0000
,
0001
0000
1000
0000
0010
0000
0000
0100
0000
0000
0001
0000
0010
0100
1000
0000
,
0001
0100
0010
1000
0001
0000
0100
0000
,
0010
0000
0001
0000
1000
0000
0100
0000
0010
0000
0100
0000
0001
0010
1000
0010
,
0100
0000
0000
0000
0000
0000
0010
0000
1000
0000
0001
0000
0100
0000
0000
0000
0000
0000
0100
0000
0001
0000
1000
0000
0010
0000
0000
0000
0001
0000
0100
0000
0000
0000
0020
0000
0000
0000
0000
0030
0000
0000
1000
0000
0000
0001
0000
0000
,
0100
0000
1000
0001
0000
0000
1000
0001
0100
0001
0010
0000
0100
0001
0000
1000
,
0000
0000
0010
0100
0000
0001
0000
0000
1000
0000
0001
0000
0100
0000
0000
0010
,
0000
0100
1000
0001
0010
0000
0000
0001
1000
0000
0010
0000
0100
0000
0001
1000
,
0010
0000
0001
0100
0000
0000
0001
0100
1000
0100
0010
0001
0200
0000
0300
0000
,
0001
0000
1000
0010
0000
0000
0100
0000
0001
1000
0000
0000
0010
0100
0000
0001
,
0000
0100
1000
0001
0010
0000
1000
0100
0001
0010
1000
0100
0010
0100
0000
0001
,
0000
1000
0010
0000
0100
0000
0001
0100
1000
0000
0010
1000
0100
0010
0001
0000
,
1000
0000
0010
0100
0002
0000
0003
0000
1000
0001
0100
0010
2000
0000
3000
0000
,
0001
0000
1000
0010
0100
0000
0000
0001
0010
0000
1000
0000
0010
0100
0000
0000
,
0001
0000
1000
0010
0100
0000
0000
0010
0001
0000
1000
0000
0010
0100
0001
0000
,
1000
0000
0010
0100
0001
0000
0000
1000
0010
0000
0100
0000
0001
1000
0010
0000
,
0100
0000
1001
0000
0000
0000
0101
0000
0000
0000
1010
0000
0001
1000
0000
0000
,
0001
0000
1000
0010
0100
0000
0000
0001
1000
0000
0010
0000
0001
0100
0000
0000
,
1000
0000
0010
0100
0001
0000
0000
0010
0001
0000
1000
0000
0010
0100
0000
0000
,
0001
0000
1000
0010
0100
0000
0000
0001
1000
0000
0010
0000
0100
0001
1000
0000
,
0100
0000
0000
1001
0000
0000
0100
0000
0000
1001
0000
0010
0100
0000
0000
1001
0000
0000
0220
0000
0000
0330
0000
0000
,
0001
0000
1000
0000
0010
0000
0000
0100
0000
0000
0001
0000
1000
0000
0010
0000
,
0100
0000
0001
1000
0010
0000
0100
0000
0010
0000
0000
0000
0001
0000
0000
0000
,
1000
0000
0010
0100
0001
0000
1000
0000
0001
0100
0001
0000
1000
0001
0000
0000
,
0010
1000
0001
0100
0001
0000
0010
0000
1000
0000
0010
0100
0001
0000
0000
0000
,
2002
0000
3003
0000
0010
0000
0000
0000
0100
0000
0001
0000
1000
0010
0000
0000
,
0100
0000
0001
1000
0010
0000
0100
0000
0001
0000
0000
0000
1000
0000
0000
0000
,
0010
0000
0100
0001
1000
0000
0010
0000
0100
0000
1000
0001
0100
0000
0010
0000
,
0100
0000
0000
0010
0000
0000
0001
0000
1000
0000
0010
0000
0100
0000
0000
0010
0000
0000
0100
0000
0001
0000
1000
0000
0010
0000
0000
0000
0001
0000
0100
0000
0000
0000
0020
0000
0000
0000
0000
0000
0000
0000
0000
0000
0030
0000
0000
0000
,
1000
0000
0001
0100
0010
0000
0000
0001
0100
1000
0010
0000
0100
0001
0000
1000
,
0010
0000
0100
0000
0001
0000
0000
1000
0010
0000
0100
0000
0001
1000
0000
0010
,
0100
0000
0001
0000
1000
0000
0000
0010
0100
0001
1000
0000
0010
0100
0000
0000
,
0010
0000
1001
0000
0000
0000
0101
0000
0000
0000
1001
0000
0001
1000
0000
0100
,
0001
0000
1000
0010
0100
0000
0000
0001
1000
0000
0010
0000
0100
0001
0000
0100
,
1000
0000
0001
0100
0010
0000
0000
0100
1000
0001
0100
0000
0010
0000
0001
0100
,
1000
0000
0000
0001
0100
0010
1000
0000
0000
0001
1000
0100
0010
0000
0000
0001
0100
1000
0010
0000
0001
1000
0000
0001
,
0020
1000
0000
0001
0000
1000
0002
0000
,
0033
0000
0000
0000
;
