#TITLE:DANCERUSH STARDOM ANTHEM (RGR-Special);
#ARTIST:kors k feat.福島蘭世;
#ARTISTTRANSLIT:kors k feat. Ranze Fukushima;
#GENRE:EDM;
#BANNER:DANCERUSH STARDOM ANTHEM (RGR-Special).png;
#BACKGROUND:DANCERUSH STARDOM ANTHEM (RGR-Special)-bg.png;
#CDTITLE:./CDTitles/DANCERUSH STARDOM.png;
#MUSIC:DANCERUSH STARDOM ANTHEM (RGR-Special).ogg;
#SAMPLESTART:8.891;
#SAMPLELENGTH:15;
#BPMS:0=130;
#BGSTAGE:4;
#BGCHANGES:2=DANCERUSH STARDOM ANTHEM (RGR-Special).avi=1.000=0=0=1=====,
99999=-nosongbg-=1.000=0=0=0 // don't automatically add -songbackground-;

//---------------dance-single - XLev450X ----------------
#NOTES:
     dance-single:
     XLev450X:
     Challenge:
     15:
     0,0,0,0,0:
// measure 0
0000
0000
0000
0000
,  // measure 1
0000
0000
0000
0000
,  // measure 2
0000
0000
0000
0000
,  // measure 3
0000
0000
0000
0000
,  // measure 4
0001
0000
0000
0000
0000
0000
0000
0000
0000
1000
0000
0000
0000
0000
0000
0000
0000
0000
0010
0000
0000
0000
0000
0000
0100
0000
0000
0000
0001
0000
0000
0000
1000
0000
0000
0000
0010
0000
0000
0000
0000
0000
0000
0000
0000
0000
0000
0000
,  // measure 5
0001
0000
1000
0000
0010
0000
0000
0100
0000
0000
0001
0000
1000
0000
0000
0000
,  // measure 6
0010
0000
0100
0000
0001
0000
0000
0010
0000
0000
0100
0000
0001
0000
0000
0000
,  // measure 7
0010
0000
1000
0000
0001
0000
0000
0100
0000
0000
0010
0000
1000
0000
0000
0000
,  // measure 8
0001
0000
0010
0000
0100
0000
0000
0001
0000
0000
1000
0000
0010
0000
0000
0000
,  // measure 9
0001
0000
1000
0000
0010
0000
0000
0000
0100
0000
0001
0000
1000
0001
0100
0001
,  // measure 10
0010
0000
0100
0000
0001
0000
0000
0000
1000
0000
0010
0000
0100
1000
0010
0100
,  // measure 11
0001
1000
0010
0100
0001
1000
0010
0100
,  // measure 12
0010
1000
0010
0100
0001
1000
0001
0010
0100
0010
0100
0010
0001
0100
0001
0100
,  // measure 13
0002
0003
2020
3030
0010
0100
2002
3003
,  // measure 14
0010
0100
1000
0000
0001
0000
0100
0000
1000
0000
0010
0000
0001
0000
1000
0000
,  // measure 15
0001
1000
0010
0000
0100
0000
0001
0000
1000
0001
0010
0000
0100
1000
0010
0100
,  // measure 16
0001
0000
0000
0000
1000
0000
0000
0010
0000
0000
0100
0000
0000
0001
0000
0000
,  // measure 17
0100
0000
0000
0001
0000
0000
1000
0000
0010
0100
0000
0000
0001
0000
0000
0000
0000
0000
0000
0000
0000
0010
0000
0000
0000
0000
0000
0000
0000
0000
0100
0000
0000
0020
0000
0000
0000
0000
0000
0030
0000
0000
0001
0000
0000
0000
0000
0000
,  // measure 18
1000
0000
0010
0100
0001
1000
0010
0100
,  // measure 19
0001
0000
0000
0000
0010
0000
1000
0000
0000
0000
0000
0000
0100
0000
0000
0000
0000
0000
0001
0000
0000
0000
0000
0000
1000
0000
0000
0010
0000
0000
0100
0000
0001
0000
0000
0000
0010
0000
0000
0000
0000
0000
1000
0000
0000
0000
0000
0000
,  // measure 20
0010
0000
0000
0000
0100
0000
0000
0001
0000
0000
1000
0000
0000
0010
0000
0000
,  // measure 21
0100
0000
0001
0000
1000
0000
0000
0202
0000
0303
0000
0000
0001
1000
0010
0001
,  // measure 22
1000
0000
0010
1000
0010
0100
0001
1000
,  // measure 23
0010
0001
0100
0000
0001
0000
1000
0000
0010
0000
0100
0010
0001
0000
0010
0000
,  // measure 24
0100
0000
0010
0100
0001
0000
0000
1000
0000
0000
0010
0000
0000
0100
0000
0000
,  // measure 25
0001
0000
1000
0010
0001
0000
0000
0100
0000
0000
0001
0000
1000
0010
0100
0001
,  // measure 26
1000
0000
0000
0000
0100
0010
0001
0000
1000
0000
0010
0000
0100
0000
0001
0000
,  // measure 27
1000
0000
0000
0001
0000
0000
0010
0000
0000
0000
0000
0000
0100
0000
0000
0000
0000
0000
0001
0000
0000
0000
0000
0000
1000
0000
0000
0100
0000
0000
0010
0000
0000
0001
0000
0000
0100
0000
0000
0000
0001
0000
0000
0000
0100
0000
0000
0000
,  // measure 28
0001
0000
0100
1000
0001
0000
1000
0001
0010
0000
0100
1000
0001
0000
1000
0000
,  // measure 29
0010
0000
0100
0000
1000
0000
0000
0010
0000
0000
0000
0000
0001
0000
1000
0000
,  // measure 30
0010
0000
0200
0000
0000
0300
0001
1000
,  // measure 31
0010
0000
0100
0000
0001
0000
0000
1000
0000
0000
0000
0000
0010
0000
0100
0000
,  // measure 32
0001
0000
0100
0000
1000
0000
0000
0010
0000
0000
0100
0000
0001
0000
0000
0000
,  // measure 33
0010
0000
1000
0001
0100
0000
0010
1000
0001
0000
0000
0000
0001
0000
0100
0000
,  // measure 34
0010
0000
0000
0000
1000
0000
0000
0001
0000
0000
0100
0000
0010
0000
1000
0000
,  // measure 35
0001
0000
0000
0000
0100
0000
0000
0001
0000
0000
1000
0000
0001
0000
0100
0000
,  // measure 36
0010
0000
0000
0000
1000
0000
0000
0001
0000
0000
0100
0000
0010
0000
1000
0000
,  // measure 37
0101
0000
1010
0000
0110
1001
1010
0000
,  // measure 38
0010
0000
1000
0000
0001
0000
0000
0100
0000
0000
0000
0000
0010
0000
1000
0000
,  // measure 39
0001
0000
0010
0000
0100
0000
0000
0001
0000
0000
1000
0000
0010
0000
0100
0000
,  // measure 40
0001
0000
0000
0000
1000
0000
0000
0010
0000
0000
0100
0000
0001
0000
1000
0000
,  // measure 41
0010
0000
0100
0001
1000
0000
0010
0100
0000
0000
0001
0000
1000
0000
0000
0000
,  // measure 42
0101
0000
1010
0000
,  // measure 43
0010
0100
0001
0100
0001
0010
0001
1000
,  // measure 44
0001
0010
0001
1000
0100
0010
0001
0100
0010
0100
0010
1000
0001
0100
0010
1000
,  // measure 45
0001
0000
0000
0000
0000
0000
0000
0000
0000
1000
0000
0000
0000
0000
0000
0000
0000
0000
0010
0000
0000
0000
0000
0000
0100
0000
0000
0000
0001
0000
0000
0000
1000
0000
0000
0000
0010
0000
0000
0000
0000
0000
0100
0000
0000
0000
0000
0000
,  // measure 46
0001
0000
1000
0000
0010
0000
0100
0000
0001
1000
0010
0000
0100
0000
0001
0000
,  // measure 47
0000
0010
1000
0000
0001
0000
0100
0010
0000
1000
0001
0010
0100
0010
1000
0100
,  // measure 48
0001
0000
0010
1000
0000
0000
0010
0000
0001
0100
0000
0000
0001
0000
1000
0010
0000
0000
0100
0000
0000
0001
0000
0000
,  // measure 49
0010
0000
1000
0001
0000
0000
1000
0000
0001
0010
0000
0000
2002
0000
0000
0000
0000
0000
0000
0000
0000
3003
0000
0000
,  // measure 50
0010
0000
1000
0000
0001
0000
0100
0000
0010
1000
0001
0000
0100
0000
0010
0000
,  // measure 51
0000
1000
0001
0000
0100
0000
0010
1000
0000
0001
0100
0000
0010
0100
0001
0010
,  // measure 52
0001
0000
0000
0000
0000
0000
1000
0000
0000
0010
0000
0000
0001
0000
0000
0000
0000
0000
0001
0000
0000
0000
0000
0000
1000
0000
0000
0000
0100
0000
0000
0000
0000
0010
0000
0000
0000
0000
0000
0000
0000
0000
0100
0000
0000
0000
0000
0000
,  // measure 53
0001
0000
0000
0000
1000
0000
0000
0001
0100
0000
0001
0000
1000
0000
0000
0000
,  // measure 54
0001
0000
0000
0000
0000
0000
1000
0000
0000
0010
0000
0000
0100
0000
1000
0001
0000
0000
1000
0000
0000
0010
0000
0000
,  // measure 55
0100
0000
0001
1000
0000
0000
0010
0000
0000
0100
0000
0000
0001
0000
0100
1000
0000
0000
0010
0000
0000
0100
0000
0000
,  // measure 56
0001
0000
1000
0001
0100
0000
0001
1000
0010
0000
0001
0100
1000
0000
0001
0010
,  // measure 57
0100
0000
0100
0001
1000
0000
0010
0100
0002
0000
0010
0000
1000
0000
0013
0000
,  // measure 58
1000
0000
0000
0010
0000
0000
0100
0000
1000
0001
0000
0000
1000
0000
0000
0010
0000
0000
0100
0000
0000
0001
0000
0000
,  // measure 59
1000
0000
0000
0000
0100
0000
0010
0000
0000
0000
0000
0000
0001
0000
0000
0000
0000
0000
1000
0000
0000
0010
0000
0000
0100
0000
0000
0001
0000
0000
1000
0000
0000
0020
0000
0000
0000
0000
0000
0030
0000
0000
1000
0000
0000
0000
0000
0000
,  // measure 60
0100
0000
0001
0000
1000
0000
0010
0100
0010
0000
0001
1000
0100
0000
0001
0000
,  // measure 61
0100
0000
0001
0000
1000
0000
0000
0010
0000
0000
1000
0001
0100
0010
1000
0010
,  // measure 62
0001
0000
0000
0000
0000
0000
0000
0000
1000
0000
0000
0000
0000
0000
0000
0000
0010
0000
0000
0000
0000
0000
0000
0001
1000
0000
0000
0000
0100
0000
0000
0000
0000
0000
0000
0000
0000
0000
0000
0000
0000
0000
0000
0000
0000
0000
0000
0000
0000
0000
0000
0000
0000
0000
0000
0000
0001
0000
0000
0000
0000
0000
0000
0000
,  // measure 63
1000
0000
0010
0000
0100
0000
0000
2002
0000
0000
0000
0000
0000
0000
0000
0000
,  // measure 64
0000
0000
0000
0000
,  // measure 65
3003
0000
0000
0000
;
