#TITLE:Cypher Gate (RD Mix);
#ARTIST:7 Sequence;
#GENRE:Hi-Break Core;
#MUSIC:Cypher Gate (RD Mix).ogg;
#BANNER:Cypher Gate (RD Mix).png;
#BACKGROUND:Cypher Gate (RD Mix)-bg.png;
#SAMPLESTART:16.200;
#SAMPLELENGTH:15;
#OFFSET:-0.200;
#BPMS:0=150;

//--------------- dance-single - XLev450X -未来--bSP ----------------
#NOTES:
     dance-single:
     XLev450X -未来-:
     Beginner:
     3:
     0,0,0,0,0:
0000
0000
0000
0000
,
0000
0000
0000
0000
,
1000
0000
0001
0000
,
0100
0000
0000
0000
,
0010
0000
1000
0000
,
0100
0000
0000
0000
,
0010
0000
0001
0000
,
1000
0000
0000
0000
,
0100
0000
0010
0000
,
0100
0000
0000
0000
,
0001
0001
0001
0000
,
1000
0000
0000
0000
,
1000
1000
1000
0000
,
0001
0000
0000
0000
,
0010
0010
0010
0000
,
0100
0000
0000
0000
,
0100
0100
0100
0000
,
0010
0000
0000
0000
,
0010
0001
0010
0000
,
1000
0100
1000
0000
,
0010
0100
0010
0000
,
1000
0001
1000
0000
,
0001
0000
0100
0000
,
0001
0000
0000
0000
,
1000
0000
0010
0000
,
1000
0000
0000
0000
,
0010
0000
0000
0000
,
0100
0000
0000
0000
,
1000
0000
0000
0000
,
0001
0000
0000
0000
,
0001
0001
0000
0000
,
1000
1000
0000
0000
,
0100
0100
0000
0000
,
0010
0010
0000
0000
,
1001
0000
0000
0000
,
0000
0000
0000
0000
,
0110
0000
0000
0000
,
0000
0000
0000
0000
,
0011
0000
0000
0000
,
1100
0000
0000
0000
,
0110
0000
0000
0000
,
1001
0000
0000
0000
,
1001
0000
0000
0000
,
0000
0000
0000
0000
,
1000
0000
1000
0000
,
1000
0000
0000
0000
,
0001
0000
0001
0000
,
0001
0000
0000
0000
,
0010
0000
1000
0000
,
0010
0000
0000
0000
,
0100
0000
0001
0000
,
0100
0000
0000
0000
,
0010
0000
1000
0000
,
0001
0000
0100
0000
,
0010
0000
1000
0000
,
0001
0000
0000
0000
,
1000
0000
0000
0000
,
0001
0000
0000
0000
,
1000
0000
0001
0000
,
0100
0000
0010
0000
,
0110
0000
0000
0000
,
1001
0000
0000
0000
;

//--------------- dance-single - XLev450X -未来--BSP ----------------
#NOTES:
     dance-single:
     XLev450X -未来-:
     Easy:
     6:
     0,0,0,0,0:
0000
0000
0000
0000
,
0000
0000
0000
0000
,
1000
0001
0100
0010
,
1000
0010
0001
1000
,
0010
0000
1000
0000
0010
0001
0010
0000
,
1000
0100
0010
0000
,
1000
0001
1000
0000
,
0100
1000
0010
0000
,
0100
0000
0010
0000
1000
0001
0100
0000
,
0010
1000
0010
0000
,
0100
0001
1000
0001
,
0101
0000
1010
0000
,
0010
0000
1000
0000
0001
0100
0001
0000
,
1000
0000
0010
0000
,
0100
1000
0100
0001
,
1000
0000
0101
0000
,
0010
0000
1000
0000
0010
0001
0010
0000
,
1000
0001
0100
0000
,
1000
0000
0010
0000
0100
0010
0100
0000
,
0001
0000
0010
0000
0001
0010
0001
0000
,
1000
0000
0010
0000
1000
0100
1000
0000
,
0010
0100
0010
0000
,
1000
0000
0001
0000
0100
0000
0001
1000
,
0000
0010
0100
1000
,
0001
0100
0010
0000
,
1000
0001
0100
0000
,
0101
0000
0000
0000
,
1010
0000
0000
0000
,
1100
0000
0000
0000
,
0011
0000
0000
0000
,
1000
1000
1000
0000
,
0001
0001
0001
0000
,
1000
0100
1000
0010
,
0100
0001
1000
0000
,
0101
0000
1010
0000
,
0010
0100
0001
0000
,
1100
0000
0011
0000
,
1000
0010
0100
0000
,
0101
0000
1010
0000
,
0110
0000
1001
0000
,
0001
1000
0010
1000
,
0010
0001
0010
0000
1000
0100
1000
0000
,
1001
0000
0000
0000
,
0100
0100
0100
0100
,
0001
0000
1000
0000
0010
0100
0010
0000
,
1000
0000
0001
0000
0010
0001
0010
0000
,
1000
0000
0010
0000
0100
0001
1000
0000
,
0010
1000
0001
0100
,
0010
0001
0010
0000
1000
0000
0010
0000
,
1000
0010
1000
0000
0100
0000
0001
0000
,
1000
0001
1000
0000
0100
0001
0100
0000
,
0010
1000
0100
0000
,
0001
1000
0001
1000
,
0000
0010
1000
0001
,
0010
0100
0000
0000
0010
0000
1000
0001
,
0000
0100
0010
0000
0100
0000
0001
1000
,
0000
0010
1000
0001
,
0000
0100
0001
1000
,
0010
1000
0001
0100
,
0010
0001
0010
0000
1000
0010
1000
0000
,
2002
0000
0000
3003
,
0220
0000
0000
0330
;

//--------------- dance-single - XLev450X -未来--DSP ----------------
#NOTES:
     dance-single:
     XLev450X -未来-:
     Medium:
     11:
     0,0,0,0,0:
0000
0000
0000
0000
,
0000
0000
0000
0000
,
1000
0000
0001
0000
0100
0000
0000
0010
0000
0000
1000
0000
0001
0000
0000
0000
,
0010
0001
0010
0000
1000
0010
0100
0000
,
0001
0000
1000
0000
0010
0000
0010
0000
0100
0001
1000
0000
0010
0000
0100
0000
,
0001
0000
0000
1000
0000
0000
0010
0000
1000
0001
1000
0000
0010
0001
0000
1000
,
0010
0000
1000
0000
0010
0001
0010
0000
,
1000
0001
0100
0010
1000
0001
0100
0000
,
0010
0001
0010
0000
1001
0000
0101
0000
,
0010
0000
1000
0000
0001
0100
0010
0000
,
0101
0000
1010
0000
0010
0100
0001
1000
,
0001
0000
0000
1000
0000
0000
0001
0000
0000
0100
0000
0000
0010
0000
0001
0000
,
1000
0000
0010
0000
0100
0001
1000
0010
,
0100
0000
0001
0000
1000
0010
0001
1000
,
0010
0000
0100
0000
1000
0001
0100
0010
,
1000
0000
0000
0001
0000
0000
0100
0000
0000
0010
0000
0000
1000
0000
0001
0000
,
0100
0101
1010
0010
,
0100
0001
1000
0010
0100
0001
0000
0000
,
0010
0000
1000
0000
0001
0100
1000
0000
,
0001
0000
0100
0000
0010
0001
0010
1000
,
0010
0000
0100
0000
1000
0001
0100
0000
,
0010
0000
0001
0000
1000
0000
0010
0000
0100
0000
0000
0001
0000
0000
1000
0000
,
0010
0000
0000
0000
1000
0000
0001
0000
0010
0000
0100
0000
0010
0100
0010
0000
,
0000
0001
1000
0010
0100
0000
0001
0000
,
1000
0001
0100
0000
0010
1000
0010
0000
,
0100
0000
0001
0000
1000
0010
0001
1000
,
0010
0000
0100
0001
0000
0000
1000
0000
,
0010
0000
1000
0001
0000
0000
0100
0000
,
0010
0000
1000
0010
0000
0000
0001
0000
,
1000
0000
0001
0100
0000
0000
0010
0000
,
1000
0000
0010
0000
1000
0000
0001
0100
,
0001
0000
0010
0000
1000
0000
0010
0100
,
0001
0000
1000
0000
0010
0000
1000
0001
,
0100
0010
1000
0001
,
1000
0000
0010
1000
,
0001
0000
0000
0000
0100
0000
0000
0000
0010
0000
0000
1000
0000
0000
0001
0000
,
0100
0000
0001
0000
1000
0010
1000
0000
,
0001
0100
0010
1000
0001
0000
0100
0010
,
1000
0000
0001
0000
0100
0000
0001
1000
,
0001
0000
1000
0000
0010
0001
0010
1000
,
0010
0000
0000
0100
1000
0000
0000
0001
0010
0000
0000
0100
1000
0000
0000
0010
,
0100
0000
0000
0000
0001
0000
1000
0000
0010
0001
0010
0000
1000
0010
1000
0000
,
0220
0000
0000
0000
0000
0000
0000
0330
,
1002
0000
1000
0000
1000
0000
1000
0003
,
1000
0000
0010
0000
0001
0010
0001
1000
,
0010
0000
0100
0000
1000
0001
0100
0000
,
0010
0000
1000
0000
0001
0010
0001
0000
,
1000
0010
0100
0001
,
1000
0010
1000
0000
1000
0000
0001
0000
,
0100
0001
0100
0000
1000
0000
0001
0000
,
1000
0001
0100
0000
0010
0001
1000
0000
,
0010
0000
1000
0000
0010
0001
1000
0010
,
1000
0000
0000
0000
0010
0000
0000
0000
1000
0000
0000
0100
0000
0000
0001
0000
,
0010
0000
1000
0000
0001
0010
1000
0001
,
0000
1000
0010
0001
0100
0010
1000
0001
,
0010
0000
0100
0000
0010
0000
0001
0000
1000
0000
0000
0100
0000
0000
0001
0000
,
1000
0000
0001
0000
1000
0010
0100
1000
,
0001
0000
0010
0000
0100
0001
1000
0010
,
0000
0100
0001
1000
0010
1000
0001
1000
,
0010
0001
1000
0000
0100
0000
0010
0000
0001
1000
0010
0100
0001
0010
1000
0100
,
0020
0000
0000
0030
,
2002
0000
0000
3003
;

//--------------- dance-single - XLev450X -未来--ESP ----------------
#NOTES:
     dance-single:
     XLev450X -未来-:
     Hard:
     16:
     0,0,0,0,0:
0000
0000
0000
0000
,
0000
0000
0000
0000
,
1000
0000
0001
0000
0100
0000
0000
0010
0000
0000
1000
0000
0001
0000
0010
0000
,
0001
0000
0010
0001
0010
0000
1000
0010
1000
0000
0010
0100
0010
0000
0001
0000
,
1000
0000
0010
0000
0100
0000
0001
0000
1000
0001
0100
0000
0010
0000
1000
0000
,
0001
0000
0000
0100
0000
0000
0010
0000
1000
0001
1000
0000
0100
0000
1000
0001
,
0010
0000
0001
0000
1000
0000
0010
0000
0100
0010
0000
0010
1000
0000
0001
0000
,
0100
0000
0010
1000
0010
0000
0100
0000
0001
0000
1000
0010
1000
0000
0001
0000
,
0100
0000
0010
1000
0001
0000
0100
0000
0010
0001
1000
0000
0010
0000
0100
0000
,
1000
0000
0000
0101
0000
0000
1010
0000
0010
0000
0100
0000
0001
1000
0001
1000
,
0010
0000
0100
0001
1000
0000
0010
0100
0001
0000
1000
0010
0100
0000
0001
1000
,
0010
0000
0000
0101
0000
0000
1010
0000
0000
0110
0000
0000
1001
0000
0010
0100
,
0001
0000
1000
0010
0100
0000
1000
0100
1000
0000
0001
0010
0100
0010
0100
1000
,
0001
1000
0000
0100
0000
0000
0010
0000
1000
0000
0001
0100
0000
0100
0010
0001
,
1000
0000
0001
0100
0001
0000
1000
0010
1000
0000
0010
0100
0010
0000
1000
0100
,
0001
0000
0000
0000
0000
0000
0100
0000
0000
0000
0000
0000
0010
0000
0000
0000
1000
0000
0000
0000
0000
0000
0100
0000
0001
0000
1000
0000
0100
0001
1000
0100
,
0010
0000
0010
1000
0010
0000
0010
0001
0010
0000
1000
0010
1000
0000
0100
0001
,
0100
0000
0000
0000
0010
0000
0100
0000
1000
0000
0000
0000
0001
0000
1000
0000
0100
0000
0000
0000
0010
0000
1000
0001
0000
0000
0100
0000
0001
1000
0100
0001
,
0010
1000
0100
1000
0100
1000
0010
0100
0010
0100
0001
0010
0100
0010
0100
0010
,
0001
1000
0010
0100
0001
0010
0100
1000
0010
1000
0001
1000
0001
0100
0010
0100
,
0001
0100
0010
1000
0010
0100
0010
1000
0001
0100
0001
0100
0010
0100
0010
1000
,
0100
1000
0010
0100
0001
0100
0001
1000
0100
0010
0001
0100
0000
0010
1000
0001
,
0100
0000
0100
0001
1000
0000
0010
0100
0001
0000
1000
0010
0100
0010
0001
0000
,
0000
1000
0001
0100
0001
0000
1000
0010
0001
0100
0000
0010
1000
0001
0010
0100
,
0001
0000
0000
0000
0000
0000
1000
0000
0000
0001
0000
0000
0100
0000
0000
0000
0001
0000
0000
0000
0100
0000
0000
0000
1000
0000
0000
0000
0000
0000
0001
0000
0000
1000
0000
0000
0001
0000
0000
0000
1000
0000
0000
0000
0001
0000
0000
0000
,
1000
0000
0000
0000
0000
0000
0000
0000
0001
0000
0000
0000
0000
0000
0000
0000
0100
0000
0000
0000
0000
0000
0000
0000
1000
0000
0000
0000
0000
0000
0000
0000
0010
0000
0000
0000
0000
0000
0000
0000
0100
0000
0000
0000
0000
0000
0000
0000
0001
0000
0000
0000
0000
0000
0000
0000
1000
0000
0000
0000
0001
0000
0000
0000
0000
0000
0100
0000
0000
0000
0000
0000
0001
0000
0000
0000
0000
0000
0010
0000
0000
0000
0000
0000
0100
0000
0000
1000
0000
0000
0010
0000
0000
0000
0000
0000
,
0100
0000
0001
1000
0000
0010
1000
0010
,
0100
0000
0001
0010
0000
1000
0001
0100
,
0010
0000
1000
0010
0000
0100
1000
0001
,
0100
0000
1000
0010
0000
1000
0001
0100
,
0010
0000
1000
0001
0000
1000
0010
0000
,
1000
0000
0001
0100
0000
0010
1000
0001
,
0100
0000
0010
1000
0000
0001
0100
0010
,
1000
0000
0001
0100
0010
1000
0001
0100
,
0001
0000
0000
1000
0000
0000
0010
0000
0000
0100
0000
0000
0001
0000
1000
0000
,
0010
0000
0000
0100
0000
0000
0001
0000
1000
0000
0000
0001
0000
0000
0010
1000
,
0010
0000
0000
0100
0000
0000
0001
0000
0000
1000
0000
0000
0010
0000
0100
0000
,
0001
0000
0000
1000
0000
0000
0001
0000
0000
0100
0000
0000
0010
0000
1000
0000
,
0001
0000
0000
1000
0000
0000
0010
0000
0100
0000
0000
0001
0000
0000
1000
0000
,
0001
0000
0000
0100
0000
0000
0001
0000
1000
0000
0000
0010
0000
0000
1000
0000
,
0001
0100
1000
0000
0010
0001
0100
0000
1000
0001
0100
0000
0010
0001
1000
0000
,
0100
0000
0010
0000
0001
0000
0100
0000
1000
0000
0001
0000
0010
0000
1000
0000
0100
0010
0001
0000
1000
0000
0100
0000
0010
0000
0100
0000
0001
0000
1000
0000
,
0020
0000
0000
0000
0000
0000
0000
0000
0000
0000
0000
0030
1000
0001
0100
0010
,
2000
0000
0000
0000
3002
0000
0000
0000
0203
0000
0000
0300
0020
0000
0000
0030
,
1001
0000
0010
0000
0011
0000
0100
0000
0001
0000
1000
0010
0000
0001
0100
0010
,
0110
0000
0100
0000
0011
0000
1000
0000
0001
0000
0100
0001
0000
0010
1000
0000
,
0011
0000
0100
0000
0101
0000
1000
0000
0100
0000
0001
0100
0000
1000
0010
1000
,
1001
0000
0100
0000
0110
0000
0001
0000
0010
0000
1000
0010
0000
0001
0100
0010
,
1001
0000
0100
0000
0011
0000
0100
0000
0001
0000
1000
0010
0000
1000
0100
0010
,
0011
0000
0010
0000
1001
0000
0001
0000
1000
0000
0001
1000
0000
0100
1000
0010
,
1001
0000
0010
0000
1010
0000
0001
0000
1000
0000
0001
0100
0000
0010
0100
0010
,
0012
0013
0120
0130
0201
0301
0012
0013
,
1000
0000
0001
0000
0100
0000
0010
0000
1000
0000
0100
0001
0000
0000
0010
0000
,
1000
0000
0001
0000
0100
0000
0010
0000
1000
0000
0001
0100
0001
0100
0001
1000
,
0000
0000
0001
0000
0010
0000
0001
0000
1000
0000
0100
0001
0100
0000
0010
0000
,
0100
0000
1000
0000
0001
0000
0100
0000
0010
0000
0001
0010
0001
1000
0100
0010
,
0001
0000
0100
0000
1010
0000
0001
0000
0101
0000
0001
0100
0000
1000
0010
0100
,
0011
0000
0100
0000
1010
0000
0001
0000
0110
0000
1000
0001
0000
1000
0001
0100
,
0001
0000
0010
0000
0001
0010
0001
0100
0010
0000
0100
0000
0100
1000
0100
0001
,
0010
0100
0010
0100
0001
0010
1000
0001
0100
1000
0100
0010
0001
0010
1000
0100
,
1001
0000
1000
0000
1000
0000
0010
0000
0010
0100
0012
0000
0013
1000
0100
0010
,
2002
0000
0000
3003
;
