#TITLE:Cutie pie;
#ARTIST:Toshio Sakurai;
#GENRE:POPS;
#BANNER:Cutie pie.png;
#BACKGROUND:Cutie pie-bg.png;
#CDTITLE:./CDTitles/GITADORA.png;
#MUSIC:Cutie pie.ogg;
#OFFSET:-0.397;
#SAMPLESTART:4.95;
#SAMPLELENGTH:15;
#BPMS:0=105;
#BGSTAGE:16;

//--------------- dance-single - XLev450X-bSP ----------------
#NOTES:
     dance-single:
     XLev450X:
     Beginner:
     2:
     0,0,0,0,0:
0000
0000
0000
0000
,
0000
0000
0000
0000
,
0001
1000
0010
0000
,
1000
0001
1000
0000
,
0100
1000
1000
0000
,
0010
0100
0001
0000
,
1001
0000
0000
0000
,
0000
0000
0000
0000
,
0110
0000
0000
0000
,
0000
0000
0000
0000
,
0010
0000
0001
0000
,
1000
0000
0000
0000
,
0100
0000
0010
0000
,
1000
0000
0000
0000
,
1000
0001
1000
0000
,
0010
0100
0010
0000
,
0001
0010
1000
0000
,
1000
0100
0001
0000
,
0101
0000
0000
0000
,
0000
0000
0000
0000
,
0110
0000
0000
0000
,
0000
0000
0000
0000
,
1000
0001
0100
0000
,
0010
1000
0001
0000
,
0100
0000
0010
0000
,
1000
0001
0010
0000
,
0001
1000
0001
0000
,
1000
0001
1000
0000
,
0010
0100
0010
0000
,
1000
0100
1000
0000
,
0101
0000
0000
0000
,
1010
0000
0000
0000
,
0110
0000
0000
0000
,
1001
0000
0000
0000
;

//--------------- dance-single - XLev450X-BSP ----------------
#NOTES:
     dance-single:
     XLev450X:
     Easy:
     4:
     0,0,0,0,0:
0000
0000
0000
0000
,
0000
0000
0000
0000
,
0001
1000
0010
1000
,
0001
0100
0010
0000
,
1000
0001
0100
1000
,
0001
0100
0010
0000
,
1000
0001
0101
0000
,
1000
0010
1010
0000
,
0010
0100
0010
1000
,
0001
1000
1001
0000
,
1010
0101
0110
1001
,
0010
0100
0000
0001
,
1000
0100
0000
1000
,
0001
0100
0010
0000
,
1000
1000
0001
0001
,
0010
1000
0010
0000
,
0100
1000
0001
0100
,
0010
1000
0010
0000
,
0101
0000
0010
1000
,
0100
0010
1010
0000
,
1000
0100
1100
0000
,
0010
0001
0011
0000
,
1100
0110
0011
0110
,
1001
0010
1000
0001
,
0100
0010
1000
0000
,
1000
0001
0100
0000
,
1000
0001
1000
0000
,
0010
1000
0101
0000
,
0010
0100
1010
0000
,
1000
0100
1100
0000
,
0010
0001
1000
0001
,
0100
0010
1000
0000
,
1000
0010
0100
0001
,
1000
0010
0110
0000
;

//--------------- dance-single - XLev450X-DSP ----------------
#NOTES:
     dance-single:
     XLev450X:
     Medium:
     7:
     0,0,0,0,0:
0000
0000
0000
0000
,
0000
0000
0000
0000
,
0001
0000
1000
0000
0100
0010
1000
0000
,
0100
0000
0001
0000
0010
0001
0010
0000
,
1000
0000
0100
0000
0100
0010
0100
0000
,
1000
0000
0001
0000
1000
0001
1000
0000
,
0010
1000
0100
0001
,
0010
1000
0010
0000
0100
0000
0000
0000
,
0001
0000
1000
0000
0100
1000
0100
0000
,
0010
0100
0010
0000
0011
0000
0000
0000
,
0001
0000
1000
0000
0100
1000
0100
0000
,
0010
0100
0010
0000
0000
0000
0001
0000
,
1000
0001
1000
0000
0100
0000
1000
0000
,
0010
1000
0010
0000
0101
0000
0000
0000
,
1000
0010
0100
1000
,
0001
0000
0100
0000
0010
0001
0010
0000
,
1000
0100
1000
0010
,
1000
0000
0001
0000
0100
0010
0100
0000
,
0001
0010
0001
0000
1000
0000
0100
0000
,
1000
0010
1000
0000
0110
0000
0000
0000
,
1000
0001
0010
0100
,
1000
0000
0001
0000
0010
0001
0010
0000
,
1000
0100
1000
0000
0010
0100
0010
0000
,
0001
0010
0001
0000
0000
0000
1000
0000
,
0001
0100
1000
0000
0010
0000
0100
0000
,
0010
0100
0010
0000
1001
0000
0000
0000
,
0010
0010
1000
0100
,
0001
0000
1000
0000
0010
1000
0010
0000
,
0100
0001
0010
0001
,
0100
0001
0100
0000
1000
0010
1000
0000
,
0010
0000
1000
0000
0100
1000
0100
0000
,
0001
0000
0010
0000
0001
0010
0001
0000
,
1000
0000
0001
0000
0100
0010
0100
0000
,
1000
0000
0000
0000
0001
0000
0000
0000
1000
0000
0010
1001
0000
0000
0000
0000
;

//--------------- dance-single - XLev450X-ESP ----------------
#NOTES:
     dance-single:
     XLev450X:
     Hard:
     11:
     0,0,0,0,0:
0000
0000
0000
0000
,
0000
0000
0000
0000
,
0010
1000
0010
0100
0001
0010
0001
0000
,
1000
0100
1000
0001
0100
0010
1000
0000
,
0010
1000
0100
1000
0100
0010
0100
0000
,
0001
0010
1000
0001
0100
0010
1001
0000
,
0010
0010
1000
0001
0100
1000
0001
0000
,
0100
0000
1000
0000
0010
0000
1000
0100
0010
0001
0000
0010
0000
0100
1000
0100
,
0001
0011
0001
1001
1000
1010
1000
0001
,
1000
0010
0100
1000
0011
0000
0000
0000
,
1000
0100
1000
0001
0010
0100
1000
0001
,
0010
0000
0100
0000
1001
0000
0000
0000
0000
0000
1000
0001
0010
0000
1000
0000
,
0001
0000
0100
1000
0100
0000
0001
0000
0010
0000
1000
0000
0101
0000
0000
0000
,
1000
0000
0010
0000
0100
0000
0000
0000
1000
0100
0001
0000
0100
0000
1000
0000
,
0100
0001
0001
0000
1000
0010
1000
0000
,
0100
0000
0010
0000
1000
0000
1000
0000
0001
0000
0100
0001
0010
0000
0100
0000
,
1000
0001
0100
1000
0001
0100
0010
0000
,
1000
0001
0100
1000
0010
0001
0011
0000
,
1000
0010
1000
0000
0100
1000
0001
0000
,
0010
0000
0100
0000
1000
0000
0001
0000
0100
0001
0000
1000
0000
0010
0001
0010
,
1000
1010
0010
0110
0100
1100
0010
0001
,
1000
0010
0100
1000
0010
0000
1000
0000
,
0001
1000
0001
0100
1000
0001
0010
0100
,
1000
0000
0001
0000
0011
0000
0000
0000
0000
0000
1000
0100
0001
0000
0100
0000
,
0001
0000
1000
0010
1000
0000
0000
0000
0001
0000
0000
0000
0010
0000
1000
0000
,
0010
0000
0100
0000
1000
0000
0000
0000
0001
0100
1000
0000
0010
0000
0100
0000
,
1000
0001
1000
0010
1000
0010
0011
0000
,
0100
1000
0001
0100
0010
0100
1010
0000
,
1000
0100
0001
0010
0100
0010
1001
0000
,
0010
1000
0100
1000
0001
0010
0011
0000
,
1000
0100
1100
0000
0010
0001
0011
0000
,
0010
0100
0110
0000
1000
0001
1001
0000
,
1000
0001
0100
1000
0001
0010
0100
0000
,
1000
0000
0001
0000
0100
0000
0010
0000
1000
0100
0001
0100
0000
0000
0000
0000
;
