#TITLE:Crime Time;
#ARTIST:CJ Crew & KaW feat. Sedge;
#GENRE:TECHNO;
#MUSIC:Crime Time.ogg;
#BANNER:Crime Time.png;
#BACKGROUND:Crime Time-bg.png;
#CDTITLE:./CDTitles/StepManiaX.png;
#SAMPLESTART:5.796;
#SAMPLELENGTH:15;
#OFFSET:-0.327;
#BPMS:0=170.040;
#BGSTAGE:14;

//--------------- dance-single - XLev450X-bSP ----------------
#NOTES:
     dance-single:
     XLev450X:
     Beginner:
     3:
     0,0,0,0,0:
0000
0000
0000
0000
,
0000
0000
0000
0000
,
0000
0000
0000
0000
,
0000
0000
0000
0000
0000
0000
0000
0001
,
0000
0000
0000
0001
0000
0000
0000
0001
,
0000
0000
0000
0000
0000
0000
0000
0010
,
0000
0000
0000
0010
0000
0000
0000
0010
,
0000
0000
0000
0000
0000
0000
0000
1000
,
0000
0000
0000
1000
0000
0000
0000
1000
,
0000
0000
0000
0000
0000
0000
0000
0100
,
0000
0000
0000
0100
0000
0000
0000
0100
,
0000
0000
0000
0000
0000
0000
0000
0010
,
0000
0000
0000
0000
0000
0000
0000
0001
,
0000
0000
0000
0000
0000
0000
0000
1000
,
0000
0000
0000
0000
0000
0000
0000
0100
,
0000
0000
0000
0000
,
0000
0010
0000
0000
0000
0010
0000
0000
,
0000
0001
0000
0000
0000
0000
0000
0000
,
0000
0100
0000
0000
0000
0100
0000
0000
,
0000
1000
0000
0000
0000
0000
0000
0001
,
0000
0000
0000
0000
0000
0000
0000
1000
,
0000
0000
0000
0000
0000
0000
0000
0010
,
0000
0000
0000
0000
0000
0000
0000
0100
,
0000
0000
0000
0000
0000
0000
0000
1000
,
0000
0000
0000
0010
0000
0000
0000
0001
,
0000
0000
0000
0000
0000
0000
0000
0100
,
0000
0000
0000
0010
0000
0000
0000
0001
,
0000
0000
0000
0000
0000
0000
0000
1000
,
0000
1000
0000
1000
0000
0000
0000
0001
,
0000
0001
0000
0001
0000
0000
0000
0010
,
0000
0000
0000
0100
0000
0000
0000
0010
,
0000
0000
0000
0000
0000
0000
0000
0100
,
0000
0100
0000
0100
0000
0000
0000
0010
,
0000
0010
0000
0010
0000
0000
0000
0001
,
0000
0000
0000
1000
0000
0000
0000
0100
,
0000
0000
0000
0000
0000
0000
0000
0010
,
0000
0001
0000
0010
0000
0000
0000
1000
,
0000
0100
0000
1000
0000
0000
0000
0010
,
0000
0100
0000
0010
0000
0000
0000
0010
,
0000
1000
0000
0010
0000
0000
0000
0100
,
0000
0001
0000
0100
0000
0000
0000
0010
,
0000
1000
0000
0010
0000
0000
0000
0100
,
0000
0010
0000
0100
0000
0000
0000
0010
,
0000
0001
0000
0010
0000
0000
0000
0101
,
0000
0000
0000
1010
0000
0000
0000
0101
,
0000
0000
0000
0000
0000
0000
0000
1010
,
0000
0000
0000
0110
0000
0000
0000
1001
,
0000
0000
0000
0000
0000
0000
0000
0011
,
0000
0000
0000
1100
0000
0000
0000
0110
,
0000
0000
0000
0000
0000
0000
0000
0011
,
0000
0000
0000
0110
0000
0000
0000
1001
,
0000
0000
0000
0000
0000
0000
0000
1000
,
0000
0000
0000
1000
0000
0000
0000
1000
,
0000
0000
0000
0000
0000
0000
0000
0001
,
0000
0000
0000
0001
0000
0000
0000
0001
,
0000
0000
0000
0000
0000
0000
0000
0010
,
0000
0000
0000
0010
0000
0000
0000
0010
,
0000
0000
0000
0000
0000
0000
0000
0100
,
0000
0000
0000
0100
0000
0000
0000
0100
,
0000
0000
0000
0000
0000
0000
0000
0010
,
0000
0000
0000
0010
0000
0000
0000
0010
,
0000
0000
0000
0010
0000
0000
0000
0100
,
0000
0000
0000
0100
0000
0000
0000
0100
,
0000
0000
0000
0100
0000
0000
0000
1001
;

//--------------- dance-single - XLev450X-BSP ----------------
#NOTES:
     dance-single:
     XLev450X:
     Easy:
     6:
     0,0,0,0,0:
0000
0000
0000
0000
,
0000
0000
0000
0000
,
0000
0000
0000
0000
,
0000
0000
0000
0000
0000
0000
0000
0010
,
0000
0000
0000
0100
0000
0000
0000
0001
,
0000
0000
0000
1000
0000
0000
0000
0010
,
0000
0100
0000
0001
0000
0000
0000
1000
,
0000
0010
0000
0100
0000
0000
0000
0001
,
0000
0000
0000
1000
0000
0000
0000
0010
,
0000
0000
0000
0100
0000
0000
0000
0010
,
0000
0001
0000
0010
0000
0000
0000
0100
,
0000
1000
0000
0100
0000
0000
0000
0010
,
0000
0010
0000
0010
0000
0000
0000
0100
,
0000
0100
0000
0100
0000
0000
0000
0001
,
0000
1000
0000
0010
0000
0100
0000
0001
,
0000
1000
0000
0010
0000
0000
0000
0100
,
0000
1000
0000
0100
0000
1000
0000
0010
,
0000
0001
0000
0010
0000
0001
0000
0010
,
0000
0100
0000
0010
0000
0100
0000
2002
,
0000
0000
0000
0000
0000
0000
3003
0010
,
0000
0100
0000
0001
0000
0000
0000
1000
,
0000
0010
0000
0100
0000
0000
0000
0010
,
0000
0001
0000
1000
0000
0000
0000
0010
,
0000
0100
0000
0001
0000
0000
0000
0010
,
0000
0000
0000
0100
0000
0000
0000
0001
,
0000
0000
0000
1000
0000
0000
0000
0010
,
0000
0100
0000
0001
0000
1000
0000
0010
,
0000
0100
0000
0001
0000
0000
0000
0010
,
0000
1000
0000
0010
0000
1000
0000
0000
,
0000
0010
0000
0000
0000
0001
0000
0100
,
0000
0001
0000
1000
0000
0010
0000
0000
,
0000
0010
0000
0000
0000
0100
0000
0001
,
0000
0000
0000
1000
0000
0000
0000
0010
,
0000
0100
0000
0010
0000
0000
0000
0001
,
0000
0000
0000
1000
0000
0000
0000
0010
,
0000
0001
0000
1000
0000
0000
0000
2200
,
0000
3300
0000
2002
0000
3003
0000
0022
,
0000
0033
0000
0220
0000
0330
0000
2002
,
0000
3003
0000
0220
0000
0330
0000
0022
,
0000
0033
0000
2200
0000
3300
0000
2002
,
0000
3003
0000
2200
0000
3300
0000
2002
,
0000
3003
0000
2200
0000
3300
0000
0220
,
0000
0330
0000
0022
0000
0033
0000
2002
,
0000
3003
0000
0220
0000
0330
0000
0001
,
0000
1000
0000
0010
0000
0000
0000
0010
,
0000
0100
0000
1000
0000
0000
0000
0010
,
0000
0000
0000
0100
0000
0000
0000
0001
,
0000
0000
0000
1000
0000
0000
0000
0010
,
0000
0001
0000
1000
0000
0000
0000
0010
,
0000
0100
0000
0001
0000
0000
0000
1000
,
0000
0010
0000
0100
0000
0001
0000
1000
,
0000
0010
0000
1001
0000
0000
0000
0010
,
0000
0000
0000
0100
0000
0000
0000
0001
,
0000
0000
0000
1000
0000
0000
0000
0010
,
0000
0001
0000
1000
0000
0010
0000
0100
,
0000
0001
0000
1000
0000
0010
0000
0100
,
0000
0000
0000
0001
0000
0000
0000
1000
,
0000
0000
0000
0010
0000
0000
0000
0100
,
0000
1000
0000
0100
0000
0010
0000
0001
,
0000
1000
0000
0010
0000
0100
0000
0001
,
0000
1000
0000
0000
0000
0010
0000
0100
,
0000
0001
0000
0000
0000
1000
0000
0100
,
0000
0010
0000
0001
0000
1000
0000
1001
,
0000
1001
0000
0000
0010
0100
0000
0110
;

//--------------- dance-single - XLev450X-DSP ----------------
#NOTES:
     dance-single:
     XLev450X:
     Medium:
     10:
     0,0,0,0,0:
0000
0000
0000
0000
,
0000
0000
0000
0000
,
0000
0000
0000
0000
,
0000
0000
0000
0000
0000
0000
0000
1000
,
0000
0010
0000
0000
0100
0000
0001
0000
0000
0010
0000
0000
0100
0000
1000
0000
,
0000
0010
0000
0000
0100
0000
0002
0000
0000
0000
0003
0000
0000
0000
0100
0000
,
0001
0000
1000
0000
0010
0000
0100
0000
0001
0000
1000
0000
0020
0000
0000
0030
,
0000
0000
0010
0000
1000
0000
0010
0000
0100
0000
0002
0003
0000
0000
0001
0000
,
0000
0100
0000
0000
1000
0000
0010
0000
0000
0001
0000
0000
0010
0000
1000
0000
,
0000
0001
0000
0000
1000
0000
0020
0000
0000
0000
0000
0030
0000
0000
1000
0000
,
0001
0100
0010
1000
0001
0100
0002
0003
,
1000
0001
0100
0010
0001
2000
3000
0001
,
0000
0000
0001
1000
0000
0000
0100
0010
,
0000
0000
1000
0010
0000
0000
0100
0001
,
0000
0000
0001
1000
0000
0000
0100
0001
,
0000
0000
0010
0100
0000
0000
1000
0100
,
0000
0100
0000
0000
0100
0000
0001
0000
0000
0001
0000
0000
0001
0000
1000
0000
,
0000
1000
0000
0000
1000
0000
0010
0000
0000
0010
0000
0000
0010
0000
0100
0000
,
0000
0100
0000
0000
0100
0000
0010
0000
0000
0010
0000
0000
0010
0000
0001
0000
,
0000
0001
0000
0000
0001
0000
1000
0000
0000
1000
0000
0000
1000
0000
0010
0000
,
0000
0001
0000
0000
0100
0000
1000
0000
0000
0001
0000
0000
0010
0000
0100
0000
,
0000
0001
0000
0000
1000
0000
0020
0000
0000
0000
0030
0000
0000
0000
0001
0000
,
0000
1000
0000
0000
0001
0100
0000
0001
,
0000
1000
0000
0000
0100
0010
0000
0001
,
0000
0010
0000
0000
0001
0000
1000
0000
0000
0010
0000
0000
0100
0000
0001
0000
,
0000
0010
0000
0000
0100
0000
2000
0000
0000
3000
0000
0000
0000
0000
1000
0000
,
0000
0001
0000
1000
0000
0001
0000
1010
,
0000
1010
0000
0010
1000
0100
0000
0001
,
0000
0001
0000
0001
1000
0100
0000
1000
,
0000
1000
0000
1000
0001
0100
0000
0001
,
0000
0001
0000
0001
1000
0100
0000
1000
,
0000
1000
0000
1000
0001
0100
0000
0010
,
0000
0010
1000
0100
0010
0001
0000
0010
,
0000
0010
0001
0100
0010
1000
0000
0001
,
0000
0001
0100
0010
1000
0100
0000
1000
,
0000
1000
0100
0010
0001
0100
0000
0010
,
0000
0000
2002
3003
0000
0000
0010
0000
1000
0000
0100
0000
0000
0000
1000
0000
,
0000
0000
0202
0303
0000
0000
0001
0000
1000
0000
0100
0000
0000
0000
0010
0000
,
0000
0000
2002
3003
0000
0000
0010
0000
0001
0000
0100
0000
0000
0000
0001
0000
,
0000
0000
2200
3300
0000
0000
1000
0000
0001
0000
0100
0000
0000
0000
0010
0000
,
0000
1000
0100
0010
0001
0100
0000
0010
,
0000
0001
0100
0010
1000
0100
0000
1000
,
0000
0001
0100
0010
1000
0100
0000
0001
,
0000
0000
1000
0000
0100
0000
0010
0000
0001
0000
0100
0000
0000
0000
0202
0303
,
0000
0000
1000
0000
0000
0000
2200
3300
0000
0000
0001
0000
0000
0000
0202
0303
,
0000
0000
1000
0000
0000
0000
2200
3300
0000
0000
0001
0000
0000
0000
0220
0330
,
0000
0000
1000
0000
0000
0000
0220
0330
0000
0000
0001
0000
0000
0000
0220
0330
,
0000
0000
1000
0000
0000
0000
0220
0330
0000
0000
0001
0000
0000
0000
0001
0000
,
0000
0000
0010
0000
0000
0000
0100
0000
0000
0000
2200
3300
0000
0000
1000
0000
,
0000
0000
0010
0000
0000
0000
0100
0000
0000
0000
0202
0303
0000
0000
0001
0000
,
0000
0000
1000
0000
0000
0000
0100
0000
0000
0000
2200
3300
0000
0000
1000
0000
,
0000
0000
0001
0000
0000
0000
0100
0000
0000
0000
0202
0303
0000
0000
1000
0000
,
0000
0010
0000
0000
0100
0000
0001
0000
0000
0010
0000
0000
0100
0000
1000
0000
,
0000
0010
0000
0000
0100
0000
0002
0000
0000
0003
0000
0000
0000
0000
0100
0000
,
0001
1000
0010
0100
0001
1000
0010
0000
,
0000
0010
1000
0010
0100
0001
0000
0001
,
0000
0100
0000
0000
1000
0000
0010
0000
0000
0001
0000
0000
0010
0000
1000
0000
,
0000
0001
0000
0000
1000
0000
0010
0000
0000
0000
0000
0000
0000
0000
1000
0000
,
0001
0100
0010
1000
0001
0100
0001
0000
,
1000
0001
0100
0010
0001
1000
0000
0010
,
1000
0000
0001
0100
0000
0010
0100
0010
,
0100
0010
0100
0010
0100
0010
0000
0001
,
0000
0100
0000
0000
1000
0000
0001
0000
0000
0010
0000
0000
1000
0000
0110
0000
,
0000
0110
0000
0000
1100
0000
0000
1001
;

//--------------- dance-single - XLev450X-ESP ----------------
#NOTES:
     dance-single:
     XLev450X:
     Hard:
     13:
     0,0,0,0,0:
0000
0000
0000
0000
,
0000
0000
0000
0000
,
0000
0000
0000
0000
,
0000
0000
0000
0000
0000
0000
0000
0010
,
0000
1000
0000
0000
1100
0000
1000
0000
0000
0001
0000
0000
0101
0000
0010
0000
,
0000
1000
0000
0000
0001
0000
0101
0000
0000
0000
0000
0000
0000
0000
0001
0000
,
1000
0001
1000
0010
1000
0100
0000
1000
,
0001
1000
0001
0010
0001
0100
0000
1000
,
0000
0100
0000
0000
0110
0000
1000
0000
0000
0001
0000
0000
0101
0000
1000
0000
,
0000
0001
0000
0000
0100
0000
0110
0000
0000
0000
0000
0000
0000
0000
0010
0000
,
1000
0001
0010
0100
0010
0001
0000
0010
,
0001
1000
0010
0100
0010
1000
0000
0010
,
0000
1000
0000
0000
0100
0000
0001
0000
0000
1000
0000
0000
0100
0000
0010
0000
,
0000
0001
0000
0000
0100
0000
1000
0000
0000
0001
0000
0000
0100
0000
0001
0000
,
0000
0100
0000
0000
0010
0000
0001
0000
0000
1000
0000
0000
0100
0000
1000
0000
,
0000
0010
0000
0000
0100
0000
1000
0000
0000
0100
0000
0000
0010
0000
1000
0000
,
0001
1000
0000
0001
1000
0000
0100
0000
0010
0100
0000
0010
0100
0000
1000
0000
,
0100
1000
0000
0100
1000
0000
0001
0000
0100
0001
0000
0100
0001
0000
0010
0000
,
0001
0010
0000
0001
0010
0000
0100
0000
1000
0100
0000
1000
0100
0000
1000
0000
,
0001
1000
0000
0001
1000
0000
0110
0000
0000
0000
0110
0000
0000
0000
1000
0000
,
0010
1000
0100
1000
0010
1000
0100
0001
,
0010
0001
0100
0001
0010
0001
0100
1000
,
0001
1000
0100
1000
0001
1000
0100
0001
,
1000
0001
0100
0001
1000
0001
0100
0010
,
1000
0010
0001
0010
1000
0010
0001
0100
,
1000
0100
0001
0100
1000
0100
0001
1000
,
0010
1000
0001
1000
0100
1000
0010
1000
,
0001
1000
0000
0101
0000
1001
0000
0010
,
0000
1000
0000
0000
0100
0000
1000
0000
0000
0000
0000
0000
0100
0000
0100
0000
,
1000
0000
0001
0000
0000
0000
0101
0000
0000
1001
0000
0000
0000
0000
0010
0000
,
0000
0001
0000
0000
0100
0000
0001
0000
0000
0000
0000
0000
0100
0000
0100
0000
,
0001
0000
1000
0000
0000
0100
0000
0000
0010
0000
0101
0000
0000
0000
0100
0000
,
0000
1000
0000
0000
0010
0000
1000
0000
0000
0000
0000
0000
0001
0000
0001
0000
,
1000
0000
0001
0000
0000
0000
0011
0000
0000
1001
0000
0000
0000
0000
0100
0000
,
0000
0001
0000
0000
0010
0000
0001
0000
0000
0000
0000
0000
1000
0000
1000
0000
,
0001
0000
1000
0000
0000
0000
0010
0000
0000
0100
0000
0000
1001
0000
0010
0000
,
0100
0001
0100
0010
0100
0001
0100
0010
,
0001
1000
0001
0100
0001
1000
0001
0100
,
0010
1000
0010
0001
0010
1000
0010
0001
,
1000
0100
1000
0010
1000
0100
1000
0010
,
0100
0010
0100
1000
0100
0010
0100
1000
,
0010
1000
0010
0100
0010
1000
0010
0100
,
0001
1000
0001
0010
0001
1000
0001
0010
,
1000
0100
1000
0001
1000
0100
1000
0001
,
0010
1000
0010
0001
0010
1000
0010
0100
,
0001
1000
0001
0010
0001
1000
0001
0010
,
0100
0001
0100
0010
0100
0001
0100
0010
,
1000
0100
1000
0001
1000
0100
1000
0001
,
0010
0100
0010
0001
0010
0100
0010
0001
,
1000
0100
1000
0010
1000
0100
1000
0010
,
0001
1000
0001
0100
0001
1000
0001
0100
,
0010
0001
0010
1000
0010
1001
0000
0010
,
0000
1000
0000
0000
1100
0000
1000
0000
0000
0001
0000
0000
0101
0000
0010
0000
,
0000
1000
0000
0000
0001
0000
0101
0000
0000
0000
0000
0000
0000
0000
0001
0000
,
1000
0001
1000
0010
1000
0100
0000
1000
,
0001
1000
0001
0010
0001
0100
0000
1000
,
0000
0100
0000
0000
0110
0000
1000
0000
0000
0001
0000
0000
0101
0000
1000
0000
,
0000
0001
0000
0000
0100
0000
0110
0000
0000
0000
0000
0000
0000
0000
0010
0000
,
1000
0001
0010
0100
0010
0001
0000
0010
,
0001
1000
0010
0100
0010
1000
0000
1001
,
1001
0000
1100
1100
0000
0010
0001
0100
,
0001
1000
0100
0010
0001
0100
0000
0010
,
0000
1000
0000
0000
1000
0000
0001
0000
0000
0100
0000
0000
0100
0000
1001
0000
,
0000
0000
1001
0000
0000
0000
0000
0000
0010
0000
0000
0000
1000
0001
1000
0000
;

//--------------- dance-single - XLev450X-CSP ----------------
#NOTES:
     dance-single:
     XLev450X:
     Challenge:
     16:
     0,0,0,0,0:
0000
0000
0000
0000
,
0000
0000
0000
0000
,
0000
0000
0000
0000
,
0000
0000
0000
0000
0000
0000
0000
0010
,
0000
1000
0000
0000
0100
0000
1000
0000
0000
0001
0000
0000
0100
0000
0010
0000
,
0000
1000
0000
0000
0001
0000
0100
0000
0000
0000
1000
0000
0100
0000
0010
0100
,
0010
0100
0001
1000
0010
0100
0001
1000
0100
0010
0001
1000
0100
0010
0001
0000
,
0100
0010
1000
0010
1000
0010
0100
0001
,
0000
0010
0000
0000
0001
0000
1000
0000
0000
0010
0000
0000
0100
0000
0001
0000
,
0000
0010
0000
0000
0100
0000
1000
0000
0000
0000
0001
0100
0000
0000
1000
0000
,
0100
0001
0010
1000
0100
0001
0100
1010
,
0000
0000
1010
0000
0000
0000
0010
1000
0001
0100
0010
0100
0010
1000
0010
0000
,
0000
1000
0000
0000
0100
0000
0001
0000
0000
1000
0000
0000
0100
0000
0010
0000
,
0000
0001
0000
0000
0100
0000
1000
0000
0000
0001
0000
0000
0100
0000
0001
0000
,
0000
0100
0000
0000
0010
0000
0001
0000
0000
1000
0000
0000
0100
0000
1000
0000
,
0000
0010
0000
0000
0100
0000
1000
0000
0000
0100
0000
0000
0010
0000
0100
0000
,
0010
1000
0000
0001
0100
0000
0001
0000
1000
0010
0000
0001
0100
0000
0010
0000
,
0001
1000
0000
0010
0100
0000
1000
0000
0010
1000
0000
0100
0001
0000
0100
0000
,
1000
0010
0000
0100
0001
0000
0100
0000
0001
0010
0000
1000
0010
0000
0100
0000
,
0010
1000
0000
0100
0001
0000
0202
0000
0303
0000
2020
0000
3030
0000
1000
0000
,
0001
0100
1000
0001
0100
0010
1000
0010
,
0001
0100
1000
0010
0100
0002
0003
0100
,
1000
0001
0100
0001
0100
1000
0001
1000
,
0100
0010
0100
1000
0010
0002
0003
0010
,
0100
0010
1000
0010
1000
0100
0001
0100
,
1000
0010
1000
0010
0100
0020
0030
1000
,
0001
0100
0001
1000
0010
0100
0001
1000
,
0010
0000
0001
0000
1000
0000
0001
0100
0010
1000
0100
0001
0010
1000
0010
0000
,
0000
1000
0000
0000
0100
0000
0010
0000
1000
0000
0010
0000
0010
0000
0100
0000
,
1000
0000
0001
0000
1000
0000
0101
0000
0000
1001
0000
0000
0110
0000
0010
0000
,
0000
0001
0000
0000
0100
0000
0010
0000
1000
0000
0010
0000
0001
0000
0100
0000
,
0001
0000
1000
0000
0000
0100
0000
0000
0010
0000
0101
0000
0000
0000
0100
0000
,
0000
1000
0000
0000
0010
0000
1000
0000
0010
0000
0100
0000
0001
0000
0001
0000
,
1000
0000
0001
0000
0100
0000
0011
0000
0000
1001
0000
0000
0110
0000
0100
0000
,
0000
0001
0000
0000
0010
0000
0001
0000
0100
0000
0001
0000
1000
0000
1000
0000
,
0001
0000
1000
0000
0000
0000
0010
0000
0000
0100
0000
0000
1001
0000
0010
0000
,
0100
0001
0100
0010
0100
0001
0100
0010
,
0001
0000
1000
0000
0001
0000
0100
0000
0010
0001
1000
0100
0001
0000
0100
0000
,
0010
1000
0010
0001
0010
1000
0010
0001
,
1000
0000
0100
0000
1000
0000
0010
0000
1000
0001
0100
0001
1000
0000
0010
0000
,
0100
0010
0100
1000
0100
0010
0100
1000
,
0010
0000
1000
0000
0010
0000
0100
0000
0010
0100
1000
0001
0010
0000
0100
0000
,
0001
1000
0001
0010
0001
1000
0001
0010
,
1000
0000
0100
0000
1000
0000
0001
0000
0010
0100
0001
1000
0100
0000
0001
0000
,
0010
1000
0010
0001
0010
1000
0010
0100
,
0001
0000
1000
0000
0001
0000
0010
0000
0001
1000
0010
1000
0001
0000
0010
0000
,
0100
0001
0100
0010
0100
0001
0100
0010
,
1000
0000
0100
0000
1000
0000
0001
0000
1000
0010
0001
0100
1000
0000
0001
0000
,
0010
0100
0010
0001
0010
0100
0010
0001
,
1000
0000
0100
0000
1000
0000
0010
0000
1000
0010
0001
0100
1000
0000
0010
0000
,
0001
1000
0001
0100
0001
1000
0001
0100
,
0010
0001
0010
1000
0010
2002
3003
0010
,
0000
1000
0000
0000
0100
0000
1000
0000
0000
0001
0000
0000
0100
0000
0010
0000
,
0000
1000
0000
0000
0001
0000
0100
0000
0000
0000
1000
0000
0100
0000
0010
0100
,
0010
0100
0001
1000
0010
0100
0001
1000
0100
0010
0001
1000
0100
0010
0001
0000
,
0100
0010
1000
0010
1000
0010
0100
0001
,
0000
0010
0000
0000
0001
0000
1000
0000
0000
0010
0000
0000
0100
0000
0001
0000
,
0000
0010
0000
0000
0100
0000
1000
0000
0100
0000
0001
0100
0000
0000
1000
0000
,
0100
0001
0010
1000
0100
0001
0100
1010
,
0000
0000
1010
0000
0000
0000
0010
1000
0001
0100
0010
0100
0010
1000
0101
0000
,
1001
0000
1010
1100
0000
0010
0001
0100
,
0001
1000
0100
0010
0001
0100
0000
0010
,
0000
1000
0000
0000
1000
0000
0001
0000
0000
0100
0000
0000
0100
0000
1001
0000
,
0000
0000
1001
0000
0000
0000
0000
0000
0010
0000
0000
0000
1000
0001
1000
0000
;
