#TITLE:Creator;
#ARTIST:CLAZZIQUAI;
#GENRE:Electronica;
#MUSIC:Creator.ogg;
#BANNER:Creator.png;
#BACKGROUND:Creator-bg.png;
#SAMPLESTART:36.751;
#SAMPLELENGTH:15;
#OFFSET:-0.084;
#BPMS:0=117;
#BGSTAGE:3;
#BGCHANGES:0=Creator.mp4=1.000=0=0=1;

//--------------- dance-single - XLev450X-bSP ----------------
#NOTES:
     dance-single:
     XLev450X:
     Beginner:
     3:
     0,0,0,0,0:
0000
0000
0000
0000
,
0000
0000
0000
0000
,
1000
0000
0001
0000
,
1000
0000
0000
0000
,
0001
0000
1000
0000
,
0001
0000
0000
0000
,
1000
0000
1000
0000
,
0001
0000
0000
0000
,
0001
0000
0001
0000
,
1000
0000
0000
0000
,
0001
0001
0001
0000
,
1000
1000
1000
0000
,
0001
1000
0001
0000
,
1000
0001
1000
0000
,
0001
0001
1000
1000
,
0001
1000
0001
1000
,
0001
0000
1000
0000
,
0001
0000
1000
0001
,
1000
0000
0001
0001
,
1000
0000
1000
1000
,
0001
0001
1000
0001
,
1000
0000
0001
0000
,
1000
0001
1000
0001
,
1000
0000
0001
0000
,
1000
0001
1000
0001
,
1000
0001
1000
0001
,
1001
0000
0001
1000
,
0001
0000
1000
0001
,
1000
0000
0001
0001
,
1000
0000
0001
1000
,
0001
0000
1000
1000
,
0001
0000
0001
1000
,
0001
0000
1000
0001
,
1001
0000
0000
0000
,
0001
0000
1000
0000
,
0001
0000
1000
0000
,
0001
0000
1000
0000
,
0001
0000
1000
0000
,
0001
0000
1000
0000
,
0001
0000
1000
0000
,
1001
0000
0000
0000
,
0000
0000
0000
0000
,
0001
0001
0001
0000
,
1000
1000
1000
0000
,
0001
1000
0001
0000
,
1000
0001
1000
0000
,
0001
1000
0001
0000
,
0001
1000
0001
0000
,
0001
0001
1000
0001
,
1000
0000
0001
0000
1000
0000
0001
2002
,
0000
3003
0000
0000
0000
0000
0000
0000
0000
0000
0000
0000
0000
0000
0000
0000
;

//--------------- dance-single - XLev450X-BSP ----------------
#NOTES:
     dance-single:
     XLev450X:
     Easy:
     6:
     0,0,0,0,0:
0000
0000
0000
0000
,
0000
0000
0000
0000
,
0001
1000
0010
0000
,
0100
0001
1000
0000
,
0010
1000
0001
0010
,
1000
0001
0010
0000
,
0100
0001
1000
0010
,
1000
0001
0100
0010
,
0001
0000
1000
0000
,
0001
1000
0010
0000
,
0100
0001
1000
0000
,
1000
0001
0100
0000
,
0010
1000
0001
0000
,
0010
0100
0001
0000
,
1000
0001
1000
0010
,
0100
0001
1000
0010
,
0100
0001
1000
0000
,
1000
0010
0100
0001
,
1000
0000
0010
0100
,
0001
0000
0001
1000
,
0010
0100
0001
0000
,
1000
0001
0100
0010
,
1000
0001
0100
0000
,
0010
0001
1000
0000
,
0010
1000
0001
0100
,
0010
1000
0001
0000
,
0010
1000
0001
0100
,
0010
1000
0001
0010
,
0100
0001
1000
0010
,
0100
0001
1000
0000
,
0001
1000
0010
0100
,
0001
1000
0010
0100
,
0001
1000
0010
0100
,
2002
0000
0000
3003
,
0001
0001
0001
0000
,
1000
1000
1000
0000
,
0010
0010
0010
0000
,
0100
0100
0100
0000
,
0001
1000
0001
0000
,
1000
0010
0100
0000
,
0001
1000
0001
1000
,
0001
1000
0001
1000
,
0010
0100
0001
0000
,
1000
0000
0001
0000
0100
0000
0010
1000
,
0001
0100
0001
0000
,
1000
0000
0010
0000
0100
0000
0001
1000
,
0010
0100
0001
0000
,
1000
0000
0001
0000
0010
0000
1000
0001
,
0100
0010
1000
0001
,
0010
0100
0001
1000
0010
0100
0010
2002
,
0000
3003
0000
0000
0000
0000
0000
0000
0000
0000
0000
0000
0000
0000
0000
0000
;

//--------------- dance-single - XLev450X-DSP ----------------
#NOTES:
     dance-single:
     XLev450X:
     Medium:
     11:
     0,0,0,0,0:
0000
0000
0000
0000
,
0000
0000
0000
0000
,
2002
0000
0000
0000
0000
0000
0000
0000
0000
0000
0000
3003
0000
0000
1000
0000
,
0010
0000
0000
0100
0000
0000
0001
0000
0000
0010
0000
1000
0000
0000
0010
0000
,
0001
0000
1000
0000
0010
0000
0000
0000
0100
0000
0000
0001
0000
0000
0100
0000
,
0001
0000
0000
1000
0000
0000
0010
0000
0000
0001
0100
0000
0000
1000
0001
0000
,
1000
0010
0100
0000
0001
0100
0010
0000
,
0001
0000
1000
0010
0000
0100
0000
0001
,
0010
1000
0001
0000
0010
0000
0100
0000
,
0001
0000
0100
0001
0000
0010
0000
0000
1000
0000
0001
0100
0000
0010
0000
0000
,
1000
0000
0001
0000
0100
0000
0010
0001
,
0100
0000
0000
0010
0000
0000
1000
0000
0000
0000
0001
0000
0000
0000
0010
0000
,
1000
0001
0000
0000
0100
0000
0000
0000
0001
0000
0000
0000
1000
0000
0010
0000
,
1000
0000
0000
0001
0000
0000
0010
0000
0000
0000
0100
0010
0000
0000
0001
0000
,
1000
0010
0100
0000
0001
0100
0010
0000
,
1000
0000
0000
0000
0001
0000
0000
0000
0010
0000
0000
1000
0000
0000
0100
0000
,
0020
0000
0100
0030
0002
0000
1000
0003
,
2000
0000
0000
0000
0001
0000
3000
0000
0020
0000
0000
0030
0100
0000
1000
0000
,
0001
0000
1000
0000
0010
0100
0001
0000
,
1000
0000
0001
0000
0100
0010
1000
0000
,
0001
0100
0010
0000
,
1000
0001
0100
0000
,
0010
0000
1000
0000
0001
0100
0010
0000
,
0001
0000
1000
0000
0001
0010
1000
0000
,
0001
0010
0100
1000
,
0001
0010
0100
1001
,
0010
0100
0000
1000
,
0010
1000
0001
0100
0010
1000
0001
0000
,
0100
0010
1000
0001
,
1000
0000
0010
0000
0001
0100
0010
0000
,
1000
0001
0010
0100
,
0001
0000
1000
0000
0001
0100
0010
0000
,
1000
0010
0100
0000
0001
0100
0010
0000
,
2002
0000
0000
0000
0000
3003
0110
1001
,
0020
0030
0200
0000
0000
0300
0002
0000
,
0000
0003
2000
0000
0000
3000
0002
0003
,
0010
0100
0002
0000
0000
0003
2000
0000
,
0000
3000
0020
0000
0030
0000
0200
0300
,
0001
1000
0020
0000
0000
0030
0200
0000
,
0000
0300
0002
0000
0000
0003
2000
3000
,
0001
0100
0010
0000
1000
0010
0100
0000
,
0001
0010
0100
0000
0001
1000
0010
0000
,
0001
0000
0000
1000
0000
0000
0010
0000
0200
0000
0000
0000
0000
0000
0000
0000
,
0300
0000
0000
0001
0000
0000
1000
0000
0010
0000
0000
0000
0100
0000
0000
0000
,
0001
0000
0000
1000
0000
0000
0010
0000
0200
0000
0000
0000
0000
0000
0000
0000
,
0300
0000
0000
0001
0000
0000
1000
0000
0010
0000
0000
0000
0100
0000
0000
0000
,
0001
0000
0000
1000
0000
0000
0010
0000
0200
0000
0000
0000
0000
0000
0000
0000
,
0300
0000
0000
0001
0000
0000
1000
0000
0001
0000
0000
0000
0010
0000
0000
0000
,
1000
0000
0000
0001
0000
0000
0100
0000
0020
0000
0000
0000
0000
0000
0030
0000
,
0001
1000
0000
0000
0010
0000
0000
0100
0000
0000
0001
0000
1000
0000
0020
0000
,
0000
0030
0000
0000
0000
0000
0000
0000
0000
0000
0000
0000
0000
0000
0000
0000
;

//--------------- dance-single - XLev450X-ESP ----------------
#NOTES:
     dance-single:
     XLev450X:
     Hard:
     13:
     0,0,0,0,0:
0000
0000
0000
0000
,
0000
0000
0000
0000
,
0001
0010
0000
0100
0000
1000
0100
0000
0010
0000
0000
0001
0000
0000
0100
0000
,
0010
0000
0001
0010
0000
0100
1000
0000
0100
0000
0000
0010
0000
0000
0001
0000
,
0100
0001
0010
0100
1000
0000
0100
0000
0001
0000
0000
0100
0000
0000
0010
0000
,
0001
0010
0000
0100
1000
0001
0010
0000
1000
0000
0000
0100
0000
0000
0001
0000
,
1000
0001
0000
0100
0000
1000
0010
0000
0100
0000
0000
0001
0000
0000
0010
0000
,
1000
0000
0010
0001
0100
0000
1000
0000
0001
0000
0000
0010
0000
0000
0100
0000
,
0010
0001
0000
1000
0000
0010
0100
0000
1000
0000
0000
0010
0000
0000
0100
0000
,
0001
0000
0100
1000
0000
0010
0000
0000
0100
0000
0010
0001
0000
1000
0000
0000
,
0001
0000
0100
0010
1000
0000
0001
1000
0010
0000
0000
0100
0000
0000
0001
0000
,
1000
0001
0000
0010
0000
0000
0100
0000
0000
0000
0001
0000
0000
0000
1000
0000
,
0001
0010
0000
0100
0000
1000
0100
0000
0010
0000
0000
0001
0000
0000
0010
0000
,
0100
0001
0000
1000
0000
0000
0010
0000
0000
0000
0100
0000
0000
0000
0010
0000
,
0001
0100
0000
0010
0000
0001
0100
0000
0010
0000
0000
0001
0000
0000
0100
0000
,
0010
0000
1000
0010
0000
0001
0100
0000
0010
0000
0000
0100
0000
0000
0001
0000
,
1000
0000
0000
0000
0010
0000
0000
0000
1000
0100
0000
0010
0000
0000
1000
0000
,
0010
0000
0100
0000
0001
0000
0000
0000
1000
0000
0000
0100
0010
0000
0001
0000
,
0100
1000
0001
0100
0010
0000
0001
0000
1000
0000
0000
0010
0000
0000
0100
0000
,
0100
1000
0010
1000
0100
0000
0001
0000
1000
0000
0000
0010
0000
0000
0100
0000
,
0010
0000
1000
0001
0100
0000
0010
1000
0001
0000
0100
0000
0010
0000
1000
0000
,
0001
0000
0100
0001
0100
0000
1000
0010
1000
0000
0010
0000
0100
0000
0000
0000
,
0001
0000
1000
0000
0001
0100
0000
0000
0010
0000
1000
0000
0001
0010
0000
0000
,
0010
0000
1000
0000
0001
1000
0000
0000
0010
0000
1000
0000
0010
0001
0000
0000
,
0100
0000
0001
0010
1000
0000
0010
0001
1000
0000
0100
0010
0001
0000
0010
0000
,
1000
0000
0001
1000
0100
0000
0010
0001
1000
0001
0100
1000
0001
0000
1000
0100
,
0010
0000
0001
0100
0010
0000
1000
0100
0001
0000
0010
0000
1000
0000
0010
0000
,
0100
0000
1000
0100
0001
0000
0001
0010
1000
0000
0010
0000
0100
0000
0001
0000
,
0010
0000
0001
0010
1000
0000
0100
0000
0001
0000
0010
1000
0100
0000
1000
0000
,
0001
0000
1000
0000
0010
0000
0001
0000
0100
0000
0000
1000
0000
0000
0001
0000
,
0010
0000
0100
0000
0001
0010
0000
0000
1000
0000
0010
0000
0100
1000
0000
0000
,
0001
0000
0010
0000
1000
0000
0001
0000
0100
0000
0000
0010
0000
0000
1000
0000
,
0001
0100
0010
1000
0001
0010
0100
0001
,
0010
0000
0001
0010
0100
0010
0001
0000
1000
0000
0001
0000
0110
0000
1001
0000
,
0001
0000
1000
0001
0010
0000
0100
0010
0000
0000
0001
1000
0010
0000
1000
0100
,
0000
0000
0001
0010
0100
0000
0010
0100
0000
0000
0001
1000
0010
0000
1000
0001
,
0010
0000
0100
0010
0001
0000
1000
0010
0000
0000
0010
0001
0100
0000
1000
0001
,
0000
0000
0001
1000
0010
0000
0100
0010
0000
0000
0001
0010
1000
0000
0010
1000
,
0100
0000
0001
0010
1000
0000
0010
0001
0000
0000
0100
1000
0001
0000
1000
0100
,
0000
0000
0010
0001
0100
0000
0001
0010
0000
0000
1000
0100
0010
0000
0100
1000
,
0001
0010
0001
0000
0100
1000
0100
0000
0010
0100
0010
0000
1000
0001
1000
0000
,
0100
0001
0100
0000
1000
0010
1000
0000
0100
0001
0010
0000
1000
0010
0100
0000
,
0001
0000
0000
1000
0000
0000
0010
0000
0200
0000
0000
0000
0000
0000
0000
0000
,
0300
0000
0000
0010
0000
0000
0100
0000
0001
0000
0000
0000
1000
0000
0000
0000
,
0011
0000
0000
0100
0000
0000
1000
0000
0020
0000
0000
0000
0000
0000
0000
0000
,
0030
0000
0000
1000
0000
0000
0010
0000
0100
0000
0000
0000
0010
0000
0000
0000
,
0101
0000
0000
1000
0000
0000
0010
0000
0200
0000
0000
0000
0000
0000
0000
0000
,
0300
0000
0000
0010
0000
0000
0100
0000
0001
0000
0000
0000
1000
0000
0000
0000
,
1010
0000
0000
0100
0000
0000
0001
0000
2000
0000
0000
0000
0000
0000
3000
0000
,
0100
0001
0000
0000
1000
0000
0000
0010
0000
0000
0100
0001
0010
0000
2200
0000
,
0000
3300
0000
0000
0000
0000
0000
0000
0000
0000
0000
0000
0000
0000
0000
0000
;

//--------------- dance-single - XLev450X Type MAX-CSP ----------------
#NOTES:
     dance-single:
     XLev450X Type MAX:
     Challenge:
     17:
     0,0,0,0,0:
0000
0000
0000
0000
,
0000
0000
0000
0000
,
0010
0100
0010
1000
0100
0010
0100
0010
0001
1000
0100
1000
0100
0010
0001
0100
,
0001
1000
0010
0100
0010
1000
0010
0100
0001
0100
0010
0100
0010
1000
0010
1000
,
0001
0010
0001
0100
0001
1000
0010
1000
0010
0100
0001
0010
0100
1000
0100
1000
,
0100
0010
0001
0100
0010
0100
0010
0100
0001
0010
0100
1000
0010
1000
0100
1000
,
0010
0100
0001
1000
0100
0010
0001
0010
0100
0010
0100
1000
0010
0100
0001
0010
,
0100
1000
0010
1000
0010
1000
0100
0010
0100
1000
0001
1000
0001
0010
0100
0010
,
0100
0010
0001
0100
0010
1000
0010
1000
0010
0100
0001
0100
0010
1000
0010
1000
,
0010
0100
0001
0010
0001
1000
0010
0100
0010
0100
0001
1000
0100
1000
0010
1000
,
0100
0010
0100
1000
0010
0100
0010
0100
0010
1000
0100
0010
0100
1000
0001
0100
,
0001
1000
0100
0010
0001
1000
0100
1000
0001
0010
0001
1000
0010
1000
0001
0010
,
0001
0010
0001
0100
0010
1000
0001
0010
0100
0010
0001
0100
0001
0010
0001
0100
,
0010
1000
0001
1000
0100
1000
0100
0010
0100
1000
0010
0100
0010
0100
0010
1000
,
0100
0010
0100
0010
0100
1000
0001
0100
0001
0100
0001
0010
0100
1000
0001
0100
,
0001
0010
0001
1000
0010
1000
0010
1000
0001
0010
0001
0010
0100
1000
0001
0010
,
0001
0100
0010
1000
0100
0010
0001
1000
0100
1000
0100
0010
0001
1000
0010
1000
,
0100
0010
0001
0100
0010
1000
0100
1000
0010
0100
0001
1000
0010
1000
0100
1000
,
0001
0100
0001
0100
0001
0010
0100
1000
0001
1000
0100
0010
0100
1000
0010
0100
,
0010
1000
0010
1000
0100
1000
0001
0100
0010
0100
0001
1000
0001
1000
0001
0100
,
0010
1000
0001
1000
0010
1000
0100
0010
0100
0010
0001
0100
0001
0010
0100
1000
,
0100
0010
0001
0100
0010
1000
0001
0010
0001
1000
0001
1000
0010
1000
0010
0100
,
0001
0010
0100
0010
0001
0100
0010
0100
0001
1000
0001
1000
0100
0010
0001
0100
,
0001
0010
0001
1000
0010
0100
0001
0100
0010
0100
0001
0010
0100
0010
0001
0100
,
0001
1000
0001
0010
0100
0010
0100
1000
0001
0100
0010
1000
0001
0100
0010
1000
,
0100
0010
0001
1000
0100
0010
0001
1000
0100
0010
0001
0010
1100
0000
1001
0000
,
0010
1000
0001
0100
0001
0100
0001
0010
0100
1000
0001
0100
0010
1000
0001
1000
,
0001
0100
0010
0100
0001
1000
0100
1000
0001
0010
0001
0010
0001
1000
0100
1000
,
0001
0010
0100
0010
0001
0100
0010
0100
0001
0100
0001
0010
0100
0010
0100
1000
,
0001
1000
0100
0010
0100
1000
0001
0010
0001
0010
0001
0100
0010
0100
0010
1000
,
0001
0100
0010
0100
0001
1000
0010
1000
0001
0010
0001
0010
0001
0100
0010
0100
,
0010
1000
0001
0010
0001
1000
0001
1000
0100
1000
0100
0010
0001
0010
0001
0010
,
0100
1000
0010
1000
0010
1000
0100
0010
0001
0100
0010
0100
0001
0100
0010
1000
,
0100
0010
0001
0010
0100
1000
0100
0010
0001
0100
0010
0100
1001
0000
1001
0000
,
0010
0100
0010
1000
0001
0010
0001
0100
0010
0100
0001
0010
0100
1000
0100
1000
,
0001
0010
0100
0010
0100
1000
0010
0100
0001
0010
0100
0010
0100
1000
0010
1000
,
0100
0010
0100
0010
0100
1000
0001
1000
0001
1000
0010
0100
0010
0100
0001
0010
,
0100
0010
0001
0100
0010
0100
0010
0100
0001
1000
0010
0100
0001
1000
0001
1000
,
0010
0100
0010
1000
0001
0100
0001
0100
0001
0010
0100
0010
0100
1000
0010
1000
,
0100
1000
0010
0100
0010
1000
0010
0100
0001
0100
0010
1000
0010
0100
0010
0100
,
0001
0010
0001
0000
0100
1000
0100
0000
0010
0100
0010
0000
1000
0001
1000
0000
,
0100
0001
0100
0000
1000
0010
1000
0000
0100
0001
0010
0000
1000
0010
0100
0000
,
0100
1000
0001
0010
0100
0010
0100
0010
0001
1000
0010
1000
0010
0100
0010
0100
,
0001
1000
0100
0010
0100
1000
0010
1000
0010
1000
0100
0010
0100
0010
0100
1000
,
0010
0100
0010
0100
0001
0010
0100
0010
0100
0010
0001
1000
0010
0100
0001
0010
,
0001
0010
0100
1000
0100
1000
0010
1000
0100
0010
0001
0010
0001
0010
0100
1000
,
0100
0010
0100
1000
0001
0010
0001
1000
0100
1000
0001
1000
0001
0010
0100
0010
,
0100
1000
0001
0100
0001
1000
0100
0010
0001
1000
0100
1000
0100
1000
0010
0100
,
0001
1000
0100
0010
0100
1000
0010
0100
0010
0100
0010
1000
0001
0100
0010
0100
,
0010
0100
0001
1000
0010
0100
0010
1000
0010
0100
0001
0010
0100
0010
0202
0000
,
0000
0303
0000
0000
0000
0000
0000
0000
0000
0000
0000
0000
0000
0000
0000
0000
;
