#TITLE:Crazy Shuffle (C-Show Remix);
#ARTIST:Yooh;
#MUSIC:Crazy Shuffle (C-Show Remix).ogg;
#BANNER:Crazy Shuffle (C-Show Remix).png;
#BACKGROUND:Crazy Shuffle (C-Show Remix)-bg.png;
#SAMPLESTART:56.551;
#SAMPLELENGTH:15;
#OFFSET:-0.344;
#BPMS:0=174;
#BGSTAGE:4;

//--------------- dance-single - XLev450X-bSP ----------------
#NOTES:
     dance-single:
     XLev450X:
     Beginner:
     6:
     0,0,0,0,0:
0000
0000
0000
0000
,
0000
0000
0000
0000
,
0000
0000
0000
0000
,
0000
0000
0000
0000
,
0000
0000
0000
0000
,
0000
0000
0000
0000
,
0000
0000
0000
0000
,
0000
0000
0000
0000
,
0000
0000
0000
0001
,
1000
0001
0000
0010
,
1000
0010
0000
0100
,
0010
0100
0000
0001
,
0010
0001
0000
1000
,
0001
0100
0001
1000
,
0010
1000
0000
0010
,
0100
0001
1000
0001
,
1000
0001
0000
1000
,
1000
0010
0000
0100
,
0100
0001
0000
0010
,
0010
0100
0000
1000
,
0010
1000
0000
0001
,
0010
0001
0000
0010
,
1000
0010
0000
0100
,
0001
1000
0001
0100
,
0010
1000
0000
0001
,
0000
0001
0000
0001
,
0000
0000
0000
1000
,
0000
1000
0000
1000
,
0000
0000
0000
0010
,
0000
0010
0000
0010
,
0000
0000
0000
0100
,
0000
0100
0000
0100
,
0000
0000
0000
0001
,
1000
0001
0000
0010
,
0100
0010
0000
1000
,
0100
1000
0000
0001
,
0100
0001
0000
0001
,
1000
0001
0000
0010
,
1000
0010
0000
0001
,
0010
0100
1000
2002
,
0000
0000
3003
0001
,
1000
0001
0100
0010
,
1000
0001
0000
0100
,
0010
0100
0000
1000
,
0010
1000
0000
0001
,
0001
0100
0001
1000
,
0001
0100
0000
0010
,
0100
0010
0000
0001
,
1000
0010
0000
0100
,
0100
0001
0000
0010
,
0010
0100
0000
1000
,
1000
0100
0000
0010
,
0001
0010
0000
1000
,
0001
1000
0000
0010
,
1000
0010
0000
0100
,
0010
0100
0000
2002
,
0000
0000
3003
1000
,
0000
1000
0000
1000
,
0000
0000
0000
0001
,
0000
0001
0000
0001
,
0000
0000
0000
0100
,
0000
0100
0000
0100
,
0000
0000
0000
0010
,
0000
0010
0000
0010
,
0000
0000
0000
1000
,
0001
1000
0000
0100
,
0010
0100
0000
0001
,
0010
0001
0000
1000
,
0010
1000
0000
1000
,
0001
1000
0000
0100
,
0001
0100
0000
1000
,
0100
0010
0001
2002
,
0000
0000
3003
1000
,
0001
1000
0010
0100
,
0001
1000
0000
0010
,
0100
0010
0000
0001
,
0100
0001
0000
1000
,
1000
0010
1000
0001
,
1000
0010
0000
0100
,
0010
0100
0000
1000
,
0001
0100
0000
0010
,
0010
1000
0000
0100
,
0100
0010
0000
0001
,
0001
0010
0000
0100
,
1000
0100
0000
0001
,
1000
0001
0000
0100
,
0001
0100
0000
0010
,
0100
0010
0000
2002
,
0000
0000
3003
0001
,
0000
0001
0000
1000
,
0000
1000
0000
0010
,
0000
0010
0000
0100
,
0000
0100
0000
0010
,
0001
0010
0000
0100
,
1000
0100
0000
0010
,
0100
0010
0000
2002
,
0000
0000
3003
1000
,
0000
0001
0000
1000
,
0000
0000
0000
0010
,
0000
1000
0000
0010
,
0000
0000
0000
0100
,
0000
0001
0000
0100
,
0000
0000
0000
1000
,
0000
0001
0000
1000
,
0000
0000
0000
1001
;

//--------------- dance-single - XLev450X-BSP ----------------
#NOTES:
     dance-single:
     XLev450X:
     Easy:
     10:
     0,0,0,0,0:
0000
0000
0000
0000
,
0000
0000
0000
0000
,
0000
0000
0000
0000
,
0000
0000
0000
0000
,
0000
0000
0000
0000
,
0000
0000
0000
0000
,
0000
0000
0000
0000
,
0000
0000
0000
0000
,
0000
0000
0000
0001
,
1000
0001
0000
0010
,
1000
0100
0000
0001
,
0010
0100
0000
0001
,
0010
1000
0000
0010
,
0010
1000
0000
0001
,
0001
1000
0000
0100
,
0010
0100
0001
1000
,
0001
1000
0000
0010
,
0010
1000
0100
0001
,
0010
0100
0000
0010
,
1000
0001
1000
0100
,
0001
1000
0000
0010
,
0010
1000
0100
0010
,
0001
0010
0000
1000
,
1000
0001
0100
1000
,
0001
0000
0000
0000
1000
0000
0000
0000
0000
0000
0000
0000
0001
0000
0000
1000
,
0000
0000
0001
0000
0000
0100
0000
0000
0001
0000
0000
0000
0010
0000
0000
1000
,
0000
0000
0010
0000
0000
0100
0000
0000
0001
0000
0000
0000
0001
0000
0000
1000
,
0000
0000
0100
0000
0000
0001
0000
0000
1000
0000
0010
0000
0100
0000
0000
0001
,
0000
0000
1000
0000
0000
0001
0000
0000
0100
0000
0000
0000
0001
0000
0000
1000
,
0000
0000
0010
0000
0000
0100
0000
0000
0001
0000
1000
0000
0010
0000
0000
0100
,
0000
0000
1000
0000
0000
0001
0000
0000
1000
0000
0001
0000
1000
0000
0000
0100
,
0000
0000
0010
0000
0000
0001
0000
0000
0100
0000
1000
0000
0001
0000
0000
1000
,
0000
0000
0010
0000
0000
0100
0000
0000
1000
0000
0000
0000
0001
0000
0000
0000
,
1000
0010
0100
0001
,
0010
1000
0000
0010
,
0010
1000
0100
0001
,
0010
0100
0000
0001
,
0001
1000
0010
0100
,
1000
0000
0001
0000
1000
0000
0010
1000
,
0010
0000
0001
0010
0001
0000
2002
0000
,
0000
0000
3003
0001
,
1000
0010
0100
0001
,
0010
1000
0000
0001
,
0001
1000
0100
0010
,
0100
0001
0000
0100
,
0100
0001
1000
0010
,
1000
0010
0000
0001
,
0001
1000
0001
0100
,
1000
0001
0000
0001
,
0001
0000
1000
0001
1000
0000
0010
0000
,
0100
0000
0010
0100
0010
0000
0001
0000
,
0010
0000
0001
0010
0001
0000
0100
0000
,
1000
0000
0010
1000
0010
0000
0001
1000
,
0001
0000
0010
1000
0010
0000
0010
0100
,
0010
0000
0001
0010
0001
0000
0001
1000
,
0001
0000
0001
0100
0001
0000
2002
0000
,
0000
0000
0000
0000
0000
0000
0000
0000
0000
0000
3003
0000
1000
0000
0000
0001
,
0000
0000
1000
0000
0000
0010
0000
0000
1000
0000
0000
0000
0100
0000
0000
0001
,
0000
0000
0100
0000
0000
0010
0000
0000
1000
0000
0000
0000
1000
0000
0000
0001
,
0000
0000
0010
0000
0000
1000
0000
0000
0001
0000
0100
0000
0010
0000
0000
1000
,
0000
0000
0001
0000
0000
1000
0000
0000
0010
0000
0000
0000
1000
0000
0000
0001
,
0000
0000
0100
0000
0000
0010
0000
0000
1000
0000
0001
0000
0100
0000
0000
0010
,
0000
0000
0001
0000
0000
1000
0000
0000
0001
0000
1000
0000
0001
0000
0000
0010
,
0000
0000
0100
0000
0000
1000
0000
0000
0010
0000
0001
0000
1000
0000
0000
0001
,
0000
0000
0100
0000
0000
0010
0000
0000
0001
0000
0000
0000
1000
0000
0000
0000
,
0001
0100
0010
1000
,
0100
0001
0000
0100
,
0100
0001
0010
1000
,
0100
0010
0000
1000
,
1000
0001
0100
0010
,
0001
0000
1000
0000
0001
0000
0100
0001
,
0100
0000
1000
0100
1000
0000
2002
0000
,
0000
0000
3003
1000
,
0001
0100
0010
1000
,
0100
0001
0000
1000
,
1000
0001
0010
0100
,
0010
1000
0000
0010
,
0010
1000
0001
0100
,
0001
0100
0000
1000
,
1000
0001
1000
0010
,
0001
1000
0000
1000
,
1000
0000
0001
1000
0001
0000
0100
0000
,
0010
0000
0100
0010
0100
0000
1000
0000
,
0100
0000
1000
0100
1000
0000
0010
0000
,
0001
0000
0100
0001
0100
0000
1000
0001
,
1000
0000
0100
0001
0100
0000
0100
0010
,
0100
0000
1000
0100
1000
0000
1000
0001
,
1000
0000
1000
0010
1000
0000
2002
0000
,
0000
0000
0000
0000
0000
3003
0001
0000
,
1000
0001
0000
0010
,
0100
0010
0000
1000
,
0100
1000
0000
0010
,
0010
0100
0000
0001
,
0000
1000
0001
1000
,
0000
0010
1000
0010
,
0000
0001
0100
2002
,
0000
0000
0000
0000
0000
3003
0001
0000
,
1000
0010
0000
0100
,
0010
0001
0000
0100
,
0100
1000
0000
0001
,
1000
0001
0000
0010
,
1000
0100
0010
0001
,
0010
0100
0000
0001
,
1000
0001
0000
0220
,
0000
0000
0330
1001
;

//--------------- dance-single - XLev450X-DSP ----------------
#NOTES:
     dance-single:
     XLev450X:
     Medium:
     14:
     0,0,0,0,0:
0000
0000
0000
0000
,
0000
0000
0000
0000
,
0000
0000
0000
0000
,
0000
0000
0000
0000
,
0000
0000
0000
0000
,
0000
0000
0000
0000
,
0000
0000
0000
0000
,
0000
0000
0000
0000
,
0000
0000
0000
0001
,
1000
0000
0010
0100
0010
0000
0001
0000
,
0010
0000
0010
1000
0010
0000
0001
0000
,
0100
0000
0001
1000
0001
0000
0001
0000
,
0100
0000
1000
0001
1000
0000
0010
0000
,
0100
0000
0010
0001
0010
0000
0001
0000
,
0100
0000
1000
1000
0001
0000
0100
0000
,
0010
0000
1000
0010
1000
0000
0001
0010
,
0001
0000
0010
0100
0010
0000
0001
0000
,
1000
0100
0001
0010
,
0100
0000
0010
1000
0010
0000
0001
0000
,
1000
0100
0001
1000
,
0010
0000
0010
0100
0010
0000
0001
0000
,
1000
0001
1000
0010
,
1000
0000
0010
1000
0010
0000
0001
0010
,
0001
0000
0100
0001
1000
0000
0001
1000
,
0010
0000
0100
0000
0001
0000
1000
0000
0001
0000
0000
0000
0010
0000
0000
1000
,
0000
0000
0001
0000
0000
0100
0000
0000
0010
0000
1000
0000
0001
0000
0000
0100
,
0000
0000
0010
0000
0000
1000
0000
0000
0001
0000
0100
0000
0010
0000
0000
1000
,
0000
0000
0001
0000
0000
0100
0000
0000
0010
0000
0001
0000
1000
0000
0000
0010
,
0000
0000
0100
0000
0000
1000
0000
0000
0001
0000
0000
0000
0010
0000
0000
0100
,
0000
0000
0001
0000
0000
1000
0000
0000
0010
0000
1000
0000
0001
0000
0000
1000
,
0000
0000
0010
0000
0000
0100
0000
0000
0001
0000
1000
0000
0010
0000
0000
0100
,
0000
0000
0001
0000
0000
1000
0000
0000
0010
0000
1000
0000
0010
0000
0000
0100
,
0000
0000
0001
0000
0000
1000
0000
0000
0001
0000
0000
0000
0010
0000
0000
0000
,
1000
0000
0001
1000
0001
0000
0010
0000
,
0001
0000
0100
0010
0100
0000
0010
0000
,
0001
0000
0010
0001
0010
0000
1000
0000
,
0001
0000
1000
0001
1000
0000
0010
0100
,
0010
0000
0001
0010
0001
0000
0010
1000
,
0010
0000
0010
0100
0010
0000
0001
1000
,
0010
0100
0010
0001
0010
0100
0000
0001
,
1000
0010
0100
0001
1000
0000
0001
0000
,
1000
0000
0010
1000
0100
0010
0001
0010
,
0100
1000
0001
1000
0001
0000
1000
0010
,
0100
0010
0001
0010
0100
0010
1000
0010
,
0001
0010
1000
0100
0001
0000
0001
1000
,
0001
0000
0010
1000
0010
0000
0010
0100
,
0010
0000
0001
0010
0001
0000
0001
1000
,
0100
0000
0000
0000
0000
0000
0000
0000
0000
0000
0000
0000
0001
0000
0000
0000
0000
0000
0000
0000
0000
0000
0000
0000
0010
0000
0000
0000
0000
0000
0000
0000
0000
0000
0000
0000
0100
0000
0000
0000
0000
0000
0000
0000
0000
0000
0000
0000
0001
0000
0000
0000
0000
0000
0000
0000
0000
0000
0000
0000
0000
0000
0000
0000
0000
0000
0000
0000
0000
0000
0000
0000
1001
2000
0000
0000
0000
0000
0000
0000
0000
0000
0000
0000
0000
0000
0000
0000
0000
0000
0000
0000
0000
0000
0000
0000
,
0001
0000
0001
0000
0001
3001
1000
0010
,
0100
0010
0001
0010
0100
0000
0010
1000
,
0010
0000
0010
0100
0010
0000
0001
0000
,
1000
0000
0010
1000
0010
0000
1000
0100
,
0001
0010
0100
1000
0001
0000
1000
0000
,
0010
0000
0100
0010
0001
0000
0100
0000
,
1000
0000
0001
1000
0001
0000
0010
1000
,
0010
0000
0001
0010
0100
0000
1002
0000
,
1000
0000
0000
0000
1000
0000
0000
0000
2000
0000
3003
0000
0010
0000
0000
1000
,
0000
0000
0001
0000
0000
0100
0000
0000
0010
0000
1000
0000
0001
0000
0000
0100
,
0000
0000
0010
0000
0000
1000
0000
0000
0001
0000
0100
0000
0010
0000
0000
1000
,
0000
0000
0001
0000
0000
0100
0000
0000
0010
0000
0001
0000
1000
0000
0000
0010
,
0000
0000
0100
0000
0000
1000
0000
0000
0001
0000
0000
0000
0010
0000
0000
0100
,
0000
0000
0001
0000
0000
1000
0000
0000
0010
0000
1000
0000
0001
0000
0000
1000
,
0000
0000
0010
0000
0000
0100
0000
0000
0001
0000
1000
0000
0010
0000
0000
0100
,
0000
0000
0001
0000
0000
1000
0000
0000
0010
0000
1000
0000
0010
0000
0000
0100
,
0000
0000
0001
0000
0000
1000
0000
0000
0001
0000
0000
0000
0010
0000
0000
0000
,
1000
0000
0001
1000
0001
0000
0010
0000
,
0001
0000
0100
0010
0100
0000
0010
0000
,
0001
0000
0010
0001
0010
0000
1000
0000
,
0001
0000
1000
0001
1000
0000
0010
0100
,
0010
0000
0001
0010
0001
0000
0010
1000
,
0010
0000
0010
0100
0010
0000
0001
1000
,
0010
0100
0010
0001
0010
0100
0000
0001
,
1000
0010
0100
0001
1000
0000
0001
0000
,
1000
0000
0010
1000
0100
0010
0001
0010
,
0100
1000
0001
1000
0001
0000
1000
0010
,
0100
0010
0001
0010
0100
0010
1000
0010
,
0001
0010
1000
0100
0001
0000
0001
1000
,
0001
0000
0010
1000
0010
0000
0010
0100
,
0010
0000
0001
0010
0001
0000
0001
1000
,
0100
0000
0000
0000
0000
0000
0000
0000
0000
0000
0000
0000
0001
0000
0000
0000
0000
0000
0000
0000
0000
0000
0000
0000
0010
0000
0000
0000
0000
0000
0000
0000
0000
0000
0000
0000
0100
0000
0000
0000
0000
0000
0000
0000
0000
0000
0000
0000
0001
0000
0000
0000
0000
0000
0000
0000
0000
0000
0000
0000
0000
0000
0000
0000
0000
0000
0000
0000
0000
0000
0000
0000
1001
2000
0000
0000
0000
0000
0000
0000
0000
0000
0000
0000
0000
0000
0000
0000
0000
0000
0000
0000
0000
0000
0000
0000
,
0001
0000
0001
0000
0001
3001
1000
0010
,
0100
0010
0001
0010
0100
0000
0010
1000
,
0010
0000
0010
0100
0010
0000
0001
0000
,
1000
0000
0010
1000
0010
0000
1000
0100
,
0001
0010
0100
1000
0001
0000
1000
0000
,
0010
0000
0100
0010
0001
0000
0100
0000
,
1000
0000
0001
1000
0001
0000
0010
1000
,
0010
0000
0001
0010
0100
0000
1002
0000
,
1000
0000
1000
0000
2000
3003
0010
0000
,
1000
0100
0001
0010
,
0100
1000
0000
0001
,
0001
1000
0100
0001
,
0100
0010
0000
0010
,
0010
0100
0000
0001
,
0010
0001
0000
1000
,
0010
1000
0000
2002
,
0000
0000
0000
0000
0000
3003
0001
0000
,
1000
0001
0000
0010
,
1000
0010
0000
0100
,
0100
0001
0000
1000
,
0001
1000
0000
0100
,
0000
0010
1000
0010
,
0000
0001
0010
0001
,
0100
1000
0001
1000
,
0000
0001
1000
1001
;

//--------------- dance-single - XLev450X-ESP ----------------
#NOTES:
     dance-single:
     XLev450X:
     Hard:
     16:
     0,0,0,0,0:
0000
0000
0000
0000
,
0000
0000
0000
0000
,
0000
0000
0000
0000
,
0000
0000
0000
0000
,
0000
0000
0000
0000
,
0000
0000
0000
0000
,
0000
0000
0000
0000
,
0000
0000
0000
0000
,
0000
0000
0000
0001
,
1000
0000
0010
1000
0010
0000
0001
0000
,
0010
0000
0100
0001
0100
0000
0001
0000
,
1000
0000
0001
1000
0001
0000
0010
1000
,
0010
0000
0010
0001
0010
0000
0010
0000
,
0001
0000
1000
0000
0010
0000
1000
0100
,
0001
0010
0100
1000
0001
0000
0001
1000
,
0010
1000
0100
0010
0001
0010
0100
1000
,
0001
0010
1000
0001
1000
0000
0001
0000
,
1000
0000
0010
1000
0100
0010
0001
0000
,
0010
0000
0100
0001
0100
1000
0001
0000
,
0010
0000
1000
0010
1000
0100
0010
0000
,
0001
0000
0010
0001
0010
0000
0001
0100
,
0001
0000
1000
0010
1000
0000
0100
0010
,
0100
0000
0001
0010
0001
0000
0001
1000
,
0010
0100
0001
0010
0100
1000
0001
1000
,
0010
0000
0100
0000
0001
0000
0100
0000
1000
0000
0001
0000
0010
0000
0000
0001
,
0000
0000
1000
0000
0000
0010
0000
0000
0100
0000
1000
0001
1000
0000
0000
0010
,
0000
0000
0100
0000
0000
1000
0000
0000
0001
0000
0100
0000
0010
0000
0000
0001
,
0000
0000
1000
0000
0000
0010
0000
0000
1000
0000
0100
0000
0010
0000
0000
0001
,
0000
0000
0010
0000
0000
0100
0000
0000
1000
0000
0001
1000
0001
0000
0000
0010
,
0000
0000
1000
0000
0000
0100
0000
0000
0001
0000
0100
0010
0100
0000
0000
0001
,
0000
0000
1000
0000
0000
0010
0000
0000
1000
0000
0010
0100
0010
0000
0000
0001
,
0000
0000
0010
0000
0000
0100
0000
0000
1000
0000
0001
1000
0001
0000
0000
1000
,
0000
0000
0010
0000
0000
0100
0000
0000
0001
0000
0000
0000
0001
0000
1000
0000
,
0010
0001
0100
1000
0001
1000
0010
1000
,
0100
0000
0010
0000
0001
0000
0010
0000
0001
0000
0100
0001
0100
0000
0001
0000
,
1000
0001
0010
1000
0010
0001
1000
0100
,
0010
0000
0001
0000
0010
0000
0001
0000
0010
0000
1000
0001
1000
0000
0010
0100
,
0010
0000
1000
0100
1000
0000
0010
0001
0010
0000
0100
0010
0100
0000
0001
1000
,
0001
0000
0001
0100
1000
0000
1000
0001
1000
0000
1000
0100
0001
1000
0010
1000
,
0001
0100
0001
1000
0010
0100
1000
0001
1000
0001
0010
1000
0100
0000
0001
0010
,
0100
1000
0001
0010
0100
1000
0001
0010
0100
1000
0100
0010
0001
0000
0100
0000
,
1000
0000
0010
1000
0100
0010
0001
0010
,
0100
1000
0001
1000
0001
0000
0010
1000
,
0100
0010
0001
0010
0100
1000
0001
1000
,
0001
1000
0010
1000
0010
0000
0001
1000
,
1001
0000
0010
1000
1010
0000
0001
0100
,
0101
0000
0100
0010
0110
0000
0001
0010
,
1000
0000
0100
0000
0001
0000
0010
0000
1000
0000
0001
0000
1000
0001
1000
0100
,
0001
0000
0010
0000
0100
0000
0001
0100
1000
0000
0001
0000
1000
0000
0010
0000
,
1000
0100
0010
0001
0010
0100
1000
0010
,
1000
0010
0100
0001
0010
0000
0001
0100
,
0001
1000
0001
1000
0100
0001
0010
1000
,
0100
0010
0001
0010
1000
0000
0010
1000
,
0100
0001
0010
0001
0010
0000
0100
1000
,
0001
0100
1000
0100
0001
0000
0001
1000
,
0010
0100
0010
1000
0001
0010
0200
0000
,
0002
0000
0303
0000
1000
0000
0001
0000
1000
0000
0000
0000
0001
0000
0000
1000
,
0000
0000
0100
0000
0000
0010
0000
0000
0001
0000
1000
0000
0001
0000
0000
0100
,
0000
0000
1000
0000
0000
0001
0000
0000
0010
0000
1000
0000
0010
0000
0000
0100
,
0000
0000
0001
0000
0000
0010
0000
0000
0100
0000
1000
0001
1000
0000
0000
0001
,
0000
0000
1000
0000
0000
0010
0000
0000
0100
0000
0001
0000
0100
0000
0000
1000
,
0000
0000
0001
0000
0000
0100
0000
0000
1000
0000
0100
0001
0100
0000
0000
0010
,
0000
0000
0100
0000
0000
1000
0000
0000
0001
0000
1000
0000
0001
0000
0000
0010
,
0000
0000
0100
0000
0000
1000
0000
0000
0001
0000
1000
0100
0001
0000
0000
0100
,
0000
0000
1000
0000
0000
0001
0000
0000
1000
0000
0100
0000
0001
0000
1000
0000
,
0010
0001
0100
1000
0001
1000
0010
1000
,
0100
0000
0010
0000
0001
0000
0010
0000
0001
0000
0100
0001
0100
0000
0001
0000
,
1000
0001
0010
1000
0010
0001
1000
0100
,
0010
0000
0001
0000
0010
0000
0001
0000
0010
0000
1000
0001
1000
0000
0010
0100
,
0010
0000
1000
0100
1000
0000
0010
0001
0010
0000
0100
0010
0100
0000
0001
1000
,
0001
0000
0001
0100
1000
0000
1000
0001
1000
0000
1000
0100
0001
1000
0010
1000
,
0001
0100
0001
1000
0010
0100
1000
0001
1000
0001
0010
1000
0100
0000
0001
0010
,
0100
1000
0001
0010
0100
1000
0001
0010
0100
1000
0100
0010
0001
0000
0100
0000
,
1000
0000
0010
1000
0100
0010
0001
0010
,
0100
1000
0001
1000
0001
0000
0010
1000
,
0100
0010
0001
0010
0100
1000
0001
1000
,
0001
1000
0010
1000
0010
0000
0001
1000
,
1001
0000
0010
1000
1010
0000
0001
0100
,
0101
0000
0100
0010
0110
0000
0001
0010
,
1000
0000
0100
0000
0001
0000
0010
0000
1000
0000
0001
0000
1000
0001
1000
0100
,
0001
0000
0010
0000
0100
0000
0001
0100
1000
0000
0001
0000
1000
0000
0010
0000
,
1000
0100
0010
0001
0010
0100
1000
0010
,
1000
0010
0100
0001
0010
0000
0001
0100
,
0001
1000
0001
1000
0100
0001
0010
1000
,
0100
0010
0001
0010
1000
0000
0010
1000
,
0100
0001
0010
0001
0010
0000
0100
1000
,
0001
0100
1000
0100
0001
0000
0001
1000
,
0010
0100
0010
1000
0001
0010
0200
0000
,
0002
0000
0303
0000
1000
0000
0001
0000
1000
0000
0000
0000
0001
1000
0001
0000
,
0010
0000
1000
0001
0100
1000
0001
0000
,
0010
1000
0100
0010
0001
0010
0100
0000
,
0001
1000
0001
1000
0100
0010
0001
0000
,
0010
1000
0100
0010
0001
0010
0001
0000
,
1000
0000
0001
1000
0001
0000
0100
1000
,
0001
1000
0010
0000
0010
0000
0100
0001
,
0100
0000
0001
1000
0001
0000
0010
1000
,
0100
0001
0010
0100
1000
0001
1000
0000
,
0001
0000
1000
0100
0001
0000
0010
0000
,
1000
0000
0010
1000
0010
0000
0100
0000
,
1000
0000
0001
0010
0001
0000
0100
1000
,
0100
0000
0001
0100
0001
0000
0010
0000
,
1000
0000
0100
0000
0001
0000
0010
0100
,
0010
0000
1000
0000
0001
0000
1000
0100
,
0010
0001
0010
0100
1000
0001
1000
0000
,
0001
0000
1000
0010
0100
0000
1001
0000
;
