#TITLE:Counting!;
#ARTIST:Kim;
#MUSIC:Counting!.ogg;
#BANNER:Counting!.png;
#BACKGROUND:Counting!-bg.png;
#SAMPLESTART:16.464;
#SAMPLELENGTH:15;
#SELECTABLE:YES;
#OFFSET:-0.054;
#BPMS:0=117;
#BGSTAGE:5;

//--------------- dance-single - XLev450X!-bSP ----------------
#NOTES:
     dance-single:
     XLev450X!:
     Beginner:
     1:
     0,0,0,0,0:
0000
0000
0000
0000
,
0000
0000
0000
0000
,
0000
0000
0000
0000
,
0000
0000
0000
0000
,
1000
0000
0001
0000
,
1000
0000
0000
0000
,
0010
0000
0100
0000
,
0010
0000
0000
0000
,
0001
1000
0001
0000
,
0100
1000
0010
0000
,
0100
0001
0010
0000
,
0100
0000
0001
0000
,
1000
0000
0001
0000
,
0100
0010
1000
0000
,
0010
0000
0001
0100
,
0010
0000
0001
0000
,
1001
0000
0000
0000
,
1001
0000
0000
0000
,
0010
0000
0100
0000
,
0010
0000
0000
0000
,
1000
0000
0001
0000
,
0100
0000
0000
0000
,
1000
0000
0010
0000
,
0100
0000
0000
0000
,
0001
0000
0000
0000
,
1000
0000
0000
0000
,
0010
0000
0100
0000
,
0001
0000
0000
0000
,
1000
0000
0001
0000
,
1000
0000
0000
0000
,
0010
0000
0010
0000
,
0010
0000
0000
0000
,
2002
3003
0000
0000
0000
0000
0000
0000
;

//--------------- dance-single - XLev450X!-BSP ----------------
#NOTES:
     dance-single:
     XLev450X!:
     Easy:
     4:
     0,0,0,0,0:
0000
0000
0000
0000
,
0000
0000
0000
0000
,
0000
0000
0000
0000
,
0000
0000
0000
0000
,
1000
0000
0001
0100
,
0010
0000
0001
0010
,
1000
0001
0100
0000
0001
0000
1000
0000
,
0010
1000
0010
0000
0202
0303
2020
3030
,
0010
0100
0001
0000
,
1000
0000
0001
0000
0100
0010
0100
0000
,
1000
0000
0001
0100
,
0010
0001
0010
0000
1000
0010
1000
0000
,
0100
0001
1000
0000
,
1000
0001
0010
0000
,
1000
0001
0100
0000
,
1000
0000
0010
0000
0100
0001
0100
0000
,
1000
0010
1000
0000
,
0010
0000
0100
0000
0001
0010
0001
0000
,
1000
0010
1000
0000
,
0001
0100
0010
0000
,
1000
1000
0001
0100
,
0010
1000
0001
0000
,
0100
0000
0001
0000
1000
0001
1000
0000
,
0010
0100
0001
0000
,
1000
0001
1000
0000
,
1000
0001
1000
0010
,
0100
0001
0100
0000
,
1000
0010
1000
0000
,
0001
0000
0100
0000
0001
1000
0001
0000
,
0100
0000
0001
0000
1000
0010
1000
0000
,
0100
0010
0100
0001
,
0100
0000
0010
0000
0001
0010
0001
0000
,
0200
0300
0000
0000
0000
0000
0000
0000
;

//--------------- dance-single - XLev450X!-DSP ----------------
#NOTES:
     dance-single:
     XLev450X!:
     Medium:
     9:
     0,0,0,0,0:
0000
0000
0000
0000
,
0000
0000
0000
0000
,
0000
0000
0000
0000
,
0000
0000
0000
0000
,
1000
0000
0000
0000
0001
0000
0000
0000
0100
0000
0000
0010
0000
0000
0100
0000
,
0001
0000
0000
0000
1000
0000
0000
0000
0001
0000
0000
0100
0000
0000
0010
0000
,
0100
0001
1000
0001
,
0010
0001
0010
0000
1000
0100
1000
0000
,
0001
0000
1000
0000
0010
0100
0010
0000
,
0010
0001
0010
0000
1000
0100
1000
0000
,
0001
1000
0001
0000
0100
0001
0100
0000
,
0010
0000
1000
0000
0001
0100
0010
0000
,
1000
0000
0001
0000
1000
0001
0100
0010
,
1000
0001
0001
1000
,
0010
0000
0100
0000
0001
1000
0010
0000
,
0100
0000
0001
0000
1000
0001
0100
0010
,
1000
0001
0100
0010
,
0001
0010
0001
0000
1000
0100
1000
0000
,
0010
0100
0010
0000
1000
0001
1000
0000
,
0010
0101
1000
1010
,
0010
0100
0010
0000
1000
0000
0001
0000
,
0100
0001
1000
0000
,
1000
0000
0001
0000
0100
0010
1000
0000
,
0001
0000
0100
0000
0010
1000
0001
0100
,
0010
0001
0001
1000
,
1000
0010
0100
0001
,
0001
0000
1000
0001
1000
0000
0100
0000
,
1000
0000
1000
0000
1000
0001
1000
0000
,
0010
0100
1000
0001
,
0100
0000
0010
0000
0001
0010
0001
0000
,
1000
0000
0001
0000
0100
0001
0100
0000
,
1000
0010
1000
0010
0100
0001
0100
0010
,
0200
0300
0000
0000
0000
0000
0000
0000
;

//--------------- dance-single - XLev450X!-ESP ----------------
#NOTES:
     dance-single:
     XLev450X!:
     Hard:
     14:
     0,0,0,0,0:
0000
0000
0000
0000
,
0000
0000
0000
0000
,
0000
0000
0000
0000
,
0000
0000
0000
0000
,
1000
0001
1000
0010
0100
0000
1001
0000
,
0010
0000
0001
0000
0010
0000
1000
0000
0001
0000
0000
0010
0000
0000
0100
0000
,
0001
1000
0010
1000
0001
0100
0010
0000
,
1000
0000
0000
0000
0000
0000
0001
0000
0000
0000
0000
0000
0100
0000
0000
0000
0000
0000
0010
0000
0000
0000
0000
0000
1000
0000
0000
0000
0000
0000
0001
0000
1000
0100
0001
0000
0010
0000
0000
0001
0000
0000
1000
0000
0000
0100
0000
0000
,
0010
1000
0001
0100
0001
0010
1000
0010
,
0001
0010
0001
0000
1000
0000
0010
0000
1000
0100
1000
0000
0010
0000
0100
0000
,
0010
0001
0010
0000
0100
0000
0010
0000
0100
0010
0100
0000
0001
0000
1000
0000
,
0010
0001
0100
0000
1001
0000
0000
0000
1000
0100
0001
0000
0110
0000
0000
0000
,
0010
1000
0010
0000
0100
0000
0001
0000
1000
0000
0001
1000
0010
0000
1000
0000
,
0001
0000
0000
1000
0000
0000
0010
0000
0100
0000
0001
1000
0001
0000
1000
0000
,
0010
0001
0010
0001
1000
0000
0010
0000
0001
0000
0000
1000
0000
0000
0010
0000
,
0100
0000
0000
0000
0000
0000
0001
0000
0000
0010
0000
0000
0001
0000
0000
0000
0000
0000
1000
0000
0000
0001
1000
0000
0010
0000
0100
0000
0001
0000
0100
0000
0000
1000
0000
0000
0001
0000
0000
1000
0000
0000
0010
0000
0000
0100
0000
0000
,
0010
1000
0001
0100
0010
0001
1000
0010
,
1000
0010
1000
0000
0001
0000
0100
0000
0010
0100
0010
0000
0001
0000
0010
0000
,
0001
0010
0001
0000
1000
0000
0001
0000
1000
0001
1000
0000
0010
0000
0100
0000
,
0001
0100
1000
0000
0011
0000
0000
0000
1000
0010
0001
0000
1100
0000
0000
0000
,
0001
0100
1000
0000
0010
0000
0100
0000
1000
0100
0001
0000
0100
0000
0010
0000
,
0001
0000
0000
0100
0000
0000
0001
0000
1000
0000
0000
0010
0000
0000
0100
0000
,
0010
0001
0010
0000
1000
0000
0010
0000
1000
0010
1000
0000
0001
0000
0100
0000
,
0001
0000
0000
0000
0000
0000
0000
0000
0000
0000
0000
0000
0010
0000
0000
0000
0000
0000
0100
0000
0000
1000
0010
0000
0001
0000
0100
0000
0010
0000
1000
0000
0000
0001
0000
0000
0010
0000
0000
0100
0000
0000
0010
0000
0000
0001
0000
0000
,
1000
0001
0000
0100
0010
0000
1000
0001
0000
1000
0010
0000
1000
0000
0001
0000
,
0010
0001
0000
1000
0010
0000
0001
1000
0000
0001
1000
0000
0200
0000
0300
0000
,
0010
0001
0000
1000
0010
0000
0100
0010
0000
1000
0001
0000
0100
0000
0001
0000
,
0100
0001
0000
1000
0010
0000
1000
0010
0000
0100
0001
0000
0010
0000
0100
0001
,
0010
1000
0000
0001
0100
0000
0010
1000
0000
0001
0100
0000
0010
0000
1000
0000
,
0001
0100
0000
0001
1000
0000
0010
0100
0000
0001
1000
0000
0020
0000
0030
0000
,
0010
0001
0010
0000
1000
0000
0010
0000
1000
0001
1000
0000
0010
0000
1000
0000
,
0001
0000
0000
0100
0000
0000
0001
0000
0000
0000
0000
0000
1000
0000
0000
0000
0000
0000
0001
0000
0000
0010
1000
0000
0100
0000
0000
0010
0000
0000
1000
0000
0000
0001
0000
0000
0100
0000
0000
0010
0000
0000
1000
0000
0000
0001
0000
0000
,
0020
0030
0000
0000
0000
0000
0000
0000
;
