#TITLE:Committed;
#ARTIST:AMBIVALENCE feat. Phife Dawg;
#GENRE:HIP-HOP;
#MUSIC:Committed.ogg;
#BANNER:Committed.png;
#BACKGROUND:Committed-bg.png;
#SAMPLESTART:0.859;
#SAMPLELENGTH:15;
#OFFSET:-0.300;
#BPMS:0=94;
#BGSTAGE:4;

//--------------- dance-single - XLev450X-bSP ----------------
#NOTES:
     dance-single:
     XLev450X:
     Beginner:
     1:
     0,0,0,0,0:
0000
0000
0000
0000
,
0000
0000
0000
0000
,
0000
0000
0000
0000
,
0000
0000
0000
0000
,
0000
0001
0000
0000
,
0000
1000
0000
0000
,
0000
0010
0000
0000
,
0000
0100
0000
0000
,
0000
0001
0000
0001
,
0000
0001
0000
0000
,
0000
1000
0000
1000
,
0000
1000
0000
0000
,
0000
0010
0000
0100
,
0000
0010
0000
0000
,
0000
0010
0000
0001
,
0000
0010
0000
0000
,
0000
0100
0000
1000
,
0000
0100
0000
0000
,
0000
0001
0000
1000
,
0000
0001
0000
0000
,
0000
0010
1000
0010
,
0100
0001
0000
1000
,
0000
0001
0000
0100
,
0000
0010
0000
0100
,
0000
1001
0000
0000
,
0000
0010
0000
0010
,
0000
0100
0000
0000
,
0000
0001
0000
0001
,
0000
0000
1000
0000
,
1000
0000
1000
1000
,
1000
0010
0000
0100
,
0000
0001
0000
1000
,
0000
0001
0000
0000
,
0000
0100
0000
0000
,
0000
0010
0000
0000
,
0000
1000
0000
0000
,
0000
0001
0000
0000
,
0000
0110
0000
0000
;

//--------------- dance-single - XLev450X-BSP ----------------
#NOTES:
     dance-single:
     XLev450X:
     Easy:
     4:
     0,0,0,0,0:
0000
0000
0000
0000
,
0000
0000
0000
0000
,
0000
0000
0000
0000
,
0000
0000
0000
0000
,
0000
1000
0001
1000
,
0010
0100
0001
1000
,
0010
0000
1000
0000
0001
0000
0010
0001
,
0010
0100
0001
1000
,
0000
1000
0010
0100
,
0001
0000
1000
0010
1000
0000
0100
0001
,
0100
0001
1000
0001
,
0100
0010
1000
0001
,
0000
1000
0010
1000
,
0001
0000
0100
0010
0100
0000
1000
0010
,
1000
0000
0001
0000
0100
0000
0001
1000
,
0001
0100
0010
1000
,
0000
0000
0001
0000
1000
0000
0001
0100
,
0010
0000
0010
0000
1000
0000
0010
0001
,
0010
1000
0001
0100
,
0000
0000
1000
0000
0010
0000
0100
0010
,
0100
0001
0001
0001
,
0001
0000
1000
0000
0010
0000
0100
0010
,
0100
0000
1000
0000
0010
0000
1000
0010
,
1000
0000
0001
0000
0100
0000
0010
0001
,
1000
0010
1001
0000
0000
0000
0000
0000
,
0001
0000
1000
0000
0010
0000
1000
0010
,
0100
0001
1000
0000
0001
0000
1000
0000
,
0000
0000
1000
0000
0010
0000
1000
0001
,
0100
0000
0001
0000
,
1000
0000
1000
0001
,
1000
0000
0010
0000
1000
0000
0001
0100
,
0001
0000
1000
0000
0010
0000
1000
0010
,
0100
0001
1000
0000
0001
0000
0000
0000
,
1000
0001
0000
0100
,
0010
1000
0001
1000
,
0000
0010
0000
0000
0000
0000
0000
0000
0000
1000
0000
0000
0000
0000
0000
0000
0000
0001
0000
0000
0000
0000
0000
0000
0000
0100
0000
0000
0000
0000
0000
0000
,
0000
0010
0000
0000
0000
0000
0000
0000
0000
1000
0000
0000
0000
0000
0000
0000
0000
0001
0000
0000
0000
0000
0000
0000
0000
1000
0000
0000
0000
0010
0000
0000
,
0000
1000
0000
0000
0000
0000
0000
0000
0001
0000
0000
0000
0100
0000
0000
0000
0001
0000
0000
0000
0000
0000
0000
0000
0010
0000
0000
0000
0000
0000
0000
0000
,
1001
0000
0000
0000
;

//--------------- dance-single - XLev450X-DSP ----------------
#NOTES:
     dance-single:
     XLev450X:
     Medium:
     8:
     0,0,0,0,0:
0000
0000
0000
0000
,
0000
0000
0000
0000
,
0000
0000
0000
0000
,
0000
0000
0000
0000
,
0000
0001
1000
0001
,
0010
0000
1000
0010
1000
0000
0100
0010
,
0001
0000
0100
0000
0001
0000
1000
0001
,
1000
0000
0010
0000
1000
0000
0010
1000
,
0010
0100
0001
0100
,
0001
1000
0001
0000
0100
0000
0010
1000
,
0010
0000
0100
0000
0001
0000
0001
1000
,
0001
0000
0010
0000
1000
0000
0010
0100
,
0001
0000
0000
0000
1000
0000
0000
0000
0001
0000
0000
1000
0000
0000
0010
0000
,
0100
0000
0000
0000
0001
0000
0010
0000
0001
0000
1000
0000
0000
0010
0000
0000
,
0100
0001
1000
0000
0001
0000
0100
0001
,
1000
0000
0000
0000
0010
0000
1000
0000
0010
0000
0000
0100
0000
0000
0001
0000
,
1000
0000
0010
0001
0010
1000
0001
0000
,
0100
0000
0010
1000
0001
0000
0100
0001
,
1000
0000
0010
1000
0010
0000
0100
0000
0001
0000
0000
0000
1000
0000
0001
0000
,
0100
0000
0010
1000
0001
0100
0000
0010
,
1000
0001
0100
0000
1000
0000
0010
1000
,
0010
0000
0000
0000
0100
0000
0000
0000
0001
0000
0000
0000
1000
0000
0001
0000
1000
0000
0000
0000
0010
0000
0000
0000
0100
0000
0000
0000
0001
0000
0000
1000
,
0000
0010
0100
0000
0001
0000
0000
0000
1001
0000
0000
0000
0010
0000
1000
0000
,
0010
0000
0100
0000
0001
0000
0000
1000
,
0010
0100
0001
0000
0000
0000
0000
0000
,
1000
0000
0010
0000
1000
0000
0001
0100
,
0010
1000
0001
0000
0100
0000
0010
1000
,
0010
0000
0100
0010
1000
0001
0000
0100
,
0001
1000
0000
0000
0001
0000
0000
0000
,
1000
0000
0000
0000
1000
0001
1000
0001
,
1000
0010
0100
0000
0001
0000
1000
0010
,
1000
0000
0000
0000
0001
0000
0000
0000
0100
0000
0001
0000
1000
0000
0000
0000
0010
0000
0000
0000
1000
0000
0000
0000
0010
0000
0000
0000
0100
0000
0000
0001
,
0000
1000
0010
0000
0100
0000
0001
0000
0000
0000
1001
0000
0000
0000
0010
0000
,
1000
0001
0010
0100
0000
0001
1000
0010
,
0000
1000
0001
0000
0100
0000
0010
0000
,
0000
1000
0000
0000
0000
0000
0000
0000
0000
0001
0000
0000
0000
0000
0000
0000
0000
0100
0000
0000
0000
0010
0000
0000
0000
1000
0000
0000
0000
0001
0000
0000
,
0000
0000
0000
0100
0000
0000
0000
0000
0000
0100
0000
0000
0000
1000
0000
0000
0000
0100
0000
0000
0000
0001
0000
0000
0000
0000
0000
0000
1000
0000
0000
0000
,
0001
0000
0100
0000
0010
0000
1000
0000
0000
0000
0001
0100
0000
0010
0200
0000
,
0010
0300
0000
0000
0000
0000
0000
0000
;

//--------------- dance-single - XLev450X-ESP ----------------
#NOTES:
     dance-single:
     XLev450X:
     Hard:
     12:
     0,0,0,0,0:
0000
0000
0000
0000
,
0000
0000
0000
0000
,
0000
0000
0000
0000
,
0000
0000
0000
0000
,
0000
0000
0001
0000
1000
0000
0010
1000
,
0010
0000
0100
0000
0001
0000
0010
0000
1000
0000
0000
0001
0000
0000
0100
0000
,
0010
0000
0000
0000
0001
0000
0000
0000
1000
0000
0010
0000
0001
0010
0000
0000
,
1000
0000
0000
0000
0001
0000
0010
0000
0100
0000
0001
1000
0000
0010
0100
0001
,
0000
0000
0000
0000
1000
0000
0010
0000
1000
0000
0000
0001
0000
0000
0100
0000
,
0010
1000
0001
0010
0001
1000
0001
0100
,
0001
0000
0000
0000
1000
0000
0010
0000
1000
0000
0000
0100
0000
0000
0001
0000
,
1000
0000
0000
0000
0001
0000
0100
0000
0010
0000
1000
0001
0000
0100
0000
0001
,
0010
0000
1000
0000
0001
1000
0000
0010
,
1000
0000
0010
0001
0010
0100
0000
0001
,
1000
0000
0001
0000
1000
0000
0010
1000
0010
0000
0100
0000
0001
0000
0010
0001
,
0010
0000
0000
0000
1000
0000
0001
0000
0100
0000
0010
1000
0000
0001
0100
0000
,
0010
0000
0000
1000
0001
0000
0100
0000
0010
0000
1000
0000
0010
1000
0000
0001
,
0000
1000
0100
0000
0001
0000
1000
0000
0010
0000
0100
0000
0001
1000
0010
0100
,
0001
0000
0000
0100
0000
0000
1000
0000
0010
0000
0000
0000
0001
0000
0000
0000
1000
0000
0000
0000
0001
0000
0000
0000
0100
0000
0000
0000
0001
0000
1000
0000
,
0000
0010
0000
0100
0000
0000
1000
0000
0001
0000
0000
0000
0010
0000
0000
0000
1000
0000
0000
0000
0001
0000
1000
0000
0001
0000
0000
0000
0010
0000
0000
0000
,
0100
0000
0001
0000
0001
0000
0001
0000
1000
0000
0010
0000
1000
0010
1000
0010
,
1000
0000
0000
0000
0001
0000
0000
0000
0100
0000
0000
0000
0001
0000
0000
0000
0010
0000
0000
0000
0001
0000
0000
0000
1000
0000
0000
0000
0001
0000
0000
0100
,
0000
0010
1000
0000
0001
0000
1000
0000
0010
0000
0000
0000
0000
0001
0000
0000
,
0010
0000
1000
0000
0001
0000
0100
0000
0000
0000
0010
1000
0000
0001
0100
0000
,
0010
0000
0000
0000
1000
0000
0000
0000
0001
0000
0000
0000
1000
0000
0000
0000
0020
0000
0000
0000
0000
0000
0000
0000
0000
0000
0000
0000
0000
0030
0000
0000
,
1001
0000
0110
0000
0011
0000
0001
1000
,
0001
0000
1000
0001
1000
0000
0010
0000
1000
0000
0000
0000
0010
0000
0100
0000
,
0001
0000
0010
0000
0001
0000
1000
0001
1000
0000
0010
0000
0100
0000
0001
1000
,
0010
0100
0001
0000
0000
1000
0010
0000
,
0000
0000
1000
0000
0001
0000
0001
0000
1000
0000
0001
0000
1000
0000
0001
1000
,
0001
0100
0001
0000
1000
0010
1000
0000
,
0001
0000
0000
0000
0010
0000
0001
0000
1000
0000
0001
0100
0010
0000
1000
0001
,
0000
0100
0010
0000
1000
0000
0001
0000
0100
0000
0000
0000
0000
0001
1000
0000
,
0010
0000
0100
0000
0010
1000
0001
0000
0010
0000
0000
1000
0000
0000
0010
0000
,
0000
1000
0001
0000
0101
0000
1010
0000
,
0000
1001
0000
0000
0000
0000
0000
0000
0000
0001
0000
0000
0000
0000
0000
0000
0000
1000
0000
0000
0000
0010
0000
0000
0000
0000
0000
1000
0000
0000
0000
0001
,
0000
0010
0000
0000
0000
0100
0000
0000
0000
1000
0000
0010
0000
0000
0000
0001
0000
1000
0000
0000
0000
0100
0000
0000
0000
0000
0000
0010
0000
0000
0000
0001
,
0000
1000
0000
0000
0000
0010
0000
0000
1000
0000
0000
0000
0001
0000
0010
0000
0001
0000
0000
0000
1000
0000
0010
0000
0000
0000
0100
0000
0001
0000
0000
0000
,
2002
3003
0000
0000
0000
0000
0000
0000
;

//--------------- dance-single - XLev450X†-CSP ----------------
#NOTES:
     dance-single:
     XLev450X†:
     Challenge:
     14:
     0,0,0,0,0:
0000
0000
0000
0000
,
0000
0000
0000
0000
,
0000
0000
0000
0000
,
0000
0000
0000
0000
,
0000
0000
0000
0000
0001
0000
1000
0000
0010
0000
0100
0000
0010
0000
0001
0010
,
0001
0000
0000
0000
1000
0000
0000
0000
0010
0000
0000
0000
1000
0000
0010
0000
0100
0000
0000
0000
0001
0000
0000
0010
0000
0000
0100
0000
0001
0000
1000
0000
,
0010
0000
0000
0000
0000
0000
0001
0010
0100
0000
1000
0000
0001
0000
0000
0000
0000
0000
0010
0001
1000
0000
0100
0000
0010
0000
0001
0000
2000
0000
0000
0000
,
3100
0000
0100
1000
0001
0100
0010
1000
0001
0000
0100
0010
0001
1000
0001
0100
,
0020
0000
0000
0030
0000
0000
0001
1000
0010
0000
0100
0000
1000
0000
0001
0000
0010
0000
0100
0000
1000
0000
0100
0000
0001
0000
0010
0000
1000
0000
0010
0000
,
1000
0000
0100
0010
0001
0000
0010
0000
0100
0000
1000
0000
0100
0000
0010
0000
0001
0000
0100
0000
1000
0000
0100
0000
0000
0000
0010
0000
0001
0000
1000
0000
,
0010
0000
0000
0000
0000
0000
0000
0010
0001
1000
0100
0000
0010
0000
0001
0000
0000
0000
0000
0000
1000
0000
0001
0000
0000
0000
0010
0000
0100
0000
0000
0000
,
1010
0000
0000
0000
0000
0000
0000
0100
0001
1000
0100
0000
0010
0000
0001
0000
1000
0000
0100
0000
0001
0000
0100
0000
0000
0000
1000
0000
0010
0000
1000
0000
,
0010
0000
0000
0000
0000
0000
0001
1000
0010
0000
0100
0000
1000
0000
0100
0000
0001
0000
0010
0000
0100
0000
0010
0000
0000
0000
1000
0000
0100
0000
0001
0000
,
0020
0000
0000
0030
0000
0000
0000
0100
0001
1000
0010
0000
1000
0000
0100
0000
0010
0000
0100
0000
1000
0000
0001
0000
0000
0000
0010
0000
0001
0000
0000
0000
,
2000
0000
0000
0000
3100
0000
0010
0001
1000
0000
0100
0000
0001
0000
0100
0000
0010
0000
0001
0000
0010
0100
1000
0000
0100
0000
0001
0000
0100
0000
0010
0000
,
0100
0000
0000
0000
0000
0000
0000
0000
0001
0010
1000
0000
0100
0000
0010
0000
0100
0000
1000
0000
0001
0000
0100
0000
0000
0000
0010
0000
1000
0000
0100
0000
,
0001
0000
0000
0000
0000
0000
0000
0100
1000
0100
0010
0000
0001
0000
1000
0000
0010
0000
0001
0000
1000
0000
0100
0000
0001
0000
0100
0000
0010
0000
0100
0000
,
0000
0000
0000
1000
0001
0010
0100
0000
0010
0000
0000
0100
0000
0000
1000
0000
0000
0001
1000
0000
0010
0000
1000
0000
0001
0000
0100
0000
0010
0000
1000
0000
,
0020
0000
0000
0000
0130
0000
0000
0010
0001
0010
0100
0000
1000
0000
0010
0000
0001
0000
0100
0000
1000
0000
0100
0000
0001
0000
0010
0000
0000
0000
1000
0000
,
0002
0000
1000
0000
1003
0000
0010
0000
1000
0000
0001
0100
0000
0000
1010
0000
,
0000
0100
1000
0100
0001
0000
0010
1000
0100
0000
0001
0100
0010
1000
0100
0010
,
0001
0000
0000
0000
1000
0000
0000
0010
0001
0100
0010
0000
0001
0000
0100
0000
1000
0000
0100
0000
0001
0000
1000
0000
0010
0000
0001
0000
0100
0000
0000
0001
,
0000
0010
0100
1000
0001
0000
0200
0000
0010
0000
0310
0000
0000
0010
0001
0010
,
1000
0100
0010
0001
0100
0000
0001
0000
0010
0000
1001
0000
0000
0010
1000
0000
,
0001
0000
1000
0000
0100
0000
0010
0000
0001
1000
0100
0000
0010
0000
0001
0000
0001
0000
0010
0000
1000
0000
0001
0000
0000
0000
0100
0000
0010
0000
1000
0000
,
0001
0000
0000
0000
0000
0000
0000
0001
0010
0000
0100
0000
1000
0000
0100
0000
0001
0000
1000
0000
0010
0000
0001
0000
1000
0000
0100
0000
0001
0000
0010
0000
,
0100
0000
0001
0000
0010
0000
0000
0000
1000
0010
0100
0000
0001
0000
0100
0000
0000
0000
0000
0000
0010
0000
0001
0000
1000
0000
0100
0000
0010
0000
0001
0000
,
2000
0000
0000
0000
3100
0000
0000
1000
0100
0010
0001
0000
0010
0000
0100
0000
1000
0000
0001
0000
0010
0000
0100
0000
0001
0000
1000
0000
0010
0000
0100
0000
,
0001
0000
0000
0000
1000
0000
0000
0000
1100
0000
0000
0000
0010
0100
0010
0000
0100
0000
0000
0000
0001
0000
0000
0000
0011
0000
0000
0000
0010
0001
0010
0000
,
0001
0000
0100
0000
0110
0000
0001
1000
0001
1000
0001
1000
0001
1000
0001
1000
,
0001
0000
0010
0001
1000
0000
0100
0000
0001
0000
0010
0000
1000
0000
0010
0000
,
1000
0000
0100
0000
1000
0000
0000
0010
0001
0000
0100
0000
1000
0000
0100
0000
0010
0000
0001
0000
0100
0000
1000
0000
0001
0000
0100
0000
1000
0000
0000
0010
,
0000
0000
0100
0000
0001
0000
0100
0000
1000
0000
0000
0000
1001
0000
0000
0000
0100
0000
0000
0000
0010
0000
0000
0000
0000
0000
0000
0100
1000
0100
0010
0000
,
0001
0000
1000
0000
0010
0000
0100
0000
0001
0000
0010
0000
0100
0000
1000
0100
,
0000
0010
0001
1000
0010
0000
0010
0000
1001
0000
1001
0000
0101
0000
0101
0000
,
0000
1010
0000
0000
0000
1010
0000
0000
0000
0011
0000
0000
0000
0011
0000
0000
0000
0100
0000
0000
0000
0010
0000
0001
0000
0010
0000
0000
0000
1000
0000
0010
,
0000
0100
0000
0010
0000
0001
0000
1000
0000
0010
0000
0000
0000
1000
0000
0000
0000
0001
0000
0000
0000
0000
0000
0100
0000
0000
0000
1000
0010
0000
0001
0000
,
1000
0000
0010
0000
0100
0000
0001
0000
0100
0000
0001
1000
0000
0010
0200
0000
,
0010
0000
0000
0300
0000
0000
0000
0000
0000
0000
0000
0000
0000
0000
0000
0000
;
