#TITLE:Ch4nge M4 Life;
#ARTIST:LADY'S ONLY;
#MUSIC:Ch4nge M4 Life.ogg;
#BANNER:Ch4nge M4 Life.png;
#BACKGROUND:Ch4nge M4 Life-bg.png;
#CDTITLE:./CDTitles/DANCERUSH STARDOM.png;
#SAMPLESTART:44.888;
#SAMPLELENGTH:15;
#OFFSET:-0.444;
#BPMS:0=135;
#BGSTAGE:17;

//--------------- dance-single - MEN'S ONLY-bSP ----------------
#NOTES:
     dance-single:
     MEN'S ONLY:
     Beginner:
     3:
     0,0,0,0,0:
0000
0000
0000
0000
,
0000
0000
0000
0000
,
0000
0000
0000
0000
,
0000
0000
0000
0000
,
0000
0000
0000
0000
,
0000
0000
0000
0000
,
0000
0000
0000
0000
,
0000
0000
0000
0000
,
0000
0000
0000
0000
,
0010
0000
1000
0000
,
0001
0000
0100
0000
,
0010
0000
0100
0000
,
1000
0000
0010
0001
,
0000
1000
0000
0010
,
0000
0000
0000
0100
,
0000
0001
0000
1000
,
0000
0000
0000
0001
,
0001
0001
0000
1000
,
1000
1000
0000
0010
,
0010
0010
0000
0100
,
0100
0100
0000
0001
,
0000
0001
0000
1000
,
0000
1000
0000
0001
,
1000
0010
0000
0100
,
0001
1000
0000
0000
,
0010
0000
0100
0001
,
1000
0010
0100
0001
,
0000
1000
0000
0100
,
0001
1000
0000
0010
,
0000
0100
0000
0001
,
1000
0010
0000
0100
,
0000
0001
0000
2002
,
0000
0000
3003
0110
,
0001
1000
0000
0100
,
1000
0001
0000
0000
,
0010
1000
0000
0010
,
0100
0001
0000
0010
,
0000
0100
0000
0001
,
0000
0000
0000
1000
,
0000
0010
0000
0200
,
0000
0000
0300
2002
,
0000
0000
3003
2002
,
3003
0000
0220
0000
0330
0000
2002
3003
,
0010
0000
0100
0001
,
0000
1000
0000
0010
,
0000
0100
0000
0010
,
0000
0100
0000
1000
,
0000
0010
0000
0001
,
0001
0001
0000
1000
,
0000
0010
0000
0100
,
0000
0202
0000
0303
,
0010
0100
1000
0001
,
0001
1000
0010
0100
,
0000
0001
0000
1000
,
0000
0010
0000
0100
,
0000
0001
0000
1000
,
1000
0001
0100
0010
,
0000
1000
0000
0100
,
0001
0010
0000
0000
;

//--------------- dance-single - MEN'S ONLY-BSP ----------------
#NOTES:
     dance-single:
     MEN'S ONLY:
     Easy:
     6:
     0,0,0,0,0:
0000
0000
0000
0000
,
0000
0000
0000
0000
,
0000
0000
0000
0000
,
0000
0000
0000
0000
,
0000
0000
0000
0110
,
0000
1000
0000
0110
,
0000
0001
0000
2000
,
0000
0010
3001
0002
,
0000
0010
1003
2000
,
3010
0002
0103
2000
,
3001
0002
1003
2000
,
0001
0010
0001
3002
,
1000
0100
1000
1003
,
0001
0110
1001
0002
,
0103
2000
3010
0002
,
1003
2000
3001
0001
,
1000
0110
1001
0002
,
1000
0000
0100
0000
1000
0003
2000
0000
,
0001
0000
0010
0000
0001
3000
0010
0000
,
0001
1000
0100
0001
,
1000
0110
1001
0002
,
0000
1003
0000
2000
,
0000
3001
0000
0002
,
1003
2000
3001
0001
,
1000
0220
0330
0002
,
1000
0203
1000
0302
,
0010
2003
0010
3002
,
0013
1000
0001
1000
,
0100
0001
0010
2000
,
0100
3002
0010
2003
,
0100
3002
0010
2003
,
3100
0001
1000
0110
,
1001
0220
0330
2000
,
0100
3002
0010
1003
,
0010
0010
0001
0002
,
0010
2003
0100
3001
,
0100
0100
1000
2000
,
3100
0002
0013
0100
,
0001
0110
1001
0002
,
0013
2000
3100
0001
,
1000
0110
1001
0220
,
0000
0000
0330
1000
,
0001
1001
1001
0002
,
0010
0000
2003
0000
0100
0000
3002
2003
,
3002
2003
3002
2003
3002
2003
3001
0000
,
0100
1000
0100
2000
,
3100
0002
0013
2000
,
0001
3000
0002
0000
1000
0003
2000
3002
,
2003
3002
2003
3002
2003
3002
1003
0000
,
0010
0001
0010
0001
,
1000
0110
1001
0002
,
0010
0000
2003
0000
0100
0000
3002
2003
,
3002
2003
3002
0000
1003
0000
2000
0000
,
3100
0000
0002
0000
0013
0000
2000
3100
,
0002
0013
2000
3100
0002
0013
2000
0000
,
0001
3000
0002
0000
1000
0003
2000
3002
,
2003
3002
2003
0000
3100
0000
0001
0000
,
1000
0110
1001
1000
,
0001
0000
0000
0220
0000
0330
0110
0000
0000
0000
0000
0000
;

//--------------- dance-single - MEN'S ONLY-DSP ----------------
#NOTES:
     dance-single:
     MEN'S ONLY:
     Medium:
     9:
     0,0,0,0,0:
0000
0000
0000
0000
,
0000
0000
0000
0000
,
0000
0000
0000
0000
,
0000
0000
0000
0000
,
0000
0000
0000
2000
,
0000
3100
0000
0002
,
0000
0013
0000
1000
,
0001
0000
0110
0000
1001
0000
0001
0010
,
0100
0001
0110
0000
,
0000
0001
1000
0002
,
1003
2000
3001
0020
,
0031
0200
1300
0001
,
1000
0110
1001
0020
,
0130
0200
0310
0002
,
0013
2000
3100
0001
,
1000
0010
0100
0001
,
0010
1000
0100
0002
,
0010
0000
0000
0000
0100
0000
0000
0000
0010
0000
0000
0003
2000
0000
0000
0000
,
0100
0000
0000
0000
0010
0000
0000
0000
0100
0000
0000
3000
0002
0000
0000
0000
,
0013
0000
2000
0000
3100
0000
0002
0013
,
2000
3100
0100
1000
0020
0000
0032
0000
,
0013
2000
3100
0020
,
0031
0000
0200
0000
1300
0000
2000
3100
,
0002
0013
2000
3100
0002
0013
2000
3100
,
2002
3003
0110
2000
,
0100
0010
0100
3002
,
0010
0000
0000
0000
0100
0000
0000
0000
0010
0000
0003
0000
2000
3000
0200
0300
,
2000
3000
0000
0000
0002
0003
0200
0300
0002
0003
0000
0000
2000
3000
0002
0003
,
2000
3000
0002
0003
2200
0000
0000
0000
0000
0000
0000
3300
0002
0003
0200
0300
,
1002
0003
0000
0000
2000
3000
0200
0300
2001
3000
0000
0000
0002
0000
0000
0000
,
0013
0000
0000
0000
2000
0000
0000
0000
3100
0000
0000
0000
2000
3000
0200
0300
,
2001
3000
0000
0000
0002
0003
0200
0300
1002
0003
0000
0000
0110
0000
0000
0000
,
1001
0000
0220
0000
0000
0330
0002
0013
,
2000
3100
0002
0013
2000
3100
0002
0000
,
0010
0000
0100
0000
1003
0000
2000
3100
,
0002
0013
2000
3100
0002
0013
2000
0000
,
0100
0000
0010
0000
3001
0000
0002
0010
,
0103
0000
2000
0100
3001
0000
0002
0013
,
2000
3100
0002
0013
2000
3100
0002
0010
,
0103
0000
2000
0100
3010
0000
0002
0013
,
2000
3100
0002
0010
0200
0303
2000
0000
,
0000
0000
3001
0000
0100
0000
2000
3100
,
0002
0013
0001
0100
0001
0000
0110
0000
,
2000
3100
0200
1300
2000
3100
0002
0013
,
0020
0031
0002
1003
0020
0030
2000
0000
,
0100
0000
0010
0000
0100
3000
0002
0000
,
1000
0100
1000
0103
,
0002
0013
0020
0031
0002
0013
2000
3100
,
0200
1300
2000
3001
0200
0300
0002
0000
,
0010
0000
0100
0000
0010
0003
2000
0000
,
3001
0110
0220
0330
,
0002
0003
0020
0030
0002
0003
0020
0030
0002
0000
0000
0000
0100
0000
0000
0000
,
0010
0100
0013
0110
,
0002
0013
0020
0031
0002
0013
0002
0013
,
0020
0031
0002
0010
1000
0013
1001
0000
,
2000
3100
0200
1300
2000
3100
0002
0013
,
0020
0031
0002
1003
0020
0030
1001
0000
,
0001
1000
1100
1001
,
0011
0220
0330
0000
;

//--------------- dance-single - MEN'S ONLY-ESP ----------------
#NOTES:
     dance-single:
     MEN'S ONLY:
     Hard:
     13:
     0,0,0,0,0:
0000
0000
0000
0000
,
0000
0000
0000
0000
,
0000
0000
0000
0000
,
0000
0000
0000
0000
,
0000
0000
0000
0000
0000
0000
0000
0000
0000
0000
0000
0000
0100
0000
0000
0010
,
0000
0000
0001
0000
0010
0000
1000
0000
0010
0100
0010
0100
0001
0000
0010
0000
,
0100
0000
0010
0000
0100
0000
0000
0010
0000
0000
0001
0000
0100
0000
0000
0000
,
0010
0000
0001
0010
0001
0010
0002
0000
,
0000
0000
0000
0000
0000
0000
0000
0000
0000
0003
0000
0000
1001
0000
0000
0000
,
0010
0100
0001
0100
0010
0100
0000
1000
,
0001
0000
1000
0000
0010
0000
0000
0100
0000
0000
0010
0000
0001
0000
1000
0000
,
0010
0100
0010
0100
0001
1000
0000
0100
,
0001
0000
0010
0000
0100
0000
1000
0000
0001
0000
0000
0000
0100
0000
0000
1000
,
0000
0000
0100
0000
0000
0001
1000
0000
0100
0000
1000
0000
0010
0000
1000
0000
,
0100
0010
0100
1000
0010
0000
0010
0100
,
0010
0000
1000
0000
0100
0000
1000
0000
0001
0000
0000
0000
0001
1000
0010
1000
,
0010
0100
0010
1000
0100
1000
0100
0010
0002
0000
0000
0003
0100
0000
0010
0000
,
0001
0000
0000
0100
0000
0000
0001
0000
0100
0000
0000
0000
0001
0000
0010
0000
,
0001
0000
0000
0010
0000
0000
1000
0000
0010
0000
0000
0000
0100
0000
1000
0000
,
0001
0000
0000
0010
0000
0000
1000
0000
0100
0000
1000
0000
0101
0000
0000
0000
,
1100
0000
0001
0010
0200
0300
0010
0000
,
0100
0001
0100
0001
,
1000
0000
0001
0000
0100
0000
0001
1000
,
0010
0000
0100
0000
0001
0000
1000
0000
0100
0000
1000
0000
0001
1000
0010
0100
,
0001
0100
0010
0100
0020
0000
0000
0000
0000
0000
0030
0000
0002
0000
0000
0003
,
0100
0000
0010
0000
0100
0000
1000
0000
0100
1000
0100
1000
0001
0000
1000
0000
,
0001
0000
0010
0001
0000
0010
0100
0000
0010
0100
1000
0001
0010
0000
0000
0000
,
0001
0000
1000
0000
0010
0000
1000
0000
0010
0100
0001
1000
0010
0000
0100
0000
,
0010
0000
0100
0000
0001
0000
1000
0000
0001
0010
0100
1000
0200
0000
0300
0000
,
0001
0100
0010
1000
0010
0000
0010
1000
,
0100
1000
0010
1000
0010
0000
0001
0010
,
0100
0000
0010
0000
0100
0000
1000
0000
0100
0010
0001
0000
0110
0000
0000
0000
,
0101
0000
0000
0000
0100
0010
0100
1000
0010
0100
0010
1000
0100
0000
0000
0000
,
0001
0000
0100
0000
0001
0000
1000
0000
0100
1000
0010
1000
0010
0000
1000
0000
,
0010
0000
0100
0000
0001
0000
0100
0000
0001
0100
0001
0100
0020
0000
0030
0000
,
0001
0000
1000
0000
0100
0000
1000
0000
0010
1000
0001
0010
0100
0000
1000
0000
,
0010
0000
0100
0000
0001
0000
0010
0000
0010
1000
0010
0100
0001
0000
0000
0000
,
0010
1000
0001
0100
0001
0000
0001
0100
,
0010
1000
0010
1000
0010
0000
0001
1000
,
0100
0010
0100
0010
0100
0000
0001
0010
,
0001
0010
0100
0010
0001
1000
0200
0000
,
0000
0000
0000
0300
1001
0000
0010
0000
,
0001
0000
0100
1000
0001
0000
0001
0000
,
0100
0000
0010
0000
0100
0000
0000
0010
0000
0000
0001
0000
0001
0000
0000
1000
,
0000
0000
0010
0000
0001
0000
0000
0100
0000
0000
0001
0000
0010
0000
0000
0000
,
0010
0000
0100
0000
0001
0000
0000
0100
0000
0000
1000
0000
0000
0010
0000
0000
,
0010
0000
0000
1000
0001
0000
0010
0000
0100
0000
0010
0000
0001
0000
0000
0000
,
0100
0000
0010
0000
0001
0000
0000
0010
0000
0000
0001
0000
0100
0000
0000
1000
,
0000
0000
0001
0000
0010
0000
0000
0100
0000
0000
1000
0000
0001
0000
0000
0000
,
0010
0000
1000
0000
0001
0000
0000
0010
0000
0000
0010
0000
0100
0000
1000
0000
,
0100
0000
0010
0000
0100
0000
0001
0010
0001
0100
0001
0100
0010
0000
0000
0000
,
0010
0000
1000
0000
0001
0000
0000
0100
0000
0000
0010
0000
0001
0000
0000
0010
,
0000
0000
0001
0000
0001
0000
0000
0100
0000
0000
0010
0000
0010
0000
0000
0000
,
0001
0000
0010
0000
0001
0000
0000
0100
0000
0000
1000
0000
0000
0100
0000
0000
,
0001
0000
0000
0010
0100
0000
1000
0000
0100
0000
0010
0000
0100
0000
0000
0000
,
0001
0000
0100
0000
0001
0000
0000
1000
0000
0000
0100
0000
0010
0000
0000
1000
,
0000
0000
0010
0000
0001
0000
0000
0100
0000
0000
0010
0000
0001
0000
0000
0000
,
0100
0000
1000
0000
0001
0000
0000
0100
0000
0000
0100
0000
0001
0010
0100
0010
,
0001
1000
0001
0010
0002
0000
0003
0000
0110
0000
0000
0000
0000
0000
0000
0000
;

//--------------- dance-single - MEN'S ONLY-CSP ----------------
#NOTES:
     dance-single:
     MEN'S ONLY:
     Challenge:
     16:
     0,0,0,0,0:
0000
0000
0000
0000
,
0000
0000
0000
0000
,
0000
0000
0000
0000
,
0000
0000
0000
0000
,
0000
0000
0000
0000
0000
0000
0010
0100
,
0001
0000
1000
0000
0010
0000
1000
0000
0001
1000
0100
0010
0001
0000
1000
0000
,
0001
0000
0010
0000
0001
0000
0000
0100
0000
0000
0010
0000
0010
0000
0100
0000
,
0001
0000
1000
0000
0001
0100
0010
1000
0100
1000
0001
0100
0002
0000
0000
0000
,
0000
0000
0000
0000
0000
0003
0020
0030
,
0010
1000
0100
0010
0100
1000
0100
0010
0001
0010
0100
0010
0000
0000
0010
0000
,
0001
0000
0010
0000
0001
0000
0010
0100
0010
0100
0001
0000
0010
0000
1000
0000
,
0100
0010
0001
0010
0100
0010
0000
1000
,
0001
0000
1000
0000
0010
0100
0010
1000
0100
0000
0000
0000
0100
0000
0000
0010
,
0000
0000
1000
0000
0000
0100
0001
0000
0010
0000
0000
0000
0010
0000
1000
0000
,
0010
1000
0100
1000
0100
0000
0100
0010
,
0001
0000
1000
0000
0100
0000
1000
0000
0100
0000
0000
0000
0010
0100
0001
1000
,
0100
1000
0010
0100
0010
1000
0010
0000
0002
0000
0000
0003
0100
0000
1000
0000
,
0001
0000
0000
1000
0000
0000
0010
0000
0001
0000
0000
0000
0001
0000
0100
0000
,
0010
0000
0000
0100
0000
0000
0010
0000
0010
1000
0100
0010
0001
0000
1000
0000
,
0100
0000
0000
0010
0000
0000
0100
0000
0001
0000
0000
0000
0101
0000
0000
0000
,
1001
0000
0110
0000
0020
0030
0100
0000
,
0010
0100
1000
0001
,
0010
0000
0100
0000
0010
0000
0010
1000
,
0001
0000
0010
0000
0001
0000
1000
0000
0010
0000
0100
0000
0010
1000
0100
0010
,
0100
1000
0100
1000
0002
0000
0000
0000
0000
0000
0003
0000
0020
0000
0030
0000
,
0001
0010
0001
0100
0001
1000
0100
0010
0001
0010
0100
1000
0100
1000
0001
0010
,
0001
0010
0100
1000
0100
1000
0010
0100
0010
0100
0010
0100
0002
0000
0003
0000
,
1000
0001
0010
0100
0010
0100
1000
0100
0010
0001
0010
0100
0010
0001
1000
0010
,
0100
0001
0010
0100
1000
0001
0010
0100
1000
0100
1000
0001
0020
0000
0030
0000
,
0100
1000
0001
0010
0001
1000
0001
0010
0200
0000
0300
0000
1000
0100
1000
0001
,
0100
0010
1000
0001
0010
0100
1000
0100
0002
0000
0003
0000
0001
0010
0001
0100
,
0001
0100
0010
0100
0001
1000
0001
1000
0100
0010
0001
0000
1001
0000
0000
0000
,
0110
0000
0000
0000
0001
1000
0001
0010
0001
0100
0010
1000
0200
0000
0300
0000
,
0100
1000
0001
1000
0010
1000
0010
0100
0001
0100
0001
1000
0001
0100
0010
0100
,
0010
1000
0100
0010
0001
0010
0100
1000
0100
1000
0100
0010
0002
0000
0003
0000
,
1000
0010
1000
0010
1000
0100
0010
0100
0010
0100
1000
0001
1000
0001
0010
0100
,
1000
0100
0010
0100
1000
0010
0100
0001
0100
0010
1000
0010
0002
0000
0003
0000
,
0001
1000
0001
1000
0100
0010
0001
0010
0002
0000
0003
0000
0010
0100
0001
0100
,
0010
1000
0010
0100
0001
1000
0001
0100
0002
0000
0003
0000
0001
0010
0001
0010
,
0100
0010
0100
1000
0001
0100
0001
1000
0002
0000
0003
0000
0001
1000
0010
0100
,
0001
0100
0010
0100
0001
1000
0010
0100
0001
1000
0100
0010
0002
0000
0000
0000
,
0000
0000
0000
0003
0110
0000
1100
0000
,
0011
0000
0110
1001
0110
0000
1001
0000
,
0001
0100
0001
0100
0001
1000
0100
0010
0001
0000
1000
0000
0010
1000
0100
0010
,
0100
1000
0100
1000
0010
1000
0010
0100
0001
1000
0010
0001
0220
0000
0330
0000
,
0010
0000
1000
0000
0010
0000
0000
0100
0001
0000
1000
0000
0010
0100
0010
0100
,
0010
1000
0100
0010
0001
0100
0010
1000
0001
1000
0010
0001
0220
0000
0330
0000
,
0001
0100
0010
1000
0001
0010
0100
0010
0001
0000
1000
0000
0010
1000
0100
0010
,
0001
1000
0010
1000
0100
0010
0001
1000
0001
0010
0001
1000
0202
0000
0303
0000
,
0001
0000
1000
0000
0100
0000
0000
1000
0001
0000
0100
0000
0001
1000
0001
0010
,
0001
0000
0000
0000
0000
0000
0010
0000
0000
0000
0000
0000
0100
0000
0000
0000
0000
0000
0010
0000
0000
0000
0000
0000
0002
0000
0000
0000
0000
0000
0000
0000
0003
0000
0000
0000
0010
0000
0000
0000
0000
0000
0100
0000
0000
0001
0000
0000
0010
0000
0000
0000
0000
0000
1000
0000
0000
0000
0000
0000
0010
0000
0000
0000
0000
0000
0001
0000
0000
0000
0000
0000
0220
0000
0000
0000
0000
0000
0000
0000
0000
0000
0000
0000
0330
0000
0000
0000
0000
0000
0000
0000
0000
0000
0000
0000
,
0010
0000
0100
0000
0010
0000
1000
0000
0001
0000
0010
0000
0100
0000
0010
0000
0100
0000
0000
0000
0010
0000
0000
0000
0001
0000
0010
1000
0100
0000
0010
0000
,
0001
0000
1000
0001
0010
0000
1000
0000
0010
0000
1000
0100
0001
0000
0100
0000
0010
0000
0100
0001
0010
0000
0100
0000
2020
0000
0000
0000
3030
0000
0000
0000
,
0010
0000
0100
0000
0010
0000
0000
1000
0000
0000
0010
0000
0000
1000
0000
0000
,
0100
0000
0000
0100
0010
0000
0001
0000
0100
0000
1000
0000
0022
0000
0033
0000
,
0001
0000
1000
0000
0001
0000
0010
0000
0001
0000
0100
0000
0010
0000
0100
0000
0001
0000
0000
0000
1000
0000
0000
0000
0010
0000
1000
0100
0001
0000
0010
0000
,
0001
0000
1000
0010
0100
0000
1000
0000
0100
0000
1000
0001
0010
0000
0100
0000
0010
0000
0100
1000
0001
0000
1000
0000
0220
0000
0000
0000
0330
0000
0000
0000
,
0100
0000
1000
0000
0010
0000
0000
0100
0000
0000
0010
0000
0010
1000
0100
0010
,
0001
0010
0001
0010
0200
0000
0300
0000
1001
0000
0000
0000
0000
0000
0000
0000
;
