#TITLE:Catch Me;
#ARTIST:DJ Yoshitaka feat. ERi;
#GENRE:ACID JAZZ;
#MUSIC:Catch Me.ogg;
#BANNER:Catch Me.png;
#BACKGROUND:Catch Me-bg.png;
#CDTITLE:./CDTitles/bm IIDX 12 HAPPY SKY.png;
#SAMPLESTART:68.870;
#SAMPLELENGTH:15;
#BPMS:0=115;
#BGSTAGE:16;

//--------------- dance-single - XLev450X-bSP ----------------
#NOTES:
     dance-single:
     XLev450X:
     Beginner:
     3:
     0,0,0,0,0:
0000
0000
0000
0000
,
0000
0000
0000
0000
,
0000
0000
0000
0000
,
0000
0000
0000
0000
,
0000
0000
0000
0000
,
1000
0001
0100
0000
,
0010
0000
1000
0000
,
0001
0100
0001
0000
,
1001
0000
0000
0000
,
0001
0000
1000
0000
,
0010
0000
0000
0000
,
0100
0000
0001
0000
,
1000
0000
0000
0000
,
1000
0010
0000
0000
,
0001
0100
0000
0000
,
0010
0001
0000
0000
,
1000
0000
0001
0000
,
0010
0000
0100
0000
,
1000
0000
0001
0000
,
0010
0000
0000
0000
,
1000
0000
0001
0000
,
0100
0000
0000
0000
,
0010
0000
1000
0000
,
0001
0000
0000
0000
,
1000
0000
0010
0000
,
0100
0001
1000
0000
,
0010
0000
1000
0000
,
0001
0000
0000
0000
,
0100
0000
1000
0000
,
0010
0000
0001
0000
,
0100
0001
1000
0000
,
0010
0000
0000
0000
,
0011
0000
1100
0000
,
0010
0100
0000
0000
,
0001
1000
0000
0000
,
1000
0010
0000
0000
,
0100
0001
0000
0000
,
0010
1000
0000
0001
,
0100
0010
0000
0001
,
1000
0010
0000
0100
,
0000
1000
0001
0100
,
0101
0000
0000
0000
,
1010
0000
0000
0000
,
0110
0000
0000
0000
,
1001
0000
0000
0000
,
0001
0001
0001
0000
,
1000
1000
0000
0000
,
0010
0100
0010
0000
,
0001
1000
0001
0000
,
2002
0000
0000
0000
,
0000
0000
0000
0000
,
3003
0000
0000
0000
;

//--------------- dance-single - XLev450X-BSP ----------------
#NOTES:
     dance-single:
     XLev450X:
     Easy:
     7:
     0,0,0,0,0:
0000
0000
0000
0000
,
0000
0000
0000
0000
,
0000
0000
0000
0000
,
0000
0000
0000
0000
,
0000
0000
0000
0000
,
1000
0000
0001
0000
0100
0010
0001
0000
,
1000
0000
0010
0000
0100
0010
0100
0000
,
0001
0000
1000
0000
0010
0100
0010
0000
,
0001
0000
1000
0000
0001
1000
0010
0100
,
0001
0000
1000
0000
0000
0010
1000
0000
,
0001
0000
0100
0000
0000
0010
0001
1000
,
0010
0000
0100
0000
0000
0010
1000
0000
,
0001
0100
0010
0000
1000
0010
1000
0000
,
0001
0000
0100
0000
0000
0010
0001
0000
,
1000
0000
0100
0000
0000
1000
0010
0100
,
0001
0000
1000
0000
0000
0010
0100
0000
,
0101
0000
1010
0000
0010
0100
0001
1000
,
0010
0000
1000
0000
0001
1000
0001
0000
,
0100
0000
0010
0000
1000
0010
0100
0001
,
1000
0001
0100
0000
,
0001
0000
1000
0000
0010
0100
0001
0010
,
1000
0001
0100
0000
,
0001
1000
0001
0000
,
1000
0000
0010
0000
0100
0001
0100
0000
,
0010
0000
1000
0000
0001
0100
0010
1000
,
0001
1000
0001
0000
,
0010
1000
0100
0000
,
0001
0000
0100
0000
0010
0100
0010
0000
,
1000
0001
0100
0000
,
0001
1000
0001
0000
,
1000
0010
0100
0001
,
1000
0000
0001
1000
,
0010
0000
1000
0000
0001
0100
0001
1000
,
0010
0000
0100
0000
0000
0001
1000
0000
,
0010
0000
0100
0000
0001
1000
0010
0000
,
0100
0000
0010
0000
0000
1000
0001
0000
,
0100
0010
0001
0000
,
1000
0000
0001
0000
0100
0010
1000
0000
,
0001
0000
0100
0000
0000
0001
1000
0000
,
0010
0000
0100
0000
0000
0001
1000
0000
,
0010
0000
0100
0000
0010
0001
0010
0000
,
0001
0000
0010
0000
1000
0100
0001
0000
,
0100
0000
0010
0000
1000
0010
0001
1000
,
0010
0000
0100
0000
0010
0001
0010
0000
,
1000
0010
2002
3003
,
0010
0000
1000
0000
0001
0100
0010
0000
,
0100
0000
1000
0000
0220
0000
0000
0330
,
0010
0000
1000
0000
0001
0100
0010
0000
,
0001
1000
0010
0100
0002
0000
0003
0000
,
0202
0000
0000
0000
,
0000
0000
0000
0000
,
0303
0000
0000
0000
;

//--------------- dance-single - XLev450X-DSP ----------------
#NOTES:
     dance-single:
     XLev450X:
     Medium:
     11:
     0,0,0,0,0:
0000
0000
0000
0000
,
0000
0000
0000
0000
,
0000
0000
0000
0000
,
0000
0000
0000
0000
,
0000
0000
0000
0000
,
1000
0000
0000
0001
0000
0000
0100
0000
0000
0010
0000
0000
0001
0000
1000
0000
,
0010
0000
0001
0000
0000
1000
0010
0100
,
1000
0000
0010
0000
0000
0001
0100
0010
,
1000
0000
0000
0001
0100
0000
0000
0010
1000
0000
0010
0000
0100
0000
0001
0000
,
1000
0000
0000
0000
0001
0000
0000
1000
0000
0000
0010
0000
0100
0000
0001
0000
,
1000
0000
0000
0000
0001
0000
0000
0100
0000
0000
0010
0000
0001
0000
1000
0000
,
0010
0000
0000
0000
0100
0000
0000
1000
0000
0000
0001
0000
0100
0000
0000
0000
,
0010
0001
0010
0000
1000
0010
1000
0000
0010
0100
0010
0000
1000
0000
0001
0000
,
0100
0000
0000
0000
0010
0000
0000
1000
0000
0000
0001
0000
0100
0000
0010
0000
,
0001
0000
0000
0000
1000
0000
0000
0001
0000
0000
0100
0000
0010
0000
1000
0001
,
1000
0000
0000
0000
0100
0000
0000
0010
0000
0000
1000
0000
0001
0000
0000
0000
,
0010
0000
0100
0000
1000
0000
0001
0000
0100
0010
1000
0000
0001
0100
0010
0000
,
0001
0000
0000
0000
1000
0000
0000
0001
0000
0000
0010
0000
0100
0000
1000
0000
,
0001
0010
0001
0000
1000
0010
0100
1000
,
0001
0000
0000
0000
0100
0000
0000
0010
0000
0000
1000
0000
0001
0000
0000
0000
,
0010
0001
1000
0010
0000
0001
1000
0010
,
0100
0000
0000
0000
0001
0000
0000
1000
0000
0000
0010
0000
1000
0000
0000
0000
,
0010
0000
0100
0000
0010
0001
0010
0000
,
1000
0010
0100
0001
1000
0010
0100
0000
,
1010
0000
0101
0000
0010
0100
0010
0000
,
0001
1000
0001
0010
,
1000
0000
0000
0010
0000
0000
0100
0000
0001
0000
0000
1000
0000
0000
0100
0000
,
0001
0100
0001
0000
,
0010
0001
0010
0000
1000
0010
1000
0000
,
0100
1000
0001
0100
,
0010
0000
0000
1000
0000
0000
0010
0000
0100
0000
0000
0010
0000
0000
0001
0000
,
0100
0000
0010
0000
1000
0001
0100
0000
,
0001
0000
0001
0000
1000
0010
0100
0001
,
1000
0000
0000
0010
0000
0000
1000
0000
0000
0001
0000
0000
0100
0000
0010
0000
,
1000
0001
0100
0000
0010
0001
1000
0010
,
0100
0000
0000
0000
0001
0000
1000
0000
0000
0000
0010
0000
0100
0001
0000
0000
,
1000
0000
0000
0010
0000
0000
0100
0000
0001
0100
1000
0000
0010
0000
0100
0000
,
1000
0000
0000
0000
0001
0000
0000
1000
0000
0000
0010
0000
0100
0000
0001
0000
,
0010
0000
0000
0000
0100
0000
0000
0001
0000
0000
1000
0000
0010
0000
1000
0010
,
0100
0000
0000
0000
0001
0000
0000
1000
0000
0000
0010
0000
0100
0000
0001
0000
,
1000
0000
0000
0000
0010
0000
0100
0000
0010
0001
0010
0000
1000
0100
1000
0000
,
0010
0000
0000
0100
0000
0000
0001
0000
1000
0001
0000
0010
0000
0000
0100
0000
,
0001
0000
0000
1000
0000
0000
0010
0000
0100
0010
0000
1000
0000
0000
0001
0000
,
0010
0000
0000
0100
0000
0000
0001
0000
1000
0100
0000
0010
0000
0000
0100
0000
,
0001
0000
0000
1000
0000
0000
0010
0000
0100
0001
0000
1000
0000
0000
0010
0000
,
0100
0000
0001
0000
1000
0010
0000
0100
0000
1000
0000
0001
0100
0000
0000
0000
,
0010
0000
1000
0000
0001
0100
0000
0020
0000
0000
0000
0000
0030
0000
0001
0100
,
1000
0000
0001
0000
0100
0010
0000
1000
0000
0001
0000
0000
0100
0000
0000
0000
,
0001
0010
0001
0000
1000
0100
1000
0000
0010
1000
0100
0001
0000
0000
0000
0000
,
2002
0000
0000
0000
,
0000
0000
0000
0000
,
3003
0000
0000
0000
;

//--------------- dance-single - XLev450X-ESP ----------------
#NOTES:
     dance-single:
     XLev450X:
     Hard:
     15:
     0,0,0,0,0:
0000
0000
0000
0000
,
0000
0000
0000
0000
,
0000
0000
0000
0000
,
0000
0000
0000
0000
,
0000
0000
0000
0000
,
1000
0000
0001
1000
0000
0010
0000
0100
0001
0000
0010
1000
0100
0000
0001
0000
,
0010
0000
0001
1000
0001
0000
0010
0100
0010
0000
0010
0000
1000
0000
0100
0000
,
0002
0000
0000
0000
0000
0003
0010
0100
0000
0000
0001
0000
1000
0000
0001
1000
,
0010
0000
0000
0000
0000
0000
0000
0000
0000
0000
0000
0000
0000
0000
0000
0000
0000
0000
0000
0000
0000
0000
0000
0000
1000
0000
0000
0000
0000
0000
0000
0000
0000
0000
0000
0000
0000
0000
0000
0000
0010
0000
0000
0000
0000
0000
0000
0000
0100
0000
0000
0000
0000
0000
0000
0000
0000
0000
0000
0000
0000
0000
0000
0000
0000
0000
0000
0000
0000
0000
0000
0000
0001
0000
0000
0000
0000
0000
0000
0000
0000
0000
0000
0000
0000
0000
0000
0000
0100
0000
0000
0000
0000
0000
0000
0000
1000
0000
0000
0000
0000
0000
0000
0000
0000
0010
0000
0000
0000
0000
0000
0000
0001
0000
0000
0000
0000
0000
0000
0000
0010
0000
0000
0000
0000
0000
0000
0000
0000
0000
0000
0000
0000
0000
0000
0000
1000
0000
0000
0000
0000
0000
0000
0000
0100
0000
0000
0000
0000
0000
0000
0000
0000
0001
0000
0000
0000
0000
0000
0000
0010
0000
0000
0000
0000
0000
0000
0000
0100
0000
0000
0000
0000
0000
0000
0000
0000
0000
0000
0000
0000
0000
0000
0000
1000
0000
0000
0000
0000
0100
0000
0000
,
0002
0000
0000
0000
0003
0000
0000
0000
0000
0000
0000
0000
0000
0010
0100
0000
1000
0000
0000
0000
0001
0000
0000
0000
0000
0000
0000
0000
1000
0000
0000
0000
0000
0000
0000
0000
0100
0000
0000
0000
1000
0000
0000
0000
0001
0000
0000
0000
0100
0000
0000
0000
0000
0000
0000
0000
0001
0000
0000
0000
0000
0000
0000
0000
,
0010
0000
0000
0000
0000
0000
0000
0000
0000
0000
0000
0000
0000
1000
0100
0000
0010
0000
0000
0000
0001
0000
0000
0000
0000
0000
0000
0000
1000
0000
0000
0000
0000
0000
0000
0000
0010
0000
0000
0000
0100
0000
0000
0000
0000
0000
0000
0000
0010
0000
0000
0000
0001
0000
0000
0000
1000
0000
0000
0000
0010
0000
0000
0000
,
0001
0000
0000
0000
0000
0000
0000
0000
0000
0000
0000
0000
0000
1000
0001
0000
0100
0000
0000
0000
0010
0000
0000
0000
0000
0000
0000
0000
1000
0000
0000
0000
0000
0000
0000
0000
0001
0000
0000
0000
1000
0000
0000
0000
0000
0000
0000
0000
0010
0000
0000
0000
0000
0000
0000
0000
0100
0000
0000
0000
0000
0000
0000
0000
,
0010
0100
0010
0100
0010
1000
0001
1000
0001
0010
0100
0010
1000
0001
1000
0001
,
0200
0000
0000
0000
0300
0000
0000
0000
0000
0000
0000
0000
0000
0100
0010
0000
0001
0000
0000
0000
1000
0000
0000
0000
0000
0000
0000
0000
0001
0000
0000
0000
0000
0000
0000
0000
0010
0000
0000
0000
0001
0000
0000
0000
1000
0000
0000
0000
0010
0000
0000
0000
0000
0000
0000
0000
1000
0000
0000
0000
0000
0000
0000
0000
,
0100
0000
0000
0000
0000
0000
0000
0000
0000
0000
0000
0000
0000
0001
0010
0000
0100
0000
0000
0000
1000
0000
0000
0000
0000
0000
0000
0000
0001
0000
0000
0000
0000
0000
0000
0000
0100
0000
0000
0000
0010
0000
0000
0000
0000
0000
0000
0000
0100
0000
0000
0000
1000
0000
0000
0000
0001
0000
0000
0000
0100
0000
0000
0000
,
1000
0000
0000
0000
0000
0000
0000
0000
0000
0000
0000
0000
0000
0001
1000
0000
0010
0000
0000
0000
0100
0000
0000
0000
0000
0000
0000
0000
0001
0000
0000
0000
0000
0000
0000
0000
1000
0000
0000
0000
0001
0000
0000
0000
0000
0000
0000
0000
0100
0000
0000
0000
0000
0000
0000
0000
0000
0000
0000
0000
0000
0000
0000
0000
,
0010
0000
0000
0001
0000
0000
0010
0000
0000
0100
0000
0000
1000
0000
0000
0001
0000
0000
1000
0000
0000
0010
0000
0000
0100
0000
0001
0000
1000
0000
0010
0000
0100
0000
0010
0000
0001
0000
0100
1000
0000
0000
0001
0000
0010
1000
0000
0000
,
0100
0000
0000
0000
0000
0000
0100
0010
0100
0000
0001
0000
1000
0000
0000
0000
0001
0000
0000
0000
0100
0000
0000
0000
0010
0000
0000
0000
0000
0000
0000
0000
,
0100
0000
0001
0000
1000
0000
0010
0000
0100
0000
0001
0000
1000
0001
1000
0001
,
0110
0000
0000
0000
0000
0000
1000
0010
0001
0000
0010
0000
1000
0000
0000
0000
0010
0000
0000
0000
0100
0000
0000
0000
0001
0000
0000
0000
0000
0000
0000
0000
,
0010
0000
0001
0000
0010
0000
0000
0000
1000
0000
0010
0000
0100
1000
0001
0100
,
0010
0000
0000
0000
0000
0000
0100
0001
1000
0000
0010
0000
0100
0000
0000
0000
0001
0000
0000
0000
0100
0000
0000
0000
0010
0000
0000
0000
0000
0000
0000
0000
,
0100
0001
1000
0000
0001
0100
0010
0000
,
0010
0001
0000
1000
0000
0001
0100
0000
0010
0100
1000
0000
0001
0000
0000
0000
,
0010
0000
0000
0100
0000
0000
0010
0000
0000
1000
0000
0000
0001
0000
0000
0000
0000
0000
0100
0000
0000
0000
0000
0000
0010
0000
1000
0000
0001
0000
0100
0000
0010
0000
0100
0000
1000
0000
0010
0001
0000
0000
1000
0000
0100
0001
0000
0000
,
0010
1000
0001
0000
0100
0010
0001
0000
,
1000
0000
0010
0000
0100
0000
0001
0000
1000
0000
0010
0000
0100
0001
1000
0100
,
0010
0001
0010
0000
1000
0100
1000
0000
,
0010
0000
0000
0000
0100
0000
0000
0000
0001
0000
0000
0000
1000
0000
0000
0000
0010
0001
1000
0000
0100
0000
0001
0000
0010
0000
0100
0000
1000
0000
0010
0000
,
1001
0000
1010
0000
0010
0100
1000
0000
,
0001
0000
0100
0000
0010
0000
0000
0000
1000
0000
0001
0000
0100
0001
0010
0100
,
1000
0001
0100
0000
0010
0001
1000
0000
,
0001
0000
0000
0100
0000
0000
0001
0000
0000
1000
0000
0000
0010
0000
0000
1000
0000
0000
0010
0000
0000
0001
0000
0000
0100
0000
0001
0000
1000
0000
0010
0000
0100
0000
0010
0000
0001
0000
0100
1000
0000
0000
0001
0000
0010
1000
0000
0000
,
0001
0000
0000
0000
0000
0000
0000
0000
0000
0000
0000
0000
0000
0010
0100
0000
1000
0000
0000
0000
0001
0000
0000
0000
0000
0000
0000
0000
1000
0000
0000
0000
0000
0000
0000
0000
0100
0000
0000
0000
1000
0000
0000
0000
0001
0000
0000
0000
0100
0000
0000
0000
0000
0000
0000
0000
0001
0000
0000
0000
0000
0000
0000
0000
,
0010
0000
0000
0000
0000
0000
0000
0000
0000
0000
0000
0000
0000
1000
0100
0000
0010
0000
0000
0000
0001
0000
0000
0000
0000
0000
0000
0000
1000
0000
0000
0000
0000
0000
0000
0000
0010
0000
0000
0000
0100
0000
0000
0000
0000
0000
0000
0000
0010
0000
0000
0000
0001
0000
0000
0000
1000
0000
0000
0000
0010
0000
0000
0000
,
0001
0000
0000
0000
0000
0000
0000
0000
0000
0000
0000
0000
0000
1000
0001
0000
0100
0000
0000
0000
0010
0000
0000
0000
0000
0000
0000
0000
1000
0000
0000
0000
0000
0000
0000
0000
0001
0000
0000
0000
1000
0000
0000
0000
0000
0000
0000
0000
0020
0000
0000
0000
0000
0000
0000
0000
0030
0000
0000
0000
1000
0000
0000
0000
,
0010
0000
0000
0000
0000
0000
0000
0000
0001
0000
0000
0000
1000
0000
0000
0000
0010
0000
0000
0000
1000
0000
0000
0000
0100
0000
0000
0000
0001
0000
0000
0000
0010
0000
0000
1000
0000
0000
0001
0000
0100
0000
0000
0000
0010
0000
0000
0000
1000
0000
0000
0000
0001
0000
0000
0000
1000
0000
0000
0000
0001
0000
0000
0000
,
0100
0000
0000
0000
0000
0000
0000
0000
0000
0000
0000
0000
0000
0100
0010
0000
0001
0000
0000
0000
1000
0000
0000
0000
0000
0000
0000
0000
0001
0000
0000
0000
0000
0000
0000
0000
0010
0000
0000
0000
0001
0000
0000
0000
1000
0000
0000
0000
0010
0000
0000
0000
0000
0000
0000
0000
1000
0000
0000
0000
0000
0000
0000
0000
,
0100
0000
0000
0000
0000
0000
0000
0000
0000
0000
0000
0000
0000
0001
0010
0000
0100
0000
0000
0000
1000
0000
0000
0000
0000
0000
0000
0000
0001
0000
0000
0000
0000
0000
0000
0000
0100
0000
0000
0000
0010
0000
0000
0000
0000
0000
0000
0000
0100
0000
0000
0000
1000
0000
0000
0000
0001
0000
0000
0000
0100
0000
0000
0000
,
1000
0000
0000
0000
0000
0000
0000
0000
0000
0000
0000
0000
0000
0001
1000
0000
0010
0000
0000
0000
0100
0000
0000
0000
0000
0000
0000
0000
0001
0000
0000
0000
0000
0000
0000
0000
1000
0000
0000
0000
0001
0000
0000
0000
0000
0000
0000
0000
0100
0000
0000
0000
0000
0000
0000
0000
0000
0000
0000
0000
0000
0000
0000
0000
,
0100
0000
0000
0000
0000
0000
1000
0000
0000
0001
0000
0000
0100
0000
0000
0000
0000
0000
0001
0000
0000
1000
0000
0000
0100
0000
0001
0000
1000
0000
0010
0000
0100
0000
0010
0000
0001
0000
0100
1000
0000
0000
0001
0000
0010
1000
0000
0000
,
0100
0000
0000
0001
0000
0000
1000
0000
0010
0100
0000
0001
0000
0000
1000
0000
,
0100
0000
0000
0010
0000
0000
1000
0000
0001
0100
0000
0010
0000
0000
1000
0000
,
0001
0000
0000
0100
0010
0000
1000
0000
0001
0100
0000
0010
0000
0000
1000
0000
,
0001
0000
0000
0100
0000
0000
0010
0000
0001
0010
0000
1000
0001
0000
0100
0010
,
0100
0000
0000
0001
1000
0000
0000
0010
0000
0100
0000
0001
1000
0000
0010
0000
,
0100
0000
0001
0000
1000
0010
0000
0100
0002
0000
0000
0000
0003
0000
0010
1000
,
0010
0000
1000
0000
0100
0001
0000
0010
0000
1000
0001
0000
0100
0000
0001
0000
,
0010
0100
1000
0000
0010
0000
1000
0000
0001
0000
0100
0000
0001
0000
1000
0000
0010
0000
0100
0000
0000
0000
0001
0000
0000
0000
0000
0000
0100
0000
0010
0000
,
2002
0000
0000
0000
,
0000
0000
0000
0000
,
3003
0000
0000
0000
;
