#TITLE:CaptivAte~裁き~ (SUBLIME TECHNO MIX);
#ARTIST:Remixed by DJ YOSHITAKA;
#TITLETRANSLIT:CaptivAte ~SABAKI~ (SUBLIME TECHNO MIX);
#GENRE:SUBLIME TECHNO;
#MUSIC:CaptivAte ~SABAKI~ (SUBLIME TECHNO MIX).ogg;
#BANNER:CaptivAte ~SABAKI~ (SUBLIME TECHNO MIX).png;
#BACKGROUND:CaptivAte ~SABAKI~ (SUBLIME TECHNO MIX)-bg.png;
#CDTITLE:./CDTitles/bm IIDX 17 SIRIUS.png;
#SAMPLESTART:83.745;
#SAMPLELENGTH:15;
#SELECTABLE:YES;
#OFFSET:-0.100;
#BPMS:0=180;
#BGSTAGE:30;

//--------------- dance-single - X/L-bSP ----------------
#NOTES:
     dance-single:
     X/L:
     Beginner:
     5:
     0,0,0,0,0:
0000
0000
0000
0000
,
0000
0000
0000
0000
,
0000
0000
0000
0000
,
0000
0000
0000
0000
,
0000
0000
0000
0000
,
0000
0000
0000
0000
,
0000
0000
0000
0000
,
0000
0000
0000
0000
,
0000
0000
0000
0000
,
0000
0000
0000
0000
,
0000
0000
0000
0000
,
0000
0000
0000
0000
,
0000
0000
0000
0000
,
0000
0000
0000
0010
,
0000
0010
0000
0010
,
0000
0000
0000
1000
,
0000
1000
0000
1000
,
0000
0000
0000
0001
,
0000
0100
0000
0001
,
0000
0000
0000
0010
,
0000
0100
0000
1000
,
0000
0000
0000
0010
,
0010
0010
0000
0100
,
0100
0100
0000
0001
,
0001
0001
1000
0010
,
0100
0010
0000
0001
,
0000
1000
0000
0010
,
0100
1000
0000
0001
,
0000
0100
0000
0010
,
0001
0010
0000
1000
,
0000
0001
0000
1000
,
0010
0100
0000
0001
,
0000
0010
0000
0100
,
0000
0001
0000
1000
,
0000
0000
0000
0010
,
0000
0000
0000
0100
,
0000
0001
0000
1000
,
0010
0100
0000
1001
,
0000
0000
0000
0010
,
0010
0100
0001
1000
,
0000
0010
0000
1000
,
1000
0001
0100
0010
,
0000
0100
0000
0001
,
1000
0010
0000
0100
,
1000
0001
0000
0100
,
0000
0010
0000
0100
,
0001
1000
0000
0010
,
0000
0100
0000
0010
,
0000
1000
0000
0001
,
0000
0100
0000
0010
,
0010
1000
0000
0001
,
0000
1000
0000
0001
,
0000
0100
0000
0010
,
0100
0010
0000
0001
,
1000
0010
0000
0100
,
0000
0000
0000
0001
,
0000
1000
0000
0010
,
0000
0000
0000
1000
,
0000
0001
0000
0100
,
0000
0000
0000
1000
,
0000
0010
0000
0100
,
0000
0000
0000
0010
,
0000
0100
0000
1001
,
0000
0000
0000
0001
,
0001
0001
0000
1000
,
1000
1000
0000
0010
,
0010
0100
0100
1000
,
1000
0001
0000
0100
,
0000
0010
0000
1000
,
0001
0100
0000
0010
,
0000
1000
0000
0010
,
0100
0001
0000
0001
,
0001
1000
1000
0010
,
0010
0100
0100
0001
,
1000
0010
0100
0010
,
0000
1000
0000
0001
,
0100
0010
0000
1000
,
0010
0100
0000
0001
,
0100
0010
1000
0001
,
0000
0100
0000
1001
,
0000
0000
0000
1001
,
0000
0000
0000
0110
,
0000
0000
0000
0110
,
0000
0000
0000
0011
,
0000
0000
0000
0011
,
0000
0000
0000
1100
,
0000
0000
0000
1100
,
0000
0000
0000
0010
,
0010
0010
0000
0100
,
0100
0100
0000
0001
,
0000
1000
0000
0010
,
0000
0100
0000
0001
,
1000
0001
0000
0010
,
0100
0010
0000
1000
,
0010
1000
0000
0100
,
0001
0100
0000
2002
,
0000
0000
0000
0000
,
0000
0000
3003
0000
;

//--------------- dance-single - X/L-BSP ----------------
#NOTES:
     dance-single:
     X/L:
     Easy:
     8:
     0,0,0,0,0:
0000
0000
0000
0000
,
0000
0000
0000
0000
,
0000
0000
0000
0000
,
0000
0000
0000
0001
,
0000
1000
0000
0000
0010
0000
0000
0100
,
0000
0001
0000
1000
,
0000
0010
0000
0000
0100
0000
0000
0001
,
0000
1000
0000
0010
,
0000
1000
0000
0000
0001
0000
0000
0100
,
0000
0010
0000
1000
,
0000
0001
0000
0000
0100
0000
0000
0010
,
0000
1000
0001
0020
,
0000
0000
0000
0000
,
0000
0000
0200
0000
0000
0330
0001
0000
,
1000
0010
0000
0100
,
0001
1000
0010
1000
,
0010
0100
0000
0001
,
0000
1000
0000
0001
,
0100
0010
0000
0001
,
1000
0001
0000
0100
,
0010
0000
1000
0000
0010
0000
0001
0010
,
0001
0000
1000
0010
1000
0000
0100
0000
,
0001
1000
0000
0001
,
0100
0010
1000
0010
,
0100
0001
1000
0010
,
0100
0001
0000
1000
,
0001
0100
0010
1000
,
0000
0010
0000
0001
,
1000
0000
0010
0000
0100
0000
0001
1000
,
0001
0000
0100
0010
0100
0000
0001
0000
,
1000
0010
0000
1000
,
0001
0100
0000
0010
,
1000
0100
0000
0001
,
0100
0010
0000
0010
,
0001
1000
0010
0100
,
0000
0001
0000
1000
,
0010
0000
0100
0000
1000
0000
0010
0001
,
0010
0000
1000
0010
1000
0000
0020
0000
,
0000
0000
2000
0000
0000
3030
0110
0000
,
0000
1000
0000
1000
0000
0010
0010
0000
,
0000
0100
0000
0100
0000
0001
0001
0000
,
0000
1000
0000
0001
0000
1000
1000
0000
,
0000
0001
0000
0000
0010
0000
0110
0000
,
0000
0100
1000
0001
,
0010
0001
0100
0010
,
0010
0100
0100
0001
,
0001
1000
0001
0110
,
0000
1000
0000
1000
0000
0100
0100
0000
,
0000
0100
0000
0100
0000
0010
0010
0000
,
0000
0010
0000
0010
0000
0001
0100
0000
,
0000
0010
0010
0110
,
0001
0010
0010
0001
,
0100
0010
1000
0001
,
1000
0000
0001
0000
1000
0000
0010
0200
,
0000
0300
0100
0000
0010
0000
0001
0000
,
1000
0000
0010
0001
0010
0000
1000
0000
,
0001
0100
0000
1000
,
0010
0100
0010
0000
1000
0000
0001
0000
,
0100
0010
0000
0001
,
1000
0000
0001
0100
0001
0000
1000
0000
,
0010
0100
0000
0010
,
1000
0001
0100
0001
,
1000
0010
0000
0100
0001
0000
0010
0000
,
0000
0000
0100
0000
0001
0000
1000
0010
,
0100
0001
1000
0010
,
0000
0000
1000
0000
0000
0000
0010
0100
,
0010
0000
0001
0010
0001
0000
1000
0000
,
0010
0000
0100
0010
0000
0000
1000
0000
,
0000
0001
0000
0100
,
0001
0000
0010
0001
0001
0000
1000
0000
,
0010
0000
0100
0000
0001
0000
1000
1000
,
0000
0000
0010
0100
0010
0000
0001
0000
,
0000
0000
1000
0000
0010
0000
0010
0010
,
0000
0000
0100
0100
0000
0000
0001
0000
,
1000
0000
0001
0000
0100
0000
0001
0001
,
0000
1000
0000
0100
,
0010
0000
1000
0001
0100
0000
0010
0000
,
1000
0000
0010
0001
0010
0000
1000
0010
,
1000
0000
0010
0100
0010
0000
0001
1000
,
0010
0100
0001
0000
0010
0000
1000
0000
,
0000
0001
0000
0000
0100
0000
0000
0010
,
0000
1000
0001
0100
,
0000
0010
0000
0000
0100
0000
0000
0010
,
0000
1000
0001
0100
,
0000
0010
0000
0000
1000
0000
0000
0010
,
0000
0100
0001
1000
,
0000
0001
0000
0000
0100
0000
0000
0010
,
0000
1000
0010
0100
,
0001
0000
1000
0000
0010
0000
0010
0001
,
0010
1000
0010
0100
,
0001
0010
0001
0000
1000
0000
0010
0000
,
0100
1000
0100
0000
0010
0000
0100
0000
,
0001
1000
0010
0000
0100
0000
0001
0000
,
1000
0010
0000
0100
,
0001
0000
1000
0000
0010
0000
0100
0001
,
1000
0010
0100
0020
,
0000
0000
0000
0000
,
0000
0000
0030
0000
;

//--------------- dance-single - X/L-DSP ----------------
#NOTES:
     dance-single:
     X/L:
     Medium:
     13:
     0,0,0,0,0:
0000
0000
0000
0000
,
0000
0000
0000
0000
,
0000
0000
0000
0000
,
0000
0000
0000
0011
,
0000
1100
0000
0000
0110
0000
0000
1001
,
0000
0101
1010
0110
,
0000
1001
0000
0000
0101
0000
0000
1001
,
0000
0000
0110
0000
1001
0000
0010
0001
,
0010
0000
1000
0010
1000
0000
0010
0100
,
0010
0000
0001
0000
1000
0000
0010
0100
,
0001
0000
1000
0000
0010
0000
1000
0001
,
0100
0010
1000
0001
0100
0010
2000
0000
,
0000
0000
0000
0000
,
0000
0000
0002
0000
0000
3003
0010
0000
,
1000
0000
0001
0100
0000
0010
0000
1000
,
0000
0001
0100
0000
0010
0000
1000
0000
,
0010
0001
0000
1000
0010
0000
0100
0010
,
0000
1000
0001
0000
0100
0000
0010
0000
,
0100
0000
0001
1000
0000
0010
0000
0100
,
0000
1000
0001
0010
,
1000
0000
0001
0000
0100
0000
0001
1000
,
0010
0100
0001
1000
0010
0100
0001
0000
,
0010
0000
1000
0000
0001
0000
0010
0001
,
0010
0000
1000
0000
0010
0000
0100
1000
,
0100
0000
0010
0001
0010
0000
0010
0100
,
0010
0000
1000
0001
0000
0000
0100
0000
,
0010
1000
0000
0001
,
0100
0010
0000
1000
,
0001
0000
0100
0000
0010
0000
0001
1000
,
0010
0100
0001
1000
0010
0100
0001
0000
,
1000
0001
0000
0100
,
1000
0000
0001
0000
0100
0000
0010
0001
,
0010
0000
1000
0010
1000
0000
0001
0000
,
0100
0000
0010
0100
0000
0000
1000
0000
,
0010
0000
0001
0000
1000
0000
0010
0100
,
1000
0000
0001
0000
0100
0000
0010
0001
,
1000
0010
0100
0010
0001
1000
0010
0001
,
1000
0000
0100
0000
0001
1000
0010
1000
0010
0100
0001
1000
0020
0000
0000
0000
,
0000
0000
0200
0000
0000
0330
0001
0000
,
0010
0001
0000
0100
0000
0010
0000
0010
,
1000
0100
0000
0100
1000
0001
1000
0000
,
0010
1000
0000
0001
0000
0010
0000
0010
,
0100
0010
0001
0001
0000
0000
1000
0010
,
1000
0100
0000
1000
0000
0001
0000
0100
,
0000
0000
0010
0000
0000
0000
1000
0000
0000
0000
0001
0000
1000
0000
0000
1100
,
0000
0000
0010
0000
0001
0000
0000
0011
0000
0000
0001
0000
0100
0000
0000
0110
,
0000
0010
1000
0100
0001
0010
0001
0000
,
1000
0100
0000
0010
0100
1000
0010
0000
,
0100
0001
0000
1000
0001
0000
1000
0000
,
0010
0100
0000
0001
0010
0100
1000
0000
,
0010
0100
0000
0010
0010
0010
1001
0000
,
0100
0000
0010
0000
0000
0000
1000
0000
0000
0000
0001
0000
0100
0000
0000
0101
,
0000
0000
1000
0000
0010
0000
0000
1010
0000
0000
0001
0000
0010
0000
0000
0011
,
0000
0000
1000
0000
0100
0000
0000
1100
0000
0000
1000
0000
0010
0000
1000
0000
,
0000
0000
0001
0000
0001
0000
0001
0000
0001
0000
0001
0000
1000
0000
0000
0010
,
0000
0100
0000
0001
1000
0000
0010
0000
,
0100
0000
0001
0000
0010
0000
0000
0000
1000
0000
0000
0000
0010
0000
0000
0100
,
0000
0001
1000
0000
0010
0000
0000
1000
,
0001
0000
0000
0000
0100
0000
0000
0010
0000
0000
0001
0000
1000
0000
0000
0000
,
0010
0100
0001
0000
1000
0010
0000
0100
,
1000
0000
0000
0000
0001
0000
0000
0100
0000
0000
0010
0000
0001
0000
0000
0000
,
1000
0000
0001
0000
0000
0000
0100
0000
0010
0000
0000
0000
0001
0000
0000
0100
,
0000
0010
0000
1000
0001
0000
0200
0000
,
0000
0300
0001
1000
0010
0100
0001
0000
,
1000
0000
0010
0001
0010
0000
1000
0000
,
0010
0000
0100
0001
1000
0000
0010
0000
,
1000
0000
0001
0000
0100
0000
0010
1000
,
0010
0100
0010
1000
0000
0000
0001
0000
,
0010
0000
1000
0001
0100
0000
0010
0000
,
1000
0000
0010
0001
0010
0000
1000
0010
,
1000
0000
0100
0010
0100
0000
0001
1000
,
0010
0100
0001
1000
0010
0000
0001
0000
,
1000
0000
0001
0000
0100
0000
0010
0001
,
0010
0000
1000
0000
0001
0000
0100
0010
,
0100
0000
1000
0001
0100
0000
0010
1000
,
0010
0000
0001
0100
0001
0000
1000
0000
,
0001
0000
0010
0001
0010
0000
1000
0000
,
0010
0000
0100
0001
1000
0000
0010
0000
,
0100
0001
1000
0010
,
0100
0000
0000
0000
0001
0100
0010
1000
0001
0100
0001
1000
0010
0000
0000
0000
,
0000
0100
0000
0000
0001
0000
0000
1000
,
0000
0010
0100
0001
,
0000
1000
0000
0000
0010
0000
0000
0100
,
0000
1000
0001
0101
,
0000
1010
0000
0000
0110
0000
0000
1001
,
0000
0011
1100
0101
,
0000
1010
0000
0000
0110
0000
0000
1001
,
0000
0000
0101
0000
1010
0000
0010
0100
,
0001
1000
0000
0010
0100
0000
0001
0000
,
1000
0000
0001
0100
0010
0000
1000
0000
,
0001
0000
0010
0001
0010
0000
1000
0010
,
0100
0000
0001
0100
0010
0000
1000
0000
,
0001
0000
0100
0010
1000
0000
0001
0000
,
1000
0000
0010
0100
0001
0000
1000
0000
,
0001
0000
0100
0000
0010
0000
1000
0001
,
0100
0010
1000
0001
0100
0010
0200
0000
,
0000
0000
0000
0000
,
0000
0000
0300
0000
;

//--------------- dance-single - X/L-ESP ----------------
#NOTES:
     dance-single:
     X/L:
     Hard:
     17:
     0,0,0,0,0:
0000
0000
0000
0000
,
0000
0000
0000
0000
,
0000
0000
0000
0000
,
0000
0000
0000
0000
0000
0000
0000
0000
0000
0000
0000
0000
0100
1000
0010
0100
,
0001
1000
0100
0010
0001
1000
0001
1000
0001
0100
0010
0100
0010
0100
0001
0010
,
0100
1000
0001
0010
0100
0010
0100
1000
0001
1000
0001
0010
0100
1000
0001
0100
,
0001
0010
0100
1000
0100
1000
0100
0010
0001
0100
0010
1000
0001
0100
0010
1000
,
0001
0100
0010
0100
0001
0100
0010
1000
0010
0100
0001
0100
0010
1000
0100
0010
,
0001
1000
0010
0100
0010
1000
0010
0100
0001
0010
0100
0010
0001
1000
0010
0100
,
0001
0100
0010
1000
0001
0010
0100
1000
0010
0100
0010
1000
0001
1000
0100
1000
,
0001
0010
0100
1000
0010
0100
0010
1000
0001
0010
0100
1000
0100
0010
0100
0010
,
0001
1000
0001
0010
0100
1000
0100
0010
0001
1000
0010
1000
0002
0000
0000
0000
,
0000
0000
0000
0000
,
0000
0000
0200
0000
0000
0303
1001
0000
,
0100
0010
1000
0010
0100
0001
0000
0001
,
0001
1000
0100
0010
0001
0010
0100
0000
,
1000
0100
1000
0001
0010
0000
0001
0000
,
0100
0001
2000
0000
3010
0000
0001
0000
,
1000
0000
0010
0100
0001
1000
0000
0010
,
0100
0000
0001
0000
1000
0000
0010
0001
,
0010
0000
0000
0000
1000
0000
0010
0000
1000
0000
0000
0000
0100
1000
0100
0010
,
0100
1000
0001
0100
0010
1000
0001
0100
0001
1000
0010
0100
0001
0000
1000
0000
,
0010
0000
0100
0010
0001
0000
1000
0010
,
0100
0001
1000
0010
0100
0000
0101
0000
,
0000
1010
0000
0110
,
1001
0000
0101
0101
0000
0000
0010
1000
,
0010
0000
0100
0010
0001
0000
1000
0010
,
0100
0000
0001
1000
0010
0000
0100
0001
,
1000
0000
0010
0000
0100
0000
0001
0000
1000
0000
0100
0000
0001
1000
0100
0010
,
0100
0010
0100
1000
0001
0100
0010
1000
0010
1000
0100
0010
0001
0000
1000
0000
,
0010
0000
0100
0010
0001
0000
1000
0010
,
0100
0001
1000
0010
0100
0000
0001
0000
,
0100
0000
1000
0001
0100
0000
0010
1000
,
0001
0100
0010
0100
0000
0000
0001
1000
,
0010
0000
0100
0001
1000
0000
0010
0100
,
0001
0000
1000
0000
0010
0000
0010
1000
,
0001
0000
0100
0000
0010
0000
1000
0000
0001
0000
0100
0000
0010
1000
0100
1000
,
0100
0010
0001
1000
0100
0010
0001
1000
0010
1000
0100
0010
0002
0000
0000
0000
,
0000
0000
2000
0000
0000
3003
0110
1000
,
0010
0100
0001
0010
0100
0100
0010
0001
,
0100
0010
1000
0001
1000
1000
0001
0010
,
0100
0010
0001
0100
0010
0010
1000
0010
,
0100
0001
0110
0110
0000
0000
1001
0100
,
0010
0002
0000
0023
0000
2030
0000
3020
,
0000
0000
0032
0000
0000
0000
0203
0000
0000
0000
0301
1000
0001
0000
0000
0101
,
0000
0000
1000
0010
1000
0000
0000
1010
0000
0000
1000
0100
1000
0000
0000
1100
,
0000
0000
0001
0010
0100
0000
1000
0100
0010
0001
0010
1000
0110
0000
0100
0000
,
0001
1000
0010
0100
0001
0001
0010
0100
,
0010
0000
0001
0000
1000
0000
0010
1000
0001
0000
0010
0000
0010
0000
0100
0000
,
0010
0001
0100
0010
1000
1000
0100
1000
,
0010
0100
0110
0110
0110
0110
1001
0100
,
0001
0000
2000
0000
0000
0000
3200
0000
0000
0000
1300
0100
1000
0000
0000
1100
,
0000
0000
0001
0010
0001
0000
0000
0011
0000
0000
0100
0010
0100
0000
0000
0110
,
0000
0000
1000
0001
0010
0000
0000
0011
0000
0000
0001
1000
0010
0000
1001
0000
,
0110
0000
1001
0000
0100
0010
0001
1000
0001
0100
0010
1000
0010
0000
0100
0000
,
0001
1000
0010
0000
0100
0001
1000
0000
,
0010
0100
0001
0000
1000
0000
0010
0000
,
1000
0001
0100
0010
1000
0001
0000
0100
,
0001
0000
0000
0000
1000
0000
0000
0010
0000
0000
0100
0000
0010
0000
0000
0000
,
0001
1000
0010
0000
0010
0000
0100
0001
,
1000
0010
0100
0000
0001
0000
1000
0000
,
0010
0100
0000
0001
1000
0000
0010
0000
,
0100
0001
0000
1000
0010
0000
0200
0000
,
0000
0300
0001
1000
0010
0100
0010
0000
,
1000
0000
0001
0000
0100
0001
1000
0000
,
0010
0100
0000
0001
0000
1000
0010
0000
,
0100
1000
0000
0010
0100
0001
1000
0000
,
0010
0000
0100
0001
0000
0000
1000
0000
,
0010
0001
0010
0000
1000
0000
0010
0100
,
0001
1000
0010
0000
0100
0000
1000
0010
,
0100
0000
0010
0001
0010
0000
1000
0001
,
0010
0100
0001
0010
0001
0010
0001
1000
0100
0010
0001
0010
1000
0000
0001
0000
,
0100
0000
0010
0001
0010
0000
0001
1000
,
0010
0100
0001
0000
1000
0000
0010
0100
,
0001
0000
1000
0000
0001
0000
0100
0010
,
0000
0000
1000
0100
0000
0000
0100
0001
,
0100
0001
1000
0000
0010
0000
0100
0001
,
1000
0000
0010
0000
0100
0000
0000
0000
0010
0000
1000
0100
0001
0000
1000
0000
,
0010
0100
0001
1000
0010
0001
1000
0010
,
0100
0000
0010
0000
0001
0010
0100
0010
0100
0010
0001
0100
1010
0000
0000
0000
,
0000
0011
0000
0000
1100
0000
0000
0110
,
0000
0110
1001
1100
,
0000
0101
0000
0000
1010
0000
0000
0110
,
0000
1001
0110
0100
,
0001
0100
0000
0010
1000
0000
0010
0100
,
0000
0000
0001
0000
1000
0000
0000
0000
0010
0000
0000
0000
0100
0000
0000
0001
,
0000
1000
0000
0010
0100
0000
0001
1000
,
0000
0000
0010
0000
0100
0000
0000
0000
0001
0000
0000
0000
0001
0100
0001
1000
,
0100
0010
0100
0010
0100
1000
0010
1000
0100
0010
0001
0010
0001
0100
0001
1000
,
0010
0100
0001
0100
0001
1000
0001
0100
0010
1000
0010
1000
0100
1000
0100
0010
,
0001
1000
0010
1000
0001
0010
0100
0010
0001
0100
0001
1000
0100
0010
0001
0100
,
0010
0100
0001
1000
0010
0100
0010
1000
0001
0100
0010
1000
0100
1000
0100
1000
,
0001
0100
0010
0100
0001
1000
0100
0010
0100
1000
0010
1000
0010
0100
0010
1000
,
0001
0010
0100
1000
0100
0010
0100
1000
0010
0100
0001
0010
0001
1000
0100
0010
,
0001
0010
0001
1000
0010
0100
0001
1000
0010
0100
0001
0010
0100
0010
0001
0010
,
0001
0100
0010
0100
0010
1000
0100
0010
0100
0010
0001
1000
0002
0000
0000
0000
,
0000
0000
0000
0000
,
0000
0000
0003
0000
;

//--------------- dance-single - X/L†-CSP ----------------
#NOTES:
     dance-single:
     X/L†:
     Challenge:
     19:
     0,0,0,0,0:
0000
0000
0000
0000
,
0000
0000
0000
0000
,
0000
0000
0000
0000
,
0000
0000
0000
0000
0000
0000
0000
0000
0000
0000
0000
0000
0010
1000
0001
0010
,
0100
1000
0001
0010
0100
1000
0100
1000
0100
0010
0001
0100
0001
1000
0010
1000
,
0001
0010
0100
0010
0001
0100
0001
0100
0010
0100
0010
1000
0100
0010
0001
0010
,
0100
0010
0001
0100
0001
0010
0001
1000
0100
0010
0001
0100
0010
1000
0001
1000
,
0001
0100
0010
0100
0001
0100
0010
1000
0100
0010
0001
1000
0100
0010
0100
0010
,
0100
1000
0001
1000
0100
0010
0100
1000
0001
0100
0010
1000
0100
0010
0001
1000
,
0010
0000
1000
0000
0010
0000
1000
0000
0010
0000
0100
0000
0001
0000
1000
0000
0100
0000
0010
0000
0001
0000
1000
0000
0100
0001
0010
0000
0100
0000
1000
0000
,
0010
0000
1000
0000
0100
0000
0010
0000
0100
0001
1000
0000
0010
0000
0100
0000
0001
0000
1000
0000
0100
0000
0010
0000
0001
1000
0010
0000
0001
0000
0010
0000
,
0100
0000
1000
0000
0010
0100
1000
0000
0001
0000
1000
0000
0001
1000
0010
0000
0100
0000
0010
0000
0100
0000
1000
0001
0200
0000
0000
0000
0000
0000
0000
0000
,
0000
0000
0000
0000
,
0000
0000
0020
0000
0000
0330
1000
0001
,
0100
0000
0010
0000
0001
0010
0001
0000
1000
0000
0010
0000
0100
0000
0001
0000
,
1000
0100
0001
1000
0010
0000
1000
0000
0001
0000
0000
0000
0100
0000
0010
0000
,
0001
0000
1000
0001
0100
0000
0010
0001
,
1000
0000
0010
0000
0100
0001
1000
0000
0010
0000
0000
0000
0100
0000
0001
0000
,
1000
0000
0010
0000
0001
0010
0001
0000
1000
0000
0010
0000
0100
0000
0001
1000
,
0001
0000
0100
0000
1000
0000
0010
0001
0010
0000
1000
0000
0100
0000
0001
0000
,
1000
0000
0010
0000
0100
0000
0001
0100
1000
0000
0001
1000
0100
0010
0100
0010
,
0001
1000
0010
0100
0010
1000
0001
0010
0100
0010
0001
0010
1000
0000
0000
0001
,
0000
0100
1000
0010
0001
1000
0010
0100
,
0001
0000
1000
0000
0010
0000
0001
0010
0001
0000
1000
0000
0010
0000
0000
0000
,
0100
0000
0001
1000
0001
0000
1000
0001
1000
0000
0100
0000
0001
0000
0000
0000
,
1000
0000
0001
0000
0100
0001
1000
0000
0010
0000
0100
1000
0001
0000
0000
0000
,
1000
0000
0010
0000
0001
0000
0000
0010
0001
0000
1000
0000
0010
0000
0100
0000
,
0001
1000
0001
0000
0100
0000
0010
0001
0010
0000
1000
0000
0100
1000
0001
1000
,
0001
0100
0001
0100
0010
0100
0001
0010
0100
1000
0100
0010
0100
0010
0001
0010
,
0100
1000
0001
1000
0001
0100
0010
1000
0001
0100
0010
1000
0010
0000
0100
0000
,
0001
0000
1000
0000
0000
0000
0010
0000
0100
0001
0100
0000
1000
0001
1000
0000
,
0001
0000
0100
0000
1000
0000
0010
0000
0100
0000
0001
0000
0010
0001
1000
0000
,
0011
0000
0000
0000
0100
1000
0001
0000
1100
0000
0000
0000
0010
1000
0100
0000
,
0001
0000
1000
0000
0001
0000
0100
0001
0100
0000
0000
0000
0010
0000
1000
0001
,
1000
0000
0100
0000
0001
0000
1000
0010
1000
0000
0100
0000
0010
0000
0001
0100
,
1000
0000
0010
0000
0100
0001
0100
0000
1000
0000
0100
0000
0010
1000
0010
0001
,
0010
0000
1000
0000
0001
0000
0100
0000
1000
0000
0001
0000
1000
0000
0010
0000
1000
0000
0001
0000
0100
0000
0010
0000
1000
0100
0001
0000
0010
0000
0100
0000
,
1000
0000
0001
0000
0100
0000
0010
0000
0100
0010
0001
0000
1000
0000
0010
0000
0100
0000
0010
0000
0001
0000
1000
0100
0020
0000
0000
0000
0000
0000
0000
0000
,
0000
0000
0000
0000
0200
0000
0000
0000
0000
0000
0000
0330
1000
0000
0001
0000
,
0100
0000
0010
0000
0100
0000
1000
0001
1000
0000
0100
0000
0010
0000
1000
0000
,
0001
0000
1000
0000
0100
0000
0010
0001
0010
0000
0001
0000
1000
0001
0010
0000
,
0100
0000
0001
0000
1000
0100
0010
0000
0100
0000
0001
0000
1000
0001
0010
0000
,
0100
0001
0100
0000
1000
0000
0101
0000
0000
0000
0000
0000
1010
0000
0000
0000
,
0001
0010
0001
0000
0100
1000
0100
0000
0010
0100
0010
0000
0100
0001
0100
0000
,
1000
0001
1000
0000
0100
0000
0000
0010
0000
0000
1000
0000
0001
0000
0000
0100
,
0000
0000
0010
0000
1000
0000
0000
0001
1000
0000
0001
0100
0010
0000
1000
0000
,
0001
0000
0100
0000
0010
1000
0001
0100
0010
0000
1000
0000
0010
0000
1000
0000
,
0001
0010
0001
0000
1000
0001
1000
0000
0100
0000
0010
0000
1000
0000
0001
0000
,
0100
0000
0010
0000
1000
0010
0001
0100
1000
0001
0100
0000
0010
0000
0001
1000
,
0010
0000
1000
0000
0010
0001
0100
0000
0001
0000
1000
0100
0010
0000
0001
0010
,
0001
0000
1000
0000
0010
1000
0010
0000
0100
0001
0100
1000
0010
0000
0001
1000
,
0001
0000
0010
0000
0100
0000
1000
0000
0010
1000
0010
0000
0001
0000
1000
0000
,
0010
0000
0100
0000
0001
1000
0001
0000
1000
0000
0001
0000
0010
0100
0010
1000
,
0001
0000
0010
0000
0100
0000
1000
0000
0001
0000
0010
0000
0100
0000
0010
0000
0001
0000
0100
0000
0010
0000
1000
0000
0100
0001
0010
0000
0001
0000
1000
0000
,
0010
0000
0100
0000
0001
0000
1000
0000
0100
0010
1000
0000
0010
0000
1000
0000
0100
0000
0010
0000
0001
0000
0010
0000
1000
0000
0000
0000
0000
0000
0000
0000
,
0001
0100
0010
0000
0001
0010
0000
1000
,
0010
0000
0100
0000
0001
0000
0000
0000
0010
0001
0010
0001
1000
0000
0010
0000
,
1000
0001
0100
0000
0001
1000
0000
0010
,
0100
0000
0000
0000
1000
0000
0000
0001
0000
0000
0100
0000
0010
0000
0000
0000
,
1000
0001
0100
0000
0010
0001
1000
0000
,
0010
1000
0001
0000
0010
0000
0001
0000
,
0010
1000
0000
0001
0100
0000
1001
0000
,
0000
0110
0000
0000
0001
0000
2000
0000
,
0000
0000
3001
0010
0100
1000
0001
1000
,
0010
0000
0000
0000
0001
0000
0000
0100
0000
0000
1000
0000
0010
0000
0001
0000
,
0010
0000
0000
0000
0010
0000
0000
0001
0000
0000
0100
0000
1000
0000
0010
0000
,
0100
0000
0001
1000
0010
0000
0100
0001
,
1000
0000
0010
0000
1000
0001
0010
0000
0100
0000
0000
0000
1000
0010
1000
0000
,
0100
0000
0001
0000
0010
1000
0100
0000
0001
0000
0100
0000
1000
0001
0100
0000
,
0001
0000
0100
0000
0001
1000
0100
0000
0010
0000
0000
0000
1000
0000
0001
0000
,
0100
0010
1000
0001
0100
0000
0010
1000
,
0001
0000
0100
0000
0010
1000
0001
1000
0100
0010
0001
0100
1000
0000
0000
0000
,
0001
0000
0100
0010
0001
0100
1000
0010
,
0100
0001
1000
0000
0010
0000
0001
0010
,
0001
0000
1000
0010
0100
0000
0001
1000
,
0010
0000
0000
0000
0100
0000
0001
0000
0100
0000
1000
0010
1000
0000
0100
0000
,
0001
0000
1000
0010
0001
0000
1000
0001
,
0100
0000
0000
0000
0010
0000
0000
0000
0001
0000
0000
0000
0100
1000
0010
1000
,
0010
0000
0100
0000
0001
0000
0100
0000
0001
0000
0100
0000
0010
0000
1000
0000
0001
0000
1000
0000
0100
0000
0010
0000
0100
0001
1000
0000
0100
0000
1000
0000
,
0001
0000
1000
0000
0001
0000
0010
0000
0100
0000
1000
0100
0001
0000
0010
0000
0100
0000
1000
0000
0001
0000
1000
0000
0101
0000
0000
0000
0000
0000
0000
0000
,
0000
1010
0000
0000
0110
0000
0000
1001
,
0000
0101
1010
0101
,
0000
1001
0000
0000
0110
0000
0000
1001
,
0000
0011
1010
1001
,
0000
1010
0000
0000
0101
0000
0000
1010
,
0000
0101
1010
0101
,
0000
1010
0000
0000
0101
0000
0000
1010
,
0000
0000
0000
0000
0101
0000
0000
0000
1010
0000
0000
0000
0100
1000
0010
0100
,
0001
0100
0010
1000
0001
0010
0001
0100
0001
0010
0100
0010
0100
0010
0001
1000
,
0100
1000
0010
0100
0001
1000
0010
1000
0001
1000
0001
0010
0100
1000
0001
0010
,
0100
0010
0100
0010
0100
1000
0001
0100
0001
0100
0001
0100
0010
1000
0001
1000
,
0100
0010
0001
0100
0010
0100
0010
1000
0100
0010
0001
1000
0100
0010
0001
0100
,
0001
0010
0100
0010
0100
0010
0001
1000
0001
0100
0010
0100
0001
1000
0010
0100
,
0001
0000
0000
1000
0000
0000
0001
0000
0000
0100
0000
0000
0001
0000
0000
1000
0000
0000
0100
0000
0000
0010
0000
0000
0001
0000
0000
0100
0000
0000
0010
0000
0000
1000
0000
0000
0100
0000
0000
0010
1000
0000
0001
0000
0000
0010
0000
0000
,
0001
0100
0001
1000
0010
0100
0001
1000
0100
0010
0001
0010
0100
1000
0001
1000
,
0100
1000
0100
0010
0001
0010
0100
1000
0001
0010
0100
1000
0000
0000
0000
0000
;
