#TITLE:Can We Talk (Broken Dog Leg Mix);
#ARTIST:Forte Escape;
#GENRE:ACID JAZZ;
#MUSIC:Can We Talk (Broken Dog Leg Mix).ogg;
#BANNER:Can We Talk (Broken Dog Leg Mix).png;
#BACKGROUND:Can We Talk (Broken Dog Leg Mix)-bg.png;
#SAMPLESTART:103.578;
#SAMPLELENGTH:15;
#OFFSET:-0.193;
#BPMS:0=130;
#BGSTAGE:4;

//--------------- dance-single - XLev450X-bSP ----------------
#NOTES:
     dance-single:
     XLev450X:
     Beginner:
     3:
     0,0,0,0,0:
0000
0000
0000
0000
,
0000
0000
0000
0000
,
0000
0000
0000
0000
,
0000
0000
0000
0000
,
0001
1000
0001
0000
,
0010
0100
0010
0000
,
1000
0100
1000
0000
,
1001
0000
0000
0000
,
0010
0010
0010
0010
,
0010
0100
1000
0000
,
0100
0100
0100
0100
,
0010
1000
0001
0000
,
1000
1000
1000
1000
,
0100
0010
0001
0000
,
0001
0001
0001
0001
,
0010
0100
1000
0000
,
0010
0100
1000
0000
,
0100
0010
0001
0000
,
0001
1000
0001
0000
,
0010
1000
0010
0000
,
0100
0010
1000
0000
,
0001
0010
0001
0000
,
1000
0010
1000
0001
,
0100
0010
0100
0000
,
0001
1000
1001
0000
,
1000
0001
1001
0000
,
0010
0100
0010
0000
,
1000
0100
1000
0000
,
0010
0100
0110
0000
,
0100
0010
0110
0000
,
0001
1000
0001
0000
,
1001
0000
0000
0000
,
0010
0000
0000
0000
,
1000
0000
0000
0000
,
0001
0000
0100
0000
,
0001
0000
0000
0000
,
1000
0000
0010
0000
,
1000
0000
0000
0000
,
0100
0000
0010
0100
,
1001
0000
0000
0000
,
0011
0000
0000
0000
,
0000
0000
0000
0000
,
1100
0000
0000
0000
,
0000
0000
0000
0000
,
0110
0000
0000
0000
,
0000
0000
0000
0000
,
1001
0000
0000
0000
,
0000
0000
0000
0000
,
0010
0000
0100
0000
,
1000
0000
0001
0000
,
0100
0000
0010
0000
,
1000
0000
0001
0000
,
1000
0000
0010
0000
,
0100
0000
0001
0000
,
1000
0000
0001
0000
,
1001
0000
0000
0000
,
0001
1000
0001
0000
,
0010
1000
0010
0000
,
0100
0010
0001
0000
,
1000
0001
0100
0000
,
1000
0010
0100
0000
,
0001
1000
0010
0000
,
1000
0001
0100
0000
,
0010
1000
0010
0000
,
0010
0010
1000
0000
,
0100
0100
0001
0000
,
0010
1000
0001
0000
,
0100
1000
0001
0000
,
0010
1000
0001
0000
,
0100
0010
1000
0000
,
0010
0100
0010
0000
,
1001
0000
0000
0000
;

//--------------- dance-single - XLev450X-BSP ----------------
#NOTES:
     dance-single:
     XLev450X:
     Easy:
     6:
     0,0,0,0,0:
0000
0000
0000
0000
,
0000
0000
0000
0000
,
0000
0000
0000
0000
,
0000
0000
0000
0000
,
0001
1000
0010
0100
,
0001
0000
1000
0000
0010
1000
0010
0000
,
0100
0001
0010
0100
,
2002
0000
0000
0000
0000
0000
0000
3003
,
0001
1000
0010
0100
,
1000
0000
0100
0000
0001
0010
0001
0000
,
1000
0100
1000
0010
,
1000
0010
1000
0000
0100
0010
0100
0000
,
0001
1000
0001
0010
,
1000
0000
0100
0000
0001
0010
0001
0000
,
1000
0100
1000
0010
,
1000
0010
1000
0000
0100
0010
0100
0000
,
0001
1000
0101
0000
,
1000
0010
1010
0000
,
0000
0100
0000
0001
0000
0101
0000
0000
,
0000
1000
0000
0010
0000
1010
0000
0000
,
0100
0000
0010
0000
1000
0010
1000
0000
,
0100
0000
0001
0000
0100
0001
0100
0000
,
0000
0001
0000
1000
0000
0001
0100
0001
,
0000
1000
0000
0010
0000
1000
0010
1000
,
0001
0100
1000
0001
,
0100
1000
0100
0000
0010
0000
0100
0000
,
0001
1000
0101
0000
,
1000
0010
1010
0000
,
0010
0010
0100
1000
,
0001
1000
0101
0000
,
1000
0001
0100
0010
,
2002
0000
0000
0000
0000
0000
0000
3003
,
0001
1000
0010
0100
,
1000
0001
0100
0000
,
1000
0001
0010
1000
,
0001
0100
0010
0000
,
1000
0001
1000
0010
,
0100
1000
0001
0000
,
1000
0000
0001
0000
0010
1000
0010
0000
,
0100
0010
0001
1000
,
0001
0000
1000
0000
,
0010
0100
0001
0000
,
1000
0010
0100
0000
,
1000
0001
0010
0000
,
1000
0000
0101
0000
,
0010
0000
1010
0000
,
0100
0001
1000
0000
,
0001
1000
0001
0000
,
0010
0010
1000
0000
,
1000
0100
0010
0001
,
0010
0100
1000
0000
,
0010
1000
0001
0100
,
0001
1000
0001
0000
,
1000
0100
1000
0000
,
0001
0010
0100
1000
,
0201
0000
0000
0000
0000
0000
0000
0300
,
0001
1000
0010
0100
,
0001
0010
0001
0000
1000
0100
1000
0000
,
0010
0100
0010
1000
,
0010
1000
0010
0000
0001
0100
0001
0000
,
0010
1000
0001
0100
,
1000
0001
1000
0000
0010
0100
0010
0000
,
1000
0001
0010
0100
,
0001
1000
0010
0100
1000
0001
0010
0000
,
1000
0001
0010
0000
,
1000
0010
0100
0001
,
1000
0001
0100
0000
,
1000
0010
1000
0001
,
0010
0100
0001
0000
,
1000
0001
1000
0010
,
1000
0010
1000
0000
0001
0100
0001
0000
,
0220
0000
0000
0000
0000
0000
0330
0000
,
2002
0000
0000
0000
0000
0000
0000
0000
0000
0000
0000
0000
0000
0000
0000
3003
;

//--------------- dance-single - XLev450X-DSP ----------------
#NOTES:
     dance-single:
     XLev450X:
     Medium:
     11:
     0,0,0,0,0:
0000
0000
0000
0000
,
0000
0000
0000
0000
,
0000
0000
0000
0000
,
0000
0000
0000
0000
,
0001
0000
0000
1000
0000
0000
0001
0000
0100
0000
0000
0010
0000
0000
1000
0000
,
0001
0000
0000
0100
0000
0000
1000
0000
0001
0000
0000
0010
0000
0000
1000
0000
,
0010
0000
0000
0100
0000
0000
0001
0000
0010
0000
0000
1000
0000
0000
0001
0000
,
1000
0010
0100
0010
1001
0000
0000
0000
,
0001
1000
0010
0000
0100
1000
0010
1000
,
0001
0010
0100
0000
1000
0000
0010
0100
,
0001
0010
0100
0000
0001
0001
0100
0001
,
1000
0010
1000
0000
0001
0000
1000
0000
,
0010
0000
1000
0000
0010
0010
0100
0000
,
0001
0000
0010
0000
0001
0001
0100
0000
,
1000
0000
0001
0000
1000
1000
0100
0000
,
0001
0000
0010
0000
0010
0010
0100
0010
,
0001
0000
1000
0000
0001
1000
0001
0000
,
0010
0000
1000
0000
0010
1000
0001
0010
,
0100
0000
0001
0000
1000
0001
1000
0010
,
0100
0000
0101
0000
0001
1000
0010
1000
,
0010
0000
0001
0010
0001
0000
1000
0000
0001
0000
0100
0000
1000
0000
0000
0000
,
0001
0000
1000
0010
1000
0000
0010
0000
0100
0000
1000
0000
0001
0000
0010
0000
,
0100
0000
0010
0100
0010
0000
0001
0000
0010
0000
0001
0000
0010
0000
0000
0000
,
1000
0000
0001
1000
0001
0000
1000
0000
0010
0000
0100
0000
1000
0000
0000
0000
,
0001
0000
0000
0100
0000
0000
0000
0001
0000
0000
1000
0000
0001
0000
1000
0000
,
0010
1000
0010
0000
0001
0010
0001
0000
,
1000
0000
0000
0001
0000
0000
0000
0100
0000
0000
0000
0010
0000
0000
0000
1000
,
0100
1000
0010
0000
0001
1000
0001
0010
,
0100
0000
0000
0000
0001
0000
0000
1000
0000
0000
0001
0000
0100
0000
0000
0000
,
0010
1000
0001
0000
0100
0000
0101
0000
,
0010
0000
1000
0000
0010
0000
0000
0100
0000
0000
0001
0000
0010
0000
0000
0000
,
1000
0001
1000
0010
1000
0010
0100
0001
,
0010
0000
0001
0000
0100
0100
0001
1000
,
0001
0000
0010
0000
1000
0001
1000
0000
,
0010
0000
1000
0000
0010
0100
0001
0000
,
0010
0000
0010
0000
1000
0010
1000
0010
,
1000
0000
0101
0000
0001
0010
0101
0000
,
0001
0010
1001
0000
0010
1000
1010
0000
,
0010
0100
0110
0000
0001
0010
0100
0001
,
1000
0001
1000
0010
1000
0010
0100
0010
,
0001
0000
1000
0000
0001
0000
0100
0000
,
0001
1000
0001
0000
0001
0001
1000
0000
,
0010
0000
0100
0000
0001
0000
0000
0000
,
1000
0000
0010
0000
0100
0000
0000
0000
,
0001
1000
0001
0010
0100
1000
0010
0000
,
0010
0000
1000
0000
0100
0000
0001
0000
,
0101
0000
1010
0000
0010
0100
0010
0000
,
0011
0000
1100
0000
0001
0000
0000
0000
,
0001
1000
0001
0000
0010
1000
0010
0000
,
0100
0010
0100
0000
0001
0010
0100
0000
,
1000
0000
1000
0000
0001
0000
0100
0000
,
0001
1000
0010
1000
0010
0100
0001
0000
,
0001
0000
0100
0000
1000
0000
0010
0000
,
0010
1000
0001
0100
1000
0001
0010
0000
,
0101
0000
1010
0000
0010
0100
0010
0000
,
1000
0000
0000
0001
1000
0001
0100
0000
,
1000
0000
0000
0010
0000
0000
0000
1000
0000
0000
0001
0000
1000
0000
0001
0000
,
0100
0001
0100
0000
1000
0100
1000
0000
,
0001
0000
0000
1000
0000
0000
0000
0010
0000
0000
0000
0100
0000
0000
0000
0001
,
0010
0001
0100
0000
1000
0001
1000
0100
,
0010
0000
0000
0000
1000
0000
0000
0001
0000
0000
1000
0000
0010
0000
0000
0000
,
0100
0001
1000
0000
0010
0000
1010
0000
,
0100
0000
0001
0000
0100
0000
0000
0010
0000
0000
1000
0000
0100
0000
0000
0000
,
0001
1000
0001
0100
0001
0100
0010
1000
,
0001
1000
0010
0100
,
0001
0000
1000
0001
1000
0000
0010
0000
,
0100
0100
0010
0000
0010
0001
0001
0000
,
1000
0001
0100
0000
,
0010
0000
0000
1000
0010
0000
1000
0000
,
0001
0000
0000
0100
0001
0000
1000
0000
,
0010
0000
0000
1000
0001
0000
0010
0000
,
1000
0000
0001
0100
,
2002
0000
0000
0000
0000
0000
0000
0000
0000
0000
0000
0000
0000
0000
0000
0000
0000
0000
0000
0000
0000
0000
0000
0000
0000
0000
0000
0000
0000
0000
0000
0000
0000
0000
0000
0000
0000
0000
0000
0000
0000
0000
0000
0000
0000
0000
0000
0000
0000
0000
0000
0000
0000
0000
0000
0000
0000
0000
0000
0000
0000
0000
0000
3003
;

//--------------- dance-single - XLev450X-ESP ----------------
#NOTES:
     dance-single:
     XLev450X:
     Hard:
     14:
     0,0,0,0,0:
0000
0000
0000
0000
,
0000
0000
0000
0000
,
0000
0000
0000
0000
,
0000
0000
0000
0000
,
0001
0000
0000
1000
0000
0000
0001
0000
0100
0000
0000
0010
0000
0000
1000
0000
,
0010
0000
0000
0001
0000
0000
0100
0000
0001
0000
0000
1000
0000
0000
0001
0000
,
1000
0000
0000
0010
0000
0000
0100
0000
0010
0000
0000
1000
0000
0000
0010
0000
,
0001
0000
1000
0000
0001
0000
1000
0000
0010
1000
0010
0000
0001
0010
0001
0000
,
1000
0001
0100
1000
0001
0010
0101
0000
,
0001
0000
1000
0010
1000
0010
1010
0000
,
0010
0000
0010
1000
0001
0100
0001
0000
,
1000
0000
0001
0000
1000
0001
1000
0000
0010
0000
1000
0000
0010
0000
0000
0000
,
0010
0000
0100
0000
0010
0100
0010
0000
0001
0000
0010
0000
1000
0000
0000
0000
,
0001
0000
0010
0000
0001
0010
0001
0000
1000
0000
0001
0000
0100
0000
1000
0000
,
0001
0000
1000
0000
0010
1000
0010
0000
1000
0000
0010
0000
0100
0000
0001
0000
,
0010
0000
0100
0000
0010
0100
0010
0000
0001
0000
0010
0000
1000
0000
0001
0000
,
0010
0000
1000
0001
0000
0100
0000
0001
0000
0000
1000
0000
0010
0000
1000
0000
,
0001
1000
0010
0000
0100
0001
1000
0001
,
1000
0000
0001
1000
0000
0000
0010
0000
1000
0000
0001
0000
1000
0000
0010
0000
,
0001
0100
0000
0001
1000
0010
1000
0001
,
0010
0101
0000
0010
1000
0010
1000
0001
,
0010
0000
1000
0001
0000
0000
0100
0000
1000
0000
0001
0000
0010
0000
1000
0000
,
0010
0100
0001
1000
0010
1000
0010
1000
,
0010
1000
0010
0000
0001
0000
1000
0000
0001
0000
0100
0000
0010
0000
1000
0000
,
0001
0000
1000
0010
0000
0100
0000
1000
0000
0000
0001
0000
0010
0000
0000
0000
,
0001
0000
0100
0000
0010
0000
1000
0000
0001
1000
0001
0000
0010
0000
1000
0000
,
0001
0000
0100
0001
0000
1000
0000
0010
0000
0100
0000
1000
0000
0000
0100
0000
,
0001
1000
0001
0010
0100
1000
0001
0000
,
0010
0000
1000
0010
0000
0100
0000
0001
0000
0000
1000
0000
0001
0000
0010
0000
,
0001
0000
0010
0001
0000
1000
0000
0010
0000
0001
1000
0000
0001
0000
0000
0000
,
0010
0000
1000
0010
0000
0100
0000
0001
0000
1000
0000
0001
0000
0000
1000
0000
,
0010
0000
0001
0000
1000
0000
0010
0000
1000
0010
1000
0010
1000
0010
1000
0010
,
1000
0000
0001
0100
1000
0001
0010
0000
,
1000
0001
0100
1000
0010
1000
0101
0000
,
0001
0000
1000
0000
0010
0000
0100
0010
0100
0000
0010
0000
1000
0000
0001
0000
,
0010
0000
0001
0010
0001
0000
1000
0000
0010
0000
0100
0000
1000
0000
0000
0000
,
0010
1000
0010
0000
0001
0010
0100
0001
,
1000
0001
0010
0000
1000
0100
1000
0001
,
0010
0100
0001
0000
0010
0010
1000
0001
,
0100
1000
0001
0010
0100
1000
0001
0010
,
1000
0000
0001
0000
0100
0000
0010
0000
,
1000
0010
0010
1000
0001
0100
1000
0000
,
0001
0010
0101
0000
0010
1000
1010
0000
,
0010
0100
0110
0000
0001
0010
1001
0000
,
0001
0000
1000
0000
0001
0000
0010
0000
1000
0000
0010
1000
0010
0000
0001
0000
,
0010
1000
0001
0000
0100
1000
0001
0010
,
1000
0001
0100
0000
0001
1000
0010
1000
,
0001
0000
0010
0001
0010
0000
1000
0000
0010
0000
0100
0000
1000
0000
0000
0000
,
0001
1000
0001
0000
0100
1000
0001
0000
,
0010
0100
0010
0000
1000
0010
1000
0000
,
0001
0010
1000
0100
1000
0001
0010
0000
,
0100
1000
0001
0001
0100
0010
0010
0000
,
1000
0000
0010
0000
0100
0001
0010
0000
,
0101
0000
1010
0000
0010
1000
0010
0000
,
0011
0000
1100
0000
0110
0000
1010
0000
,
0001
1000
0000
1000
0001
0010
1000
0000
,
1000
0000
0001
0100
0000
0010
0000
0001
0000
0000
1000
0000
0100
0000
0000
0000
,
1000
0000
0010
0000
0100
0000
0001
0000
1000
0001
1000
0000
0100
0000
0001
0000
,
1000
0000
0010
1000
0000
0001
0000
0100
0000
0010
0000
0001
0000
0000
0010
0000
,
1000
0001
1000
0100
0010
0001
1000
0000
,
0100
0000
0001
0100
0000
0010
0000
1000
0000
0000
0001
0000
1000
0000
0100
0000
,
1000
0000
0100
1000
0000
0001
0000
0100
0000
1000
0001
0000
1000
0000
0000
0000
,
0100
0000
0001
0100
0000
0010
0000
1000
0000
0001
0000
1000
0000
0000
0001
0000
,
0100
0000
1000
0000
0001
0000
0100
0000
0001
0100
0001
0100
0001
0100
0001
0100
,
0001
1000
0010
0100
1000
0001
0010
0000
,
0001
0000
1000
0000
0010
0000
1000
0000
0010
1000
0010
0000
0001
0000
0010
0000
,
0100
0001
0101
0000
0001
1000
0001
0010
,
1000
0000
0010
1000
0010
0000
0010
0100
0010
0000
0001
0000
0010
0000
0000
0000
,
1000
0001
1000
0000
0010
1000
0010
0100
,
0010
1000
0001
0000
0010
0010
0100
1000
,
0001
0010
0101
0000
0001
0010
1000
0001
,
1000
0001
1000
0000
0010
1000
0010
0000
0010
0100
0010
0000
0001
0010
0001
0000
,
1000
0000
0001
0000
1000
0000
0001
0010
0000
0000
1000
0000
0010
0000
0100
0001
;
