#TITLE:Caldwell 99;
#ARTIST:BlackY;
#GENRE:STARRY BASS HOUSE;
#MUSIC:Caldwell 99.ogg;
#BANNER:Caldwell 99.png;
#BACKGROUND:Caldwell 99-bg.png;
#CDTITLE:./CDTitles/DANCERUSH STARDOM.png;
#SAMPLESTART:91.322;
#SAMPLELENGTH:15;
#OFFSET:-0.266;
#BPMS:0=142;
#BGSTAGE:27;

//--------------- dance-single - KurumA-bSP ----------------
#NOTES:
     dance-single:
     KurumA:
     Beginner:
     3:
     0,0,0,0,0:
0000
0000
0000
0000
,
0000
0000
0000
0000
,
0000
0000
0000
0000
,
0000
0000
0000
0000
,
0000
0000
0000
0000
,
0000
0000
0000
0000
0000
0000
0000
0001
,
0000
0001
0000
0001
0000
0000
0000
1000
,
0000
1000
0000
1000
0000
0000
0000
0010
,
0000
0100
0000
0010
0000
0100
0000
2002
,
0000
0000
0000
0000
0000
3003
0000
0001
,
0000
0000
0000
0000
0000
0000
0000
1000
,
0000
0000
0000
0000
0000
0000
0000
0010
,
0000
0000
0000
0100
0000
0000
0000
1001
,
0000
0000
0000
0000
0000
0000
0000
0011
,
0000
0000
0000
0000
0000
0000
0000
0010
,
0000
0010
0000
0010
0000
0000
0000
0001
,
0000
0000
0000
1000
0000
0000
0000
0010
,
0000
0000
0000
0000
0000
0000
0000
0100
,
0000
0000
0000
0001
0000
0000
0000
1000
,
0000
0000
0000
0000
0000
0000
0000
0100
,
0000
0000
0000
1000
0000
0000
0000
0100
,
0000
0000
0000
0000
0000
0000
0000
0010
,
0000
0000
0000
0100
0000
0000
0000
0001
,
0000
0001
0000
0001
0000
0000
0000
0010
,
0000
0000
0000
1000
0000
0000
0000
0010
,
0000
0000
0000
0000
0000
0000
0000
0100
,
0000
0000
0000
0001
0000
0000
0000
1000
,
0000
0000
0000
0000
0000
0000
0000
0010
,
0000
0000
0000
1000
0000
0000
0000
0010
,
0000
0000
0000
0000
0000
0000
0000
0100
,
0000
0000
0000
0001
0000
0000
0000
1000
,
0000
0000
0000
0000
0000
0000
0000
0010
,
0000
0000
0000
0100
0000
0000
0000
0010
,
0000
0000
0000
0000
0000
0000
0000
0001
,
0000
0000
0000
1000
0000
0000
0000
0001
,
0000
0000
0000
0000
0000
0000
0000
0010
,
0000
0000
0000
0100
0000
0000
0000
0001
,
0000
0000
0000
0000
0000
0000
0000
0010
,
0000
0000
0000
1000
0000
0000
0000
0001
,
0000
0000
0000
0100
0000
0000
0000
0010
,
0000
0000
0000
1000
0000
0000
0000
0001
,
0000
0000
0000
0000
0000
0000
0000
0010
,
0000
0000
0000
0100
0000
0000
0000
0001
,
0000
0000
0000
1000
0000
0000
0000
0010
,
0000
0000
0000
0100
0000
0000
0000
0001
,
0000
0000
0000
0000
0000
0000
0000
1000
,
0000
0000
0000
0010
0000
0000
0000
0100
,
0000
0000
0000
0000
0000
0000
0000
0001
,
0000
0000
0000
1000
0000
0000
0000
0010
,
0000
0000
0000
0000
0000
0000
0000
0002
,
0000
0000
0000
0000
0000
0000
0003
2000
,
0000
0000
0000
0000
0000
0000
3000
0020
,
0000
0000
0000
0000
0000
0000
0030
0200
,
0000
0000
0000
0000
0000
0000
0300
0001
,
0000
0000
0000
0001
0000
0000
0000
0001
,
0000
0000
0000
1000
0000
0000
0000
0010
,
0000
0000
0000
0100
0000
0000
0000
0001
,
0000
0000
0000
0000
0000
0000
0000
1000
,
0000
0000
0000
0010
0000
0000
0000
0100
,
0000
0000
0000
0001
0000
0000
0000
1000
,
0000
0000
0000
0010
0000
0000
0000
0100
,
0000
0000
0000
0000
0000
0000
0000
0001
,
0000
0001
0000
0001
0000
0000
0000
1000
,
0000
1000
0000
1000
0000
0000
0000
0010
,
0000
0100
0000
0010
0000
0000
0000
0010
,
0000
0001
0000
0010
0000
0000
0000
1000
,
0000
0000
0000
0010
0000
0000
0000
0100
,
0000
0000
0000
0001
0000
0000
0000
1000
,
0000
0000
0000
0000
0000
2002
0000
0000
,
0000
0000
0000
0000
,
0000
3003
0110
0000
,
0000
1001
0000
0000
0000
0000
0000
0000
0000
0000
0000
0000
0000
0000
0000
0000
;

//--------------- dance-single - KurumA-BSP ----------------
#NOTES:
     dance-single:
     KurumA:
     Easy:
     5:
     0,0,0,0,0:
0000
0000
0000
0000
,
0000
0000
0000
0000
,
0000
0000
0000
0000
,
0000
0000
0000
0000
,
0000
0000
0000
0000
,
0000
0000
0000
0000
0000
0000
0000
0010
,
0000
0010
0000
1000
0000
0001
0000
0100
,
0000
0010
0000
0001
0000
0000
0000
0010
,
0000
1000
0000
0001
0000
0100
0000
2002
,
0000
0000
0000
0000
3003
0000
0000
0001
,
0000
0001
0000
0001
0000
0000
0000
1000
,
0000
1000
0000
1000
0000
0000
0000
0001
,
0000
1000
0000
0010
0000
0100
0000
2002
,
0000
0000
0000
3003
0000
1010
0000
0220
,
0000
0000
0000
0000
0000
0330
0000
0001
,
0000
1000
0000
0010
0000
0100
0000
0001
,
0000
0000
0000
1000
0000
0000
0000
0010
,
0000
1000
0000
0010
0000
0000
0000
0100
,
0000
0001
0000
1000
0000
0000
0000
0010
,
0000
0100
0000
0001
0000
0000
0000
1000
,
0000
0010
0000
0100
0000
0001
0000
1000
,
0000
0010
0000
0001
0000
0010
0000
0100
,
0000
0000
0000
0001
0000
0000
0000
1000
,
0000
0000
0000
0010
0000
0100
0000
0001
,
0000
0000
0000
1000
0000
0000
0000
0010
,
0000
0100
0000
0001
0000
1000
0000
0010
,
0000
0000
0000
0100
0000
0000
0000
0001
,
0000
1000
0000
0010
0000
0100
0000
0001
,
0000
0000
0000
1000
0000
0000
0000
0002
,
0000
0000
0000
0000
0000
0003
0000
0010
,
0000
0000
0000
0100
0000
0001
0000
1000
,
0000
0000
0000
0100
0000
0010
0000
0001
,
0000
0000
0000
1000
0000
0001
0000
0100
,
0000
0000
0000
0010
0000
1000
0000
0001
,
0000
0000
0000
0100
0000
0000
0000
0001
,
0000
0000
0000
1000
0000
0000
0000
0010
,
0000
0000
0000
0100
0000
0000
0000
0000
,
0002
0000
0000
0000
0000
0000
0003
0010
,
0000
0000
0000
1000
0000
0000
0000
0001
,
0000
0000
0000
0000
0000
0000
0000
0100
,
0000
0000
0000
0001
0000
0000
0000
0010
,
0000
0000
0000
0000
0000
0000
0000
1000
,
0000
0000
0000
0010
0000
0000
0000
0100
,
0000
0000
0000
0000
0000
0000
0000
0001
,
0000
0000
0000
1000
0000
0000
0000
0001
,
0000
0000
0000
0000
0000
0000
0000
2200
,
0000
3300
0000
0022
0000
0033
0000
0220
,
0000
0330
0000
2002
0000
3003
0000
0202
,
0000
0303
0000
2020
0000
3030
0000
0010
,
0000
0000
0000
0100
0000
0000
0000
0202
,
0000
0000
0303
2020
0000
0000
3030
2002
,
3003
0220
0330
0202
0303
2020
3030
0220
,
0000
0000
0000
0000
0000
0000
0330
2002
,
0000
0000
0000
0000
0000
0000
3003
0100
,
0000
1000
0000
0001
0000
0100
0000
0000
,
0000
0010
0000
0000
0000
1000
0000
0100
,
0000
1000
0000
0001
0000
0000
0000
0001
,
0000
0100
0000
0001
0000
0000
0000
0100
,
0000
0010
0000
0001
0000
0010
0000
0001
,
0000
0000
0000
0001
0000
0000
0000
0010
,
0000
1000
0000
0001
0000
0100
0000
0000
,
0000
1000
0000
0000
0000
0100
0000
0000
,
0000
1000
0000
0001
0000
0100
0000
0000
,
0000
0010
0000
0100
0000
1000
0000
0000
,
0000
0100
0000
0010
0000
0100
0000
0000
,
0000
0100
0000
0001
0000
0010
0000
0000
,
0000
0010
0000
0001
0000
0100
0000
0010
,
0000
0100
0000
0001
0000
0000
0000
0010
,
0000
0100
0000
0010
0000
2000
0000
0000
,
0000
0000
0000
0000
,
0000
0000
0000
3000
1000
0000
0000
0001
,
0000
0100
0000
0000
0000
0000
0000
0000
0000
0000
0000
0000
0000
0000
0000
0000
;

//--------------- dance-single - KurumA-DSP ----------------
#NOTES:
     dance-single:
     KurumA:
     Medium:
     8:
     0,0,0,0,0:
0000
0000
0000
0000
,
0000
0000
0000
0000
,
0000
0000
0000
0000
,
0000
0000
0000
0000
,
0000
0000
0000
0000
,
0000
0000
0000
0000
0000
0000
0000
0000
0000
1000
0000
0000
0010
0000
0100
0000
,
0000
0001
0000
1000
0000
0000
0000
0010
,
0000
0100
0000
0001
0000
0000
0000
1000
,
0010
1000
0000
0100
0001
0100
0000
0220
,
0000
0330
0000
2002
0000
3003
0000
0001
,
0000
0100
0000
0001
0000
0000
0000
0010
,
0000
1000
0000
0010
0000
0000
0000
0010
,
1000
0100
0010
0001
1000
0001
0010
0200
,
0000
0000
0000
0000
0300
1001
0000
0200
,
0300
1000
0000
0010
0000
0100
0000
0010
,
1000
0001
1000
0010
1000
0001
0010
0100
,
0000
0000
1000
0001
0000
0100
0000
0010
,
0000
0100
0000
0010
0000
0100
0010
0001
,
0000
1000
0000
0100
0000
1000
0100
0001
,
0000
1000
0000
0010
0000
0100
1000
0001
,
0000
0010
0000
0100
0000
0010
0000
0001
,
0000
0000
0000
0010
0000
0000
0000
0001
,
0000
0100
0000
0001
0000
1000
0000
0010
,
1000
0100
0010
0001
0100
0010
0001
0100
,
0000
0000
0000
0100
0000
0010
0000
0001
,
0000
0100
0000
0010
1000
0100
0000
0001
,
0000
0100
0000
0010
0100
1000
0000
0001
,
1000
0010
0000
0001
0010
1000
0000
0010
,
0000
1000
0000
0001
0000
0100
0000
0001
,
0000
0000
0000
0000
0000
0000
0000
0100
,
0000
0010
0000
0001
0000
0100
0000
0010
,
0000
1000
0000
0001
0000
0010
0000
0100
,
0000
0010
0000
0100
0000
1000
0000
0100
,
0000
1000
0000
0001
0000
0010
0000
0100
,
0000
1000
0000
0010
0000
1000
0000
0001
,
0000
0010
0000
0001
0000
1000
0000
0010
,
0000
1000
0000
0010
0000
0100
0000
0001
,
0000
0100
0000
0010
0000
0100
0000
0001
,
0000
1000
0000
0010
0000
1000
0000
0001
,
0000
0100
0000
0001
0000
0100
0000
0010
,
0000
0100
0000
0010
0000
1000
0000
0010
,
0000
1000
0000
0001
0000
0010
0000
0100
,
0000
0010
0000
0100
0000
0010
0000
0001
,
0000
1000
0000
0100
0000
1000
0000
0010
,
0000
1000
0000
0100
0000
0010
0000
0001
,
0000
0100
0000
0001
0000
0100
0000
0001
,
0000
1000
0000
0010
0001
0100
0000
0010
,
0000
0100
0000
0001
1000
0010
0001
0100
,
0000
0010
0000
0100
1000
0010
0000
0001
,
0000
1000
0000
0010
0001
0100
0000
0010
,
0000
0000
0000
1000
0000
0000
0010
0000
0000
0000
0000
0100
0000
0000
0001
0000
,
0000
1000
0000
0001
0000
0010
0000
0001
,
0100
0001
0010
0001
1000
0100
1000
0200
,
0000
0000
0000
0000
0000
0300
0000
0010
,
0000
1000
0000
0100
0000
0010
0000
0100
,
0000
0010
0000
0001
1000
0010
0001
0100
,
0000
1000
0000
0001
0010
1000
0000
0001
,
0000
0010
0000
0001
1000
0100
0001
0010
,
0000
0100
0000
0010
0000
0100
0000
0001
,
0000
0000
0010
0000
0000
0000
0001
0000
0000
0010
0000
0000
1000
0000
0002
0000
,
0000
0000
0003
0000
1000
0000
0010
0000
0000
0001
0000
0000
1000
0000
0010
0000
,
0000
0000
0100
0000
0000
0000
0001
0000
0000
1000
0000
0000
0001
0000
0000
0000
,
0000
0010
0000
0001
0000
1000
0000
0100
,
0000
0010
0000
0001
1000
0100
0000
0010
,
0000
1000
0000
0001
0000
0010
0000
0001
,
0000
0000
0010
0000
0000
0000
0100
0000
0000
0001
0000
0000
0010
0000
0100
0000
,
0000
0001
1000
0000
0001
0000
0100
0000
0000
0000
0010
0000
0000
0000
0001
0000
,
0000
0100
0000
0001
1000
0010
0000
0001
,
0000
0100
0000
0000
0001
0000
0000
1000
0000
0000
0020
0000
0000
0000
0000
0000
,
0000
0000
0000
0000
,
0000
0000
0000
0000
0000
0000
0030
0000
0100
0000
0000
0001
0000
0000
0010
0000
,
0000
1000
0000
0000
0000
0000
0000
0000
0000
0000
0000
0000
0000
0000
0000
0000
;

//--------------- dance-single - KurumA-ESP ----------------
#NOTES:
     dance-single:
     KurumA:
     Hard:
     13:
     0,0,0,0,0:
0000
0000
0000
0000
,
0000
0000
0000
0000
,
0000
0000
0000
0000
,
0000
0000
0000
0000
,
0000
0000
0000
0000
,
0000
0000
0000
0000
0000
0000
0000
0000
0000
0001
0000
0000
1000
0000
0010
0000
,
0000
0001
0000
1000
0000
0010
0100
0001
,
0000
1000
0000
0010
0000
0100
0001
1000
,
0000
0010
0100
0010
0000
0001
0010
2002
,
0000
0000
3003
0220
0000
0000
0330
0001
,
0000
0001
0000
1000
0000
1000
0000
0010
,
0000
0100
0000
0010
0000
0001
0000
0001
,
1000
0010
0100
0001
1000
0010
0100
2002
,
0000
0000
0000
0000
0000
0000
0000
0000
3003
0000
0220
0000
0000
0330
0001
0000
,
0000
1000
0000
0010
0000
0100
0000
0010
,
0001
1000
0000
0100
0010
1000
0001
0100
,
0000
0010
0000
0001
1000
0010
0000
0100
,
0000
0001
0000
1000
0010
0100
0000
0001
,
1000
0010
0100
0001
1000
0010
0100
0001
,
1000
0010
0100
0001
1000
0010
0100
0001
,
0000
1000
0000
0010
0100
0001
0000
2000
,
0000
0010
0000
0001
0000
0010
0000
3100
,
0000
0000
0000
0000
0000
0000
0000
0000
0000
0000
0000
0000
0100
0000
0000
0000
0000
0000
1000
0000
0000
0000
0000
0000
0001
0000
0000
0100
0000
0000
0000
0000
0000
0000
0000
0000
0010
0000
0000
0000
1000
0000
0000
0000
0000
0000
0000
0000
0100
0000
0000
0000
0000
0000
0000
0000
0001
0000
0000
0000
0000
0000
0000
0000
1000
0000
0000
0000
0000
0000
0000
0000
0010
0000
0000
0000
0000
0000
0000
0000
0000
0000
0000
0000
0001
0000
0000
0000
0000
0000
0000
0000
0000
0000
0000
0000
,
1000
0010
0100
0001
0010
0001
0010
1000
,
0010
0100
0001
1000
0010
0100
0001
0010
,
0000
1000
0001
0100
0000
0001
1000
0010
,
0100
0001
1000
0010
0100
0001
1000
0010
,
0000
0100
0000
0001
0010
1000
0000
0001
,
0010
0100
1000
0001
0100
0010
1000
0002
,
0000
0000
0000
0000
0000
0000
0000
0000
0000
0000
0000
0000
0003
0000
0010
0001
,
0010
0000
1000
0000
0010
0000
0100
0000
0001
0000
1000
0000
0000
0000
0010
1000
,
0010
0000
0100
0000
0001
0000
0010
0000
0100
0000
0001
0000
0000
0000
0010
0100
,
0010
0000
1000
0000
0001
0000
0010
0000
0100
0000
0001
0000
0000
0000
0010
0001
,
0010
1000
0010
0100
0001
1000
0010
0100
,
0000
0001
0000
0000
1000
0000
0000
0010
0000
0000
0100
0000
0001
0010
0001
0000
,
0000
1000
0000
0000
0010
0000
0000
0100
0000
0000
0001
0000
1000
0010
1000
0000
,
0000
0100
0000
0000
0001
0000
0000
1000
0000
0000
0010
0000
0000
0100
0000
0000
,
0001
0000
0000
1000
0000
0000
0010
0000
0000
0000
0000
0000
0100
0000
0000
0010
0000
0000
0001
0000
1000
0000
0000
0000
0010
0000
0000
0000
0100
0000
0000
0000
0010
0000
0000
0000
0001
0000
0000
0000
0100
0000
1000
0000
0000
0000
0000
0000
,
0001
1000
0010
0100
0001
1000
0010
0100
,
0000
0001
1000
0010
0100
0001
1000
0100
,
0000
0001
1000
0010
0001
1000
0010
0100
,
0001
0000
1000
0000
0010
0000
0000
0000
0001
0010
1000
0000
0010
0000
0100
0000
,
0000
1001
0000
0010
0001
1000
0010
0100
,
0000
0001
1000
0010
0100
0001
1000
0010
,
0000
0100
0001
1000
0000
0010
0001
1000
,
0010
0000
0100
0000
0010
0000
0100
0010
0001
1000
0010
0100
0001
0010
1000
0000
,
0000
0001
0000
0000
0100
0000
0000
0000
0010
0001
0010
0000
1000
0000
0010
0000
,
0000
0100
0000
0000
0001
0000
0000
0000
0010
1000
0001
0000
0100
0000
0001
0000
,
0000
1000
0000
0000
0010
0000
0000
0000
0001
0100
0010
0000
1000
0000
0001
0000
,
0000
0100
0000
0000
0010
0000
1000
0000
0000
0001
0000
0000
0100
0000
0010
0000
,
0000
0100
1000
0100
0000
0000
0001
0000
0000
1000
0000
0010
0001
0010
2000
0000
,
3000
0020
0030
0200
0300
0002
0003
0010
,
1000
0000
0001
0000
0100
0000
0001
0010
0100
0010
0100
1000
0001
0100
0020
0000
,
0000
0000
0000
0000
0030
1001
0000
0001
,
0000
1000
0000
0000
0010
0000
0100
0000
0000
0001
0000
0000
1000
0000
0000
0000
,
0010
0001
0010
0000
1000
0000
0010
0000
0100
0000
0001
0000
1000
0000
0010
0000
,
0000
0100
0000
0000
0001
0000
1000
0000
0000
0010
0000
0000
0100
0000
0000
0000
,
0010
1000
0010
1000
0010
0000
0001
0000
0000
1000
0000
0000
0010
0000
0100
0000
,
0000
0001
1000
0010
0100
0001
1000
0010
,
0001
0000
1000
0000
0010
0000
0100
0000
0000
0001
0000
0000
1000
0000
0010
0000
,
0000
0000
0100
0000
0001
0000
1000
0000
0000
0010
0000
0000
0100
0000
0001
0000
,
0000
0000
1000
0000
0000
0000
0010
0000
0000
0100
0000
0000
0002
0000
0000
0000
,
0003
1000
0000
0001
0000
1000
0010
0100
,
0000
0001
0000
0010
0001
1000
0010
0100
,
0000
0001
0000
1000
0001
0100
0010
1000
,
0000
0000
0010
0000
0001
0000
1000
0000
0000
0010
0000
0000
1000
0000
0010
0000
,
0000
0001
0000
1000
0000
0010
0100
0001
,
0000
0000
1000
0000
0010
0000
0100
0000
0000
0001
0000
0000
1000
0000
0010
0000
,
0000
1000
0000
0000
0001
0000
0000
0100
0000
0000
0020
0000
0000
0000
0000
0000
,
0000
0000
0000
0030
,
0010
0001
0010
0000
1000
0000
0000
0000
0010
0000
0000
0100
0000
0000
0001
0000
,
0000
1000
0000
0000
0000
0000
0000
0000
0000
0000
0000
0000
0000
0000
0000
0000
;

//--------------- dance-single - KurumA-CSP ----------------
#NOTES:
     dance-single:
     KurumA:
     Challenge:
     16:
     0,0,0,0,0:
0000
0000
0000
0000
,
0000
0000
0000
0000
,
0000
0000
0000
0000
,
0000
0000
0000
0000
,
0000
0000
0000
0000
,
0000
0000
0000
0000
0000
0000
0000
0000
0000
1000
0000
0000
0001
0000
0100
0000
,
0000
0010
0000
1000
0000
0010
0001
0100
,
0000
0010
0000
1000
0000
0001
0000
0100
,
1000
0010
0100
0010
0100
0001
1000
0002
,
0000
0000
0000
0100
0000
0003
0000
0010
,
0000
1000
0000
0001
0000
0010
0000
0100
,
0000
1000
0000
0010
0000
1000
0000
0001
,
0100
0010
1000
0001
0010
0100
0010
0002
,
0000
0000
0000
0000
0003
0110
0000
1001
,
0000
0000
0100
0000
0000
0000
0010
0000
0000
0000
0001
0000
0000
0000
0100
0010
,
0100
1000
0001
0100
0001
1000
0010
1000
0001
0100
0001
0010
0100
0010
0002
0000
,
0003
0100
0010
0100
0010
0100
1000
0001
,
1000
0001
0010
0001
1000
0100
0010
0001
,
0100
0010
1000
0000
0001
0100
0001
0000
,
1000
0000
0001
0000
1000
0000
0010
1000
0010
1000
0001
0010
0100
0010
0001
0000
,
0010
0001
1000
0100
0010
0100
0010
0200
,
0000
0000
0001
0000
0000
0000
1000
0000
0000
0000
0001
0000
0000
0300
1001
0000
,
0000
0000
0000
0000
0000
0000
0100
0000
0000
0010
0000
0000
0001
0000
0000
0100
0000
0000
0010
0000
0000
0000
0100
0000
0000
0000
0001
0000
0000
0000
1000
0000
0000
0000
0100
0000
0000
0000
0001
0000
0000
0000
0100
0000
0000
0000
0000
0000
,
0010
0001
0100
0010
1000
0001
0010
0001
,
0000
0001
0100
0010
0100
0010
0100
0001
,
0000
0010
0100
0010
0100
0010
1000
0001
,
1000
0001
1000
0000
0100
0001
1000
0000
,
0100
0010
0100
0000
1000
0001
0010
0000
,
0010
0100
0010
0001
0100
0001
0010
0200
,
0000
0000
0000
0000
0000
0000
0300
0001
,
1000
0000
0100
0000
0010
0000
0100
0000
1000
0000
0010
0100
0001
0100
0010
0000
,
0100
0010
0100
0001
0010
0100
0010
0100
,
1000
0010
0100
0010
0100
0010
1000
0100
,
1000
0100
0010
0100
1000
0010
0100
0010
,
0000
0100
0000
0000
0001
0000
0000
0100
0000
0000
0010
0000
0100
0000
0001
0000
,
0000
0100
0000
0000
1000
0000
0000
0001
0000
0000
0100
0000
1000
0000
0001
0000
,
0000
1000
0000
0000
0010
0000
0000
0001
0000
0000
0010
0000
0000
1000
0000
0000
,
0100
0010
0001
1000
0100
0010
0100
1000
0010
0100
0001
0010
1000
0001
0000
0010
0000
1000
0001
0000
0000
0010
0000
0000
,
1000
0001
0010
0100
1000
0100
0000
0001
,
1000
0000
0010
0000
0100
0000
0010
0000
0100
0000
0010
1000
0100
1000
0010
0000
,
0100
0010
1000
0001
1000
0010
0000
0001
,
0010
0000
0001
0000
0100
0000
0010
0000
0100
0001
0000
0000
1000
0000
0010
0000
,
0000
0100
1000
0010
0100
0001
0100
0010
,
0000
0001
0010
0001
0010
0100
0010
0001
,
0000
0010
1000
0010
0100
0010
1000
0000
,
0010
0000
0100
0000
1000
0000
0001
0010
0001
0010
0100
1000
0001
1000
0010
0000
,
0000
0010
0000
0000
0010
0000
0000
0000
0010
0100
0001
1000
0001
0010
1000
0000
,
0000
1000
0000
0000
1000
0000
0000
0000
0010
0100
0001
0100
0001
0100
0001
0000
,
0000
0001
0000
0000
0001
0000
0000
0000
0010
0100
0010
0100
0001
0010
0001
0000
,
1000
0000
0100
0000
1000
0000
0001
0000
0000
0010
0000
0000
1000
0000
0010
0000
,
0000
1000
0010
0000
0000
0000
0010
0000
0000
1000
0001
0000
0000
0000
0100
0000
,
0000
0001
0000
0010
0000
1000
0000
0001
,
1000
0000
0010
0000
0100
0000
0010
1000
0100
1000
0001
0100
0001
0010
0002
0000
,
0000
0000
0000
0000
0000
0000
0000
0000
0000
0000
1000
0003
0000
0000
0001
0000
,
0000
0010
0000
0000
1000
0000
0010
0000
0000
0100
0000
0000
0001
0000
0000
0000
,
0100
0010
0001
1000
0100
0010
0001
0010
0001
1000
0010
0100
0001
1000
0010
0000
,
0000
0100
0000
0000
0001
0000
0010
0000
0000
1000
0000
0000
0010
0000
0000
0000
,
0010
0100
0010
1000
0010
1000
0001
0000
0100
0000
0010
0000
1000
0000
0000
0000
,
0100
0001
1000
0100
0010
0001
1000
0100
,
0010
0000
0100
0000
0010
0000
0100
0000
0000
1000
0000
0000
1000
0000
0010
0000
,
1000
0000
0100
0000
0010
0000
0100
0000
0000
0010
0000
0000
1000
0000
0001
0000
,
1000
0000
0100
0000
0010
0000
0100
0000
0000
0010
0000
0000
2000
0000
0010
0000
,
3000
0000
0100
0000
1000
0000
0001
0100
0010
0100
0001
0100
0010
1000
0001
0000
,
1000
0010
1000
0100
0010
0100
1000
0001
,
0000
0001
0010
0100
0010
0001
0100
0010
,
0000
0000
0001
0000
1000
0000
0001
0000
0000
1000
0000
0000
0100
0000
0002
0000
,
0003
0001
0100
0010
0000
0100
0010
0001
,
0000
0000
0100
0000
0010
0000
0100
0000
0000
0010
0000
0000
0010
0000
0100
0000
,
0000
1000
0000
0000
0001
0000
0000
1000
0000
0000
0010
0001
0100
0010
1000
0001
,
0010
0001
0010
0100
1000
0100
1000
0010
0100
0010
1000
0100
0010
0100
0001
0000
,
0010
0000
0100
0000
0010
0000
0000
0000
0010
0000
0000
0010
0000
0000
0100
0000
,
0000
0110
0000
0000
0000
0000
0000
0000
0000
0000
0000
0000
0000
0000
0000
0000
;
