#TITLE:COSMIC CYBER;
#ARTIST:BEMANI Sound Team "Captain Sonic";
#ARTISTTRANSLIT:Captain Sonic;
#GENRE:BIGCORE;
#MUSIC:COSMIC CYBER.ogg;
#BANNER:COSMIC CYBER.png;
#BACKGROUND:COSMIC CYBER-bg.png;
#CDTITLE:./CDTitles/bm IIDX 26 Rootage.png;
#SAMPLESTART:2.824;
#SAMPLELENGTH:15;
#BPMS:0=170;
#BGCHANGES:0=COSMIC CYBER.avi=1.000=0=0=0=StretchNoLoop====,
99999.000=-nosongbg-=1.000=0=0=0=StretchNoLoop====
;

//--------------- dance-single - Captain Hwoarang-bSP ----------------
#NOTES:
     dance-single:
     Captain Hwoarang:
     Beginner:
     5:
     0,0,0,0,0:
0000
0000
0000
0000
,
0000
0000
0000
0000
,
0000
0000
0000
0000
,
0000
0000
0000
0000
,
0000
0000
0000
0000
,
0000
0000
0000
0000
,
0001
0001
0001
0000
,
1000
0010
1000
0000
,
0100
0010
0100
0000
,
0010
1000
0000
0000
,
0001
1000
0000
0100
,
0010
0001
0000
1000
,
0010
1000
0000
0100
,
0010
1000
0000
0000
,
1000
0010
0100
0000
,
0001
0100
0001
0000
,
0100
0010
0100
0000
,
1000
0010
0000
0000
,
0000
0000
0000
0000
,
1000
1000
1000
0000
,
0100
0010
0100
0000
,
0001
0000
1000
0000
,
0001
0000
1000
0000
,
0100
1000
0100
0000
,
0100
0001
0100
0000
,
1000
0010
0100
0001
,
1000
0010
0000
0000
,
0010
0010
0010
0000
,
1000
0000
0001
0000
,
0100
0100
0100
0000
,
0001
0000
1000
0000
,
0010
0100
0010
0000
,
0001
0010
0001
0000
,
0001
1000
0010
0100
,
2002
0000
3003
0000
,
0001
0001
1000
0010
,
0100
1000
0001
0000
,
0100
0010
1000
0010
,
0001
1000
0000
0010
,
1000
0001
0000
0100
,
0000
1000
0000
0010
,
1000
0010
0000
0001
,
0000
0100
0001
1000
,
0001
1000
0000
0010
,
1000
0001
0000
0000
,
0010
0000
1000
0001
,
0100
0000
0000
1000
,
0000
0001
0000
1000
,
0010
1000
0000
0100
,
0001
0000
1000
0000
,
0002
0000
0003
0000
,
1000
0001
1000
0000
,
0100
1000
0100
0000
,
0100
0010
0100
0000
,
0001
0100
0000
0000
,
0001
1000
0001
0000
,
0010
1000
0010
0000
,
0010
0100
0010
0001
,
1000
0010
0000
0000
,
1000
0000
0001
0000
,
0100
0000
1000
0000
,
0001
0000
0100
0000
,
0010
1000
0000
0000
,
1000
0000
0010
0100
,
0001
0000
0100
0010
,
1000
0000
0001
0010
,
0100
0010
0000
0000
,
0000
0000
0000
0000
,
0000
0000
0000
0000
,
0000
0000
0000
0000
,
0000
0000
0000
0000
,
1000
0000
0001
0000
,
0100
0000
0000
0000
,
1000
0010
1000
0000
,
0100
0001
0100
0010
;

//--------------- dance-single - Captain Hwoarang-BSP ----------------
#NOTES:
     dance-single:
     Captain Hwoarang:
     Easy:
     8:
     0,0,0,0,0:
0000
0000
0000
0000
,
0000
0000
0000
0000
,
0000
0000
0000
0000
,
0000
0000
0000
0000
,
0000
0000
0000
0000
,
0000
0000
0000
0000
,
1000
0001
0100
0000
,
0010
1000
0010
0000
,
0100
0001
1000
0000
,
0010
0000
1000
0000
0000
0100
0000
0010
,
0001
1000
0010
0000
,
1000
0001
0100
0000
,
1000
0001
1000
0010
,
0100
0000
0001
0000
0000
1001
0000
0101
,
0010
1000
0010
1000
,
0001
0100
0010
0100
,
0001
0010
1000
0001
,
0100
0000
0010
0000
0000
1001
0000
0220
,
0000
0000
0000
0330
,
0001
1000
0001
0000
,
1000
0010
1000
0000
,
0010
0000
0100
0000
,
0001
0000
1000
0010
,
0001
0100
1000
0001
,
0100
0010
1000
0001
,
0101
0000
1010
0000
,
0220
0000
0000
0330
,
0001
0001
1000
0000
,
0010
0000
1000
0000
,
1000
0001
1000
0000
,
0100
0000
1000
0000
,
0010
0000
1000
0001
,
0100
0000
0010
1000
,
0001
0010
0001
0000
1000
0100
1000
0000
,
0220
0000
0000
0330
,
0001
1000
0001
0100
,
0010
1000
0001
0000
,
1000
0000
0010
0000
,
1000
0010
0100
0001
,
1000
0010
0000
0100
,
0001
1000
0000
1000
,
0000
0001
1000
0010
,
0100
0001
0000
1000
,
0001
1000
0000
0010
,
1000
0001
0100
0010
,
1000
0001
0100
0010
,
1000
0000
0001
0100
,
0010
1000
0001
0000
,
1000
0010
0100
0001
,
0010
0001
0010
0000
1000
0100
1000
0000
,
0202
0000
0000
0303
,
0100
0010
1000
0001
,
0100
0010
1000
0000
,
0100
0010
1000
0001
,
0010
0000
0001
1000
0000
0010
0000
1000
,
0100
0001
1000
0010
,
1000
0001
0100
0000
,
0010
1000
0001
0100
,
0010
0000
1000
0010
0000
0100
0000
0001
,
1000
0000
0001
0000
0010
0001
0010
0000
,
1000
0000
0100
0000
1000
0100
1000
0000
,
0010
0100
0000
0001
,
0100
0000
0101
0000
0000
1010
0000
0001
,
0010
0100
1000
0001
,
0100
0000
0010
0000
1000
0001
1000
0000
,
0010
0100
0001
0010
,
1000
0000
0100
0000
0000
0101
0000
2020
,
0000
0000
0000
0000
,
0000
0000
0000
0000
,
0000
0000
0000
0000
,
0000
0000
0000
3030
,
0001
1000
0010
0100
,
1000
0000
0010
0000
0001
0010
0001
0000
,
1000
0010
0100
1000
,
1000
0010
0100
0001
1000
0010
0100
0000
;

//--------------- dance-single - Captain Hwoarang-DSP ----------------
#NOTES:
     dance-single:
     Captain Hwoarang:
     Medium:
     12:
     0,0,0,0,0:
0000
0000
0000
0000
,
0000
0000
0000
0000
,
0000
0000
0000
0000
,
0000
0000
0000
0000
,
0000
0000
0000
0000
,
0000
0000
0000
0000
,
1000
0000
0000
0000
0001
0000
0000
0100
0000
0000
0010
0000
1000
0000
0010
0000
,
0001
0000
0100
0000
0010
0000
0000
1000
0000
0000
0001
0000
0010
0000
0000
0000
,
1000
0000
0000
0000
0001
0000
0000
0100
0000
0000
0010
0000
1000
0000
0100
0000
,
0001
0000
0100
1000
0010
0000
0001
0000
0000
0000
1001
0000
0000
0000
0110
0000
,
0100
0000
0001
0000
1000
0010
1000
0000
,
0100
0000
0010
0000
0100
0010
0100
0000
,
0001
0000
0010
0000
0001
0010
0001
0000
,
1000
0000
0010
0000
0000
0101
0000
1010
,
0010
0000
0100
0000
0001
0000
0000
1000
0000
0000
0010
0000
0100
0000
0001
0000
,
1000
0000
0010
0000
1000
0000
0000
0100
0000
0000
0010
0000
0001
0000
0000
1000
,
0001
0010
0001
0000
1000
0010
1000
0000
,
0010
0100
0001
1000
0000
0011
0000
2200
,
0000
0000
0000
3300
,
1000
0100
0001
0000
0100
0010
0100
0000
,
0001
1000
0010
0000
0001
0010
0001
0000
,
0100
0000
0010
0100
0000
1000
0001
0000
,
0100
0010
0000
0010
0001
0000
0001
0000
,
1000
0000
0100
0000
0001
0000
0000
0100
0000
0010
0000
0000
1000
0000
0000
0000
,
0010
0000
0001
0000
1000
0000
0000
0100
0000
0001
0000
0000
0010
0000
0000
0000
,
0001
0010
0001
0000
0100
1000
0100
0000
,
0010
0100
0020
0000
0000
0000
0030
0000
,
0001
0000
1000
0000
0020
0000
0000
0030
,
0100
0000
0000
0001
0010
0100
0000
1000
0000
0010
0000
0000
0001
0000
0000
0000
,
0100
0000
0001
0000
2000
0000
0000
3000
,
0001
0000
0000
1000
0100
0001
0000
0010
0000
0100
0000
0000
0010
0000
0000
0000
,
0001
1000
0001
0000
1000
0001
0010
0000
,
0100
0000
0010
0000
0001
0100
1000
0000
,
0010
0100
0010
0100
0010
0001
0010
0100
,
2002
0000
0000
3003
,
1000
0000
0010
0000
0100
1000
0100
0000
,
0010
0001
0010
0000
0010
0100
0010
0000
,
0001
0000
1000
0000
0001
0100
0001
0000
,
1000
0001
1000
0000
0010
0000
0001
0000
0100
0000
0001
0000
1000
0000
0000
0000
,
0010
0100
0010
0000
0001
0000
0010
0000
,
1000
0100
0001
0000
0100
0001
1000
0000
0010
0000
0000
0000
1000
0000
0000
0000
,
0010
0000
0100
0000
0002
0000
1003
0100
,
1000
0100
1002
1003
,
1000
0000
0010
0001
0000
1000
0001
0000
,
1000
0000
0001
0000
0010
1000
0100
0000
0001
0000
0010
0000
1000
0000
0000
0000
,
0010
0000
0100
0010
0001
1000
0000
0010
,
0001
0010
0100
0000
1000
0000
0001
0000
0100
0000
0000
0000
0010
0000
0000
0000
,
0001
0010
0100
0000
1000
0000
0000
0100
0000
0001
0000
0010
0100
0000
0000
0000
,
0001
0100
1000
0000
0010
0000
0000
0000
1000
0000
0000
0000
0001
0000
0000
0000
,
0010
1000
0001
0010
0100
1000
0010
0001
,
2000
0000
0001
3000
,
1000
0000
0000
0000
0001
0000
0000
1000
0000
0000
0001
0000
0100
0000
0001
0000
,
0010
0000
0000
0000
1000
0000
0000
0001
0000
0000
1000
0000
0010
0000
0000
0000
,
0001
0000
0000
0000
1000
0000
0000
0001
0000
0000
0100
0000
0010
0000
0001
0000
,
1000
0100
0001
1000
0000
0110
0000
1010
,
1000
0000
0000
0000
0001
0000
0000
0100
0000
0000
0010
0000
1000
0000
0010
0000
,
0001
0000
0100
0000
0010
0000
0000
1000
0000
0000
0001
0000
0010
0000
0000
0000
,
1000
0000
0000
0000
0001
0000
0000
0100
0000
0000
0010
0000
1000
0000
0100
0000
,
0001
0000
0100
1000
0010
0000
0001
0000
0000
0000
1001
0000
0000
0000
0110
0000
,
0100
0000
0001
0000
1000
0010
1000
0000
,
0100
0000
0010
0000
0100
0010
0100
0000
,
0001
0000
0010
0000
0001
0010
0001
0000
,
1000
0000
0010
0000
0000
0101
0000
1010
,
0010
0100
0001
0000
1000
0000
0010
0000
,
1000
0010
1000
0000
0100
0000
0010
0000
,
0001
0010
0001
0000
1000
0010
1000
0000
,
0010
0100
0001
1000
0000
0011
0000
1100
,
0010
0001
1000
0010
,
0100
0000
0010
0000
0001
0010
0001
0000
,
1000
0010
0200
0310
,
1000
0001
0200
0301
,
1000
0010
0100
1000
,
0001
0000
0100
0000
0010
1000
0010
0000
,
0100
0001
0100
0000
0010
1000
0010
0000
,
0100
0001
1000
0010
0100
0001
1000
0200
,
0300
0000
0000
0000
;

//--------------- dance-single - Captain Hwoarang-ESP ----------------
#NOTES:
     dance-single:
     Captain Hwoarang:
     Hard:
     16:
     0,0,0,0,0:
0000
0000
0000
0000
,
0000
0000
0000
0000
,
0000
0000
0000
0000
,
0000
0000
0000
0000
,
0000
0000
0000
0000
,
0000
0000
0000
0000
,
1000
0000
0001
0000
0100
0000
0000
0010
0000
0000
1000
0000
0001
0000
0100
0000
,
0010
0000
0001
0010
0001
0000
0000
1000
0000
0000
0010
0000
0100
0000
0000
0000
,
0001
0000
0010
0000
1000
0000
0000
0010
0000
0000
0100
0000
0001
0000
1000
0000
,
0010
0000
0001
1000
0100
0000
0001
0000
0100
0000
1010
0000
0000
0000
0101
0000
,
1000
0000
0010
0000
0001
0000
0010
0000
1000
0000
0001
0100
0010
0000
1000
0000
,
0001
0000
1000
0000
0010
0000
0001
0000
0010
0000
0001
0100
1000
0000
0010
0000
,
0100
0000
0010
0000
1000
0000
0000
0001
0000
0000
0100
0000
0010
0000
0001
0000
,
0010
0000
0001
0010
0001
0000
0100
0000
1000
0000
0010
0000
0000
0000
0100
0000
,
0001
0000
0100
0000
1000
0000
0000
0001
0000
0000
0100
0000
0010
0000
1000
0000
,
0001
0000
0100
0000
0010
0000
0000
1000
0000
0000
0001
0000
0100
0000
0010
0000
,
1000
0000
0001
1000
0001
0000
0000
0100
0000
0000
0010
0000
1000
0000
0001
0000
,
0100
0000
0010
0000
1000
0100
0001
0000
1000
0000
0101
0000
0000
0000
1010
0000
,
0000
0000
0000
0000
0001
1000
0001
1000
,
0100
0010
0100
0010
0001
0100
0010
1000
0100
0000
0001
0000
0010
0000
0000
0000
,
0100
0010
0100
1000
0010
0100
0010
1000
0001
1000
0001
0000
0010
0000
0000
0000
,
0100
0000
0001
1000
0000
0010
0100
0000
,
0010
0001
0000
1000
0010
0000
0100
0000
,
0010
0001
0010
0100
1000
0001
0000
1000
0000
0000
0010
0000
0001
0000
0000
0000
,
1000
0001
0100
0000
0010
0000
0000
1000
0000
0000
0001
0000
0100
0000
0000
0000
,
0010
0001
0010
0100
1000
0001
0000
0010
0100
0010
1000
0001
0100
0000
0001
0000
,
0100
0010
1000
0100
0001
0000
0100
0000
0000
0010
0000
0000
1000
0000
0000
0000
,
0001
0010
0000
0000
1000
0010
0000
0000
0101
0000
0000
0000
0101
0000
0000
0000
,
0001
1000
0010
1000
0001
0000
0000
0010
0000
0000
1000
0000
0010
0000
0000
0000
,
0001
1000
0001
0000
0001
0100
0001
0000
0010
0100
0010
0000
2002
3003
0000
0000
,
1000
0001
0100
0000
0001
0000
0010
0000
0000
1000
0000
0000
0001
0100
1000
0000
,
0010
0001
0010
0000
1000
0010
0100
0000
,
0010
1000
0001
0000
0100
0010
1000
0000
,
0001
0000
0000
0000
0100
0000
0000
0000
0010
0000
0000
0000
1000
0000
0000
0000
0001
0010
1000
0000
0100
0000
0010
0000
0100
0000
0010
0000
0100
0000
1000
0000
,
0020
0000
0000
0030
,
0011
0000
0000
0000
0010
0000
1000
0000
0001
1000
0100
0000
0010
0000
1000
0000
,
0001
0000
0010
0100
0001
0000
1000
0000
0010
0000
1000
0000
0010
0001
0100
0000
,
1000
0000
0010
0000
0100
0000
0001
0000
1000
0000
0010
0100
0020
0000
0030
0000
,
0001
1000
0010
0100
0001
0000
1010
0000
,
0001
0000
0010
0000
0001
0000
0010
0001
0010
0000
0100
0000
1000
0010
1000
0000
,
0010
0000
0100
0000
0001
0000
1000
0000
0001
0000
1000
0001
1000
0000
0100
0000
,
0010
0000
1000
0000
0001
0000
0010
0000
0010
0001
0010
0000
0100
1000
0100
0000
,
0010
0100
0001
1000
0010
0100
0001
0000
,
0010
0000
0001
0000
0010
0000
0001
0010
0001
0000
0100
1000
0010
0000
0100
0000
,
0010
1000
1010
0010
0100
0001
0010
1000
,
0001
0100
0010
0000
0001
0100
1000
0001
0010
0000
1000
0000
0100
0000
0020
0000
,
0030
0000
1000
0000
0001
0000
0000
0000
0100
0000
0001
1000
0010
0000
1000
0000
,
0001
0000
0010
0000
0001
0000
0010
0001
0010
0000
1000
0000
0010
0000
0000
0000
,
0100
0000
0000
1000
0000
0000
0001
0000
0010
0100
0010
0000
1000
0000
0001
0000
,
0010
0100
0001
0100
0010
1000
0100
0010
0001
0100
0010
0100
0010
0100
0010
1000
,
0001
0100
1000
0000
0010
0000
0100
0000
0001
0000
0010
0000
0001
0000
0100
0000
0001
0010
1000
0000
0100
0000
0010
0000
0001
0000
0010
0000
0100
0000
1000
0000
,
0001
1000
0010
0000
0100
0000
0000
0100
0000
0000
0001
0000
1000
0000
0001
0000
,
0010
0000
0001
0000
0010
0000
0000
1000
0000
0000
0010
0000
0100
0000
0000
0000
,
0001
0000
1000
0000
0010
0000
0000
0100
0000
0000
0001
0000
1000
0000
0010
0000
,
0100
0000
0001
0000
1000
0000
0001
0100
1000
0000
0101
0000
0000
0000
1010
0000
,
0001
0000
1000
0000
0010
0000
0000
0100
0000
0000
0001
0000
1000
0000
0010
0000
,
0100
0000
1000
0100
1000
0000
0000
0001
0000
0000
0100
0000
0010
0000
0000
0000
,
1000
0000
0100
0000
0001
0000
0000
0100
0000
0000
0010
0000
1000
0000
0001
0000
,
0100
0000
1000
0001
0010
0000
1000
0000
0010
0000
0101
0000
0000
0000
1010
0000
,
0001
0000
0100
0000
1000
0000
0100
0000
0001
0000
1000
0010
0100
0000
0001
0000
,
1000
0000
0001
0000
0100
0000
1000
0000
0100
0000
1000
0010
0001
0000
0100
0000
,
0010
0000
0100
0000
0001
0000
0000
1000
0000
0000
0010
0000
0100
0000
1000
0000
,
0100
0000
1000
0100
1000
0000
0010
0000
0001
0000
0100
0000
0000
0000
0010
0000
,
1000
0000
0010
0000
0001
0000
0000
1000
0000
0000
0010
0000
0100
0000
0001
0000
,
1000
0000
0010
0000
0100
0000
0000
0001
0000
0000
1000
0000
0010
0000
0100
0000
,
0001
0000
1000
0001
1000
0000
0000
0010
0000
0000
0100
0000
0001
0000
1000
0000
,
0010
0000
0100
0000
0001
0010
1000
0000
0001
0000
1010
0000
0000
0000
0101
0000
,
2000
0000
0000
0000
0000
0000
0000
3000
,
0002
0000
0000
0000
0000
0000
0000
0003
,
0001
1000
0010
0000
0100
0001
1000
0000
,
0010
0000
0001
0000
0010
0000
1000
0000
0010
0000
0100
1000
0001
0000
0100
0000
,
0010
0001
0010
0000
1000
0010
0100
0000
,
0001
0000
1000
0000
0010
0000
0100
0000
0001
0100
1000
0000
0010
0000
0000
0000
,
0100
0001
1000
0000
0010
0100
0001
1000
,
0001
1000
0100
0010
0100
1000
0001
0010
0100
0010
0001
1000
0001
0100
0010
0100
;
