#TITLE:CONTRACT;
#ARTIST:朱雀;
#ARTISTTRANSLIT:Suzaku;
#GENRE:SUBLIME TECHNO;
#MUSIC:CONTRACT.ogg;
#BANNER:CONTRACT.png;
#BACKGROUND:CONTRACT-bg.png;
#CDTITLE:./CDTitles/bm IIDX 13 DistorteD.png;
#SAMPLESTART:54.09;
#SAMPLELENGTH:15;
#OFFSET:0.577;
#BPMS:0=180;
#BGCHANGES:1.000=CONTRACT.mp4=1.000=0=0=0=StretchNoLoop====,
99999=-nosongbg-=1.000=0=0=0 // don't automatically add -songbackground-;
#BGSTAGE:29;

//--------------- dance-single - XLev450X-bSP ----------------
#NOTES:
     dance-single:
     XLev450X:
     Beginner:
     4:
     0,0,0,0,0:
0000
0000
0000
0000
,
0000
0000
0000
0000
,
0000
0000
0000
0000
,
0000
0000
0000
0000
,
0000
0000
0000
0000
,
0000
0000
0000
0000
,
0000
0000
0000
0000
,
0000
0000
0000
0000
,
0000
0000
0000
0000
,
0001
1000
0010
0000
,
0100
1000
0100
0000
,
0010
0001
0010
0000
,
1000
0001
0100
0000
,
0100
0100
0100
0000
,
1000
0001
1000
0000
,
0010
1000
0010
0000
,
1001
0000
0000
0000
,
0010
1000
0001
1000
,
0100
1000
0001
0100
,
1000
0010
1000
0001
,
0010
0000
0000
0000
,
0010
1000
0100
0001
,
1000
0001
0100
1000
,
0001
0010
1000
0001
,
1001
0000
0000
0000
,
0010
0000
1000
0000
,
0001
0100
0001
0000
,
1000
0010
1000
0000
,
0000
0000
0000
0000
,
0001
1000
0001
0000
,
0100
0010
0100
0000
,
1000
0001
0010
0000
,
0001
1000
0001
0000
,
1000
0000
0001
0000
,
0100
1000
0010
0000
,
1000
0000
0010
0000
,
1000
0100
0001
0000
,
0001
1000
0001
0000
,
1000
0010
1000
0000
,
0100
1000
0001
0010
,
1000
0001
0010
0000
,
0010
0000
0010
0000
,
0010
0000
0010
0000
,
1000
0000
1000
0000
,
1000
0000
1000
0000
,
0001
0000
0001
0000
,
0001
0000
0001
0000
,
0100
0000
0100
0000
,
0100
0000
0100
0000
,
1001
0000
0000
0000
,
0000
0000
0000
0000
,
0000
0000
0000
0000
,
0000
0000
0000
0000
,
0001
0000
1000
0000
,
0001
0000
0100
0000
,
1000
0000
0010
0000
,
1000
0000
0000
0000
,
1000
0000
0001
0000
,
0100
0000
1000
0000
,
0001
0001
0001
0000
,
1001
0000
0000
0000
,
0010
0010
0010
0000
,
1000
1000
1000
0000
,
0100
0100
1000
0001
,
0100
1000
0010
0000
,
0001
0001
1000
0000
,
1000
1000
0100
0000
,
0010
1000
0001
0010
,
0100
1000
0010
0000
,
0001
0000
1000
0000
,
0001
0000
0100
1000
,
0010
0000
1000
0000
,
0001
0000
0100
0010
,
1000
0000
0001
0000
,
0100
0000
1000
0001
,
1000
0000
0010
0000
,
1000
0001
0010
0100
,
1001
0000
0000
0000
;

//--------------- dance-single - XLev450X-BSP ----------------
#NOTES:
     dance-single:
     XLev450X:
     Easy:
     8:
     0,0,0,0,0:
0000
0000
0000
0000
,
0000
0000
0000
0000
,
0000
0000
0000
0000
,
0000
0000
0000
0000
,
0000
0000
0000
0000
,
0001
1000
0100
1000
,
0100
0001
0010
0000
,
1000
0100
1000
0010
,
0001
0010
0001
0000
1000
0100
1000
0000
,
0010
0100
1000
0000
,
0001
1000
0100
0000
,
0001
1000
0010
0100
,
1000
0001
0010
0000
,
1000
0100
1000
0001
,
0010
1000
0001
0000
,
1000
0100
1000
0001
,
0010
0001
0010
0000
1000
0100
1000
0000
,
0001
0000
1000
0000
0100
1000
0100
0001
,
1000
0000
0001
0000
1000
0010
1000
0001
,
0010
0000
1000
0000
0100
1000
0001
0000
,
0010
0001
1000
0000
0100
1000
0001
0000
,
0010
0000
1000
0000
1000
0100
0001
1000
,
0010
0000
1000
0000
0010
1000
0010
0000
,
0001
1000
0100
1000
,
0001
0010
0001
0000
1000
0100
1000
0000
,
0010
1000
0001
0100
,
0010
1000
0101
0000
,
1000
0010
1010
0000
,
0000
0010
0100
0001
,
1000
0001
0100
0000
,
1000
0001
0100
1000
,
0001
0010
0101
0000
,
1000
0010
0110
0000
,
1000
1000
0001
0001
,
1000
0100
1000
0001
,
0010
0001
0010
0000
1000
0100
1000
0000
,
0010
0100
1000
0000
,
0001
0100
1000
0010
,
1000
0001
0100
1000
,
0001
0010
0001
0000
1000
0100
1000
0000
,
0010
0000
0100
0000
1000
0001
1000
0010
,
1000
0000
0000
0001
0000
0000
1000
0000
,
0000
0001
0000
0000
1001
0000
1001
0000
,
0001
0000
0000
1000
0000
0000
0001
0000
,
0000
1000
0000
0000
1001
0000
0110
0000
,
1000
0010
0000
0001
0010
0000
1000
0001
,
0000
0001
1000
0000
1001
0000
1001
0000
,
0010
1000
0100
1000
,
0001
0010
0001
0000
1000
0100
1000
0000
,
2002
0000
0000
0000
,
3003
0000
0000
0000
,
0000
0000
0000
0000
,
0000
0000
0000
0000
,
0010
1000
0100
1000
,
0001
0010
1000
0001
,
0010
1000
0001
0010
,
0001
0010
0001
0000
1000
0100
1000
0000
,
0001
1000
0010
1000
,
0100
1000
0001
0000
,
0101
0101
0101
0101
,
1000
0010
1000
0000
0001
0010
0001
0000
,
0001
1000
0100
1000
,
0001
0010
1000
0000
,
0100
1000
0001
1000
,
0010
0000
0100
0000
1000
0100
1000
0000
,
0001
1000
0010
0100
,
1000
0000
0001
0000
0010
0100
0010
0000
,
1000
0001
0010
1000
,
0001
0010
0001
0000
1000
0100
1000
0000
,
0001
0000
0000
1000
0000
0000
0001
0000
,
0000
0100
0000
0000
0010
0000
0010
0000
,
1000
0000
0000
0001
0000
0000
0100
0000
,
0000
1000
0000
0000
0001
0000
1000
0000
,
0010
1000
0100
0001
,
1000
0001
1000
0010
,
0001
0010
0001
0000
1000
0100
1000
0000
,
0010
0100
0010
0000
0100
1000
0001
0100
,
2002
0000
0000
0000
,
3003
0000
0000
0000
;

//--------------- dance-single - XLev450X-DSP ----------------
#NOTES:
     dance-single:
     XLev450X:
     Medium:
     11:
     0,0,0,0,0:
0000
0000
0000
0000
,
0000
0000
0000
0000
,
0000
0000
0000
0000
,
0000
0000
0000
0000
,
0000
0000
0000
0000
,
0001
1000
0100
1000
,
0010
0001
0010
1000
,
0001
1000
0010
1000
0010
1000
0001
0100
,
1000
0001
0100
0010
1000
0001
0010
1000
,
0001
0100
1000
0010
,
0001
1000
0010
0001
,
0010
0001
0010
0000
1000
0000
0100
0000
,
1000
0001
0100
1000
0001
0100
0000
0000
,
1000
0010
1000
0100
,
1000
0001
0010
0001
,
1000
1000
0100
1100
,
0011
0011
0011
0001
1000
0010
0100
0000
,
1000
0001
1000
0010
1000
0001
0100
1000
,
0010
1000
0010
1000
0100
1000
0100
0001
,
0010
0001
1000
0100
0001
1000
0010
1000
,
0001
0000
0100
0000
0010
0000
1000
0000
0001
1000
0010
0000
0100
0000
0000
0000
,
1000
0010
1000
0010
1000
0100
0001
1000
,
0010
1000
0001
0100
1000
0010
1000
0001
,
0010
1000
0001
0100
0010
1000
0010
1000
,
0001
0000
0100
0000
1000
0000
0001
0000
0100
0000
0010
0100
1000
0000
0001
1000
,
0100
0001
1000
0100
,
1000
0000
0001
0010
0001
0000
1000
0000
,
0010
0000
1000
0010
1000
0000
0001
0000
,
0100
0001
0101
0000
,
1000
1000
0001
1000
,
0010
0000
0100
1000
0100
0000
0001
0000
,
0010
0000
1000
0001
0100
0000
0010
0000
,
1000
0010
1000
0000
,
0001
0001
1000
1000
,
0001
0100
1000
0010
,
1000
0010
1000
0000
0001
0010
0001
0000
,
1000
0100
0010
0000
,
0001
1000
0010
1000
,
0100
1000
1000
0000
,
0001
1000
0010
1000
,
0010
1000
0010
0000
0100
0001
0100
0000
,
0001
0000
0000
1000
0000
0000
0010
0000
,
0000
0100
0000
0000
1000
0000
0001
0000
,
0100
0000
0000
1000
0000
0000
0010
0000
,
0000
1000
0000
0000
0001
0000
0100
0000
,
1000
0000
0000
0010
0000
0000
1000
0000
,
0000
0001
0000
0000
1000
0000
0001
0000
,
1000
0001
0010
0001
,
0010
0001
0010
0000
1000
0010
0100
0001
,
2002
0000
0000
0000
,
3003
0000
0000
0000
,
0000
0000
0000
0000
,
0000
0000
0000
0000
,
0001
1000
0010
1000
,
0100
0000
0001
0010
0001
0000
1000
0100
,
1000
0001
0010
1000
,
0010
1000
0001
0100
1000
0001
0010
0000
,
1000
0000
0001
0000
0010
0001
0010
0000
,
1000
0100
1000
0010
,
1010
1010
1010
1010
,
0001
0010
0001
0000
1000
0100
1000
0000
,
0001
1000
0100
1000
,
0001
0000
0010
0000
1000
0010
1000
0000
,
0100
1000
0001
0010
,
0001
1000
0010
0100
0001
0010
1000
0000
,
0001
0010
1000
0100
,
0001
1000
0010
1000
,
0010
0001
0010
0000
1000
0100
1000
0000
,
0001
1000
0010
0100
0001
1000
0010
0000
,
0001
0000
0000
1000
0000
0000
0001
0000
,
0000
0100
0000
0000
0010
0000
1000
0000
,
0001
0000
0000
0100
0000
0000
1000
0000
,
0000
0010
0000
0000
1000
0000
0100
0000
,
0101
0000
0000
1010
0000
0000
0110
0000
,
0000
1010
0000
0000
1001
0000
1001
0000
,
0010
1000
0001
0100
,
0001
0010
0001
0000
1000
0100
1000
0000
,
2002
0000
0000
0000
,
3003
0000
0000
0000
;

//--------------- dance-single - XLev450X-ESP ----------------
#NOTES:
     dance-single:
     XLev450X:
     Hard:
     15:
     0,0,0,0,0:
0000
0000
0000
0000
,
0000
0000
0000
0000
,
0000
0000
0000
0000
,
0000
0000
0000
0000
,
0000
0000
0000
0000
,
0001
1000
0010
1000
0100
0000
1000
0000
,
0001
0010
0001
0000
1000
0000
0100
0000
,
1000
0001
1000
0010
0100
1000
0001
1000
,
0001
1000
0100
0001
0010
0100
1000
0100
0001
0010
1000
0100
0010
0001
0010
0100
,
1000
0000
0001
0000
1000
0000
0100
1000
,
0100
0000
0001
0000
0010
0000
0010
0001
,
0010
0000
1000
0000
0100
0000
0010
0100
,
0010
0000
1000
0000
0202
0000
0000
0303
,
1000
0000
0001
0000
1000
0000
0100
1000
,
0001
0000
0100
0000
1000
0000
0010
1000
,
0010
1000
0001
0010
,
1000
0000
0001
0000
1000
0000
0010
0000
0100
0001
1000
0010
1000
0001
0010
0000
,
1000
0100
1000
0000
0001
0000
1000
0000
0010
0000
0100
0000
0001
0000
0100
0000
,
0010
0100
0010
0000
0001
0000
1000
0000
0010
0000
0100
0000
1000
0000
0001
0000
,
0010
0001
0010
0000
1000
0000
0001
0000
0100
0000
1000
0000
0010
0000
0001
0000
,
1001
0000
1001
0000
1001
2002
0000
3003
,
1000
0100
0010
0000
0001
0000
1000
0000
0010
0000
0100
0000
1000
0000
0001
0000
,
0010
0100
1000
0000
0001
0000
1000
0000
0010
0000
0001
0000
0100
0000
1000
0000
,
0010
0001
0010
0000
0100
1000
0100
0000
0010
0100
0010
0000
1000
0001
1000
0000
,
1001
0000
1001
0000
1001
0000
1001
0000
0001
1000
0001
0100
1000
0001
0010
0100
,
1000
0000
0001
0000
1000
0000
0010
0001
,
0010
0000
1000
0000
0100
0000
0001
0010
,
1000
0100
1000
0001
,
0000
0000
1000
0000
0010
1000
0000
0000
,
0101
0000
1000
0000
0010
0000
1000
0100
,
1000
0001
0100
1000
,
0010
1000
0001
0100
,
0010
1000
0101
0000
,
1000
0001
1000
0010
1000
0000
0100
1000
,
0100
0000
0001
0010
1000
0001
0100
1000
,
0010
0000
1000
0100
1000
0000
0001
0010
,
1000
0010
0100
0001
1000
0000
0010
0000
,
1000
0100
1000
0000
0001
0010
1000
0000
,
0100
1000
0001
0100
0010
1000
0000
0000
,
0001
0101
0001
0101
0001
0101
0001
0101
,
0010
0000
1000
0000
0010
0000
1000
0000
0001
1000
0100
0001
0010
1000
0100
0000
,
0001
0010
0001
0000
0000
0000
1000
0100
1000
0000
0000
0000
1000
0001
1000
0000
,
0000
0000
1000
0100
0010
0000
0000
0000
1001
0000
0000
0000
1001
0000
0000
0000
,
0001
1000
0100
0000
0000
0000
1000
0100
0001
0000
0000
0000
0010
0001
1000
0000
,
0000
0000
1000
0100
1000
0000
0000
0000
0110
0000
0000
0000
0110
0000
0000
0000
,
1000
0100
1000
0000
0000
0000
0010
0001
0010
0000
0000
0000
0100
0010
0100
0000
,
0000
0000
1000
0100
0010
0000
0000
0000
1100
0000
0000
0000
1100
0000
0000
0000
,
0001
1001
1000
1001
0001
1001
1000
1001
,
0010
0000
1000
0000
0010
0000
1000
0000
0001
1000
0010
0100
0001
1000
0100
0001
,
0020
0000
0000
0000
0000
0000
0000
0000
,
0030
0000
0000
0000
,
0000
0000
0000
0000
,
0000
0000
0000
0000
,
0001
1000
0010
1000
0001
0000
1000
0000
,
0100
0000
0000
0000
1000
0000
0001
0000
0010
0100
1000
0000
0001
0000
1000
0000
,
0001
0000
0001
1000
0010
0000
1000
0000
,
0100
0000
1000
0001
0010
0000
0011
0000
,
1000
0000
0100
0000
1000
0000
0001
0010
,
1000
0000
0100
0000
1000
0000
0010
1000
,
0010
1000
0100
1000
,
0001
0000
1000
0000
0010
0000
1000
0000
0001
1000
0100
0001
0010
0100
1000
0000
,
0001
1000
0001
0000
1000
0000
0010
0000
0100
0000
1000
0000
0100
0000
0010
0000
,
0001
1000
0010
0000
1000
0000
0001
0000
0100
0000
1000
0000
0001
0000
0100
0000
,
0010
0100
1000
0000
0001
0000
0100
0000
1000
0000
0001
0000
0100
0000
0010
0000
,
1000
0100
0001
0000
1000
0000
0010
0000
0100
0000
0001
1000
0001
0000
0100
0000
,
1000
0010
0100
0000
0100
0000
0001
0000
1000
0000
0010
0000
1000
0000
0001
0000
,
0100
1000
0100
0000
1000
0000
0100
0000
0001
0000
1000
0000
0010
0000
1000
0000
,
0001
0011
0001
0101
1000
1100
1000
1010
,
0001
0000
1000
0000
0010
0000
1000
0000
0001
1000
0100
0001
0010
0100
1000
0000
,
1000
0100
1000
0000
0000
0000
0001
0010
0001
0000
0000
0000
0001
1000
0001
0000
,
0000
0000
0001
0010
0100
0000
0000
0000
1001
0000
0000
0000
1001
0000
0000
0000
,
1000
0001
0010
0000
0000
0000
0001
0010
1000
0000
0000
0000
0100
1000
0001
0000
,
0000
0000
0001
0010
0001
0000
0000
0000
0110
0000
0000
0000
0110
0000
0000
0000
,
0001
0010
0001
0000
0000
0000
0100
1000
0100
0000
0000
0000
0010
0100
0010
0000
,
0000
0000
0001
0010
0100
0000
0000
0000
0011
0000
0000
0000
0011
0000
0000
0000
,
1000
1001
0001
1001
1000
1001
0001
1001
,
0100
0000
0001
0000
0100
0000
0001
0000
1000
0001
0100
0010
1000
0001
0010
1000
,
0200
0000
0000
0000
0000
0000
0000
0000
,
0300
0000
0000
0000
0000
0000
0000
0000
;

//--------------- dance-single - XLev450X†-CSP ----------------
#NOTES:
     dance-single:
     XLev450X†:
     Challenge:
     17:
     0,0,0,0,0:
0000
0000
0000
0000
,
0000
0000
0000
0000
,
0000
0000
0000
0000
,
0000
0000
0000
0000
,
0000
0000
0000
0000
,
0001
1000
0010
0100
1000
0001
0010
0000
,
1000
0100
1000
0001
1000
0010
0000
0000
,
0001
0010
1000
0001
1000
0010
0100
1000
,
0100
0000
0000
0000
0000
0000
0010
0000
0000
0000
0000
0000
0001
0000
0000
0000
0000
0000
1000
0000
0000
0000
0000
0000
0010
0000
0000
0000
0000
0000
1000
0000
0000
0000
0000
0000
0010
0000
0000
0000
0000
0000
0100
0000
0000
0000
0000
0000
0001
0000
0000
0000
0000
0000
1000
0000
0000
0000
0000
0000
0010
0000
0000
0000
0000
0000
0100
0000
0000
0000
0000
0000
0010
0000
0000
0000
0000
0000
0100
0000
0000
0000
0000
0000
0001
0000
0000
0000
0000
0000
1000
0000
0000
0000
0000
0000
,
0010
0001
0010
1000
0001
0100
1000
0000
,
0001
0100
1000
0100
0010
1000
0001
0000
,
1000
0010
1000
0001
0100
1000
0001
0000
,
1000
0010
1000
0100
1000
0001
0000
0000
,
0010
1000
0010
0100
1000
0100
1000
0000
,
0001
0010
0001
1000
0010
1000
0001
0000
,
0010
1000
0001
1000
0010
1000
0001
1000
,
0011
0000
0011
0000
0011
0000
0011
0000
1000
0001
0100
1000
0001
0010
0100
0000
,
0010
0000
0000
0000
0000
0000
1000
0000
0000
0000
0000
0000
0001
0000
0000
0000
0000
0000
0010
0000
0000
0000
0000
0000
0100
0000
0000
0000
0000
0000
0010
0000
0000
0000
0000
0000
0001
0000
0000
0000
0000
0000
0100
0000
0000
0000
0000
0000
0010
0000
0000
0000
0000
0000
1000
0000
0000
0000
0000
0000
0001
0000
0000
0000
0000
0000
0100
0000
0000
0000
0000
0000
0010
0000
0000
0000
0000
0000
1000
0000
0000
0000
0000
0000
0100
0000
0000
0000
0000
0000
0010
0000
0000
0000
0000
0000
,
0100
0000
0000
0000
0000
0000
0010
0000
0000
0000
0000
0000
0001
0000
0000
0000
0000
0000
0010
0000
0000
0000
0000
0000
0100
0000
0000
0000
0000
0000
1000
0000
0000
0000
0000
0000
0001
0000
0000
0000
0000
0000
0010
0000
0000
0000
0000
0000
0100
0000
0000
0000
0000
0000
0010
0000
0000
0000
0000
0000
0001
0000
0000
0000
0000
0000
0100
0000
0000
0000
0000
0000
0010
0000
0000
0000
0000
0000
1000
0000
0000
0000
0000
0000
0001
0000
0000
0000
0000
0000
1000
0000
0000
0000
0000
0000
,
0010
0000
0000
0000
0000
0000
0100
0000
0000
0000
0000
0000
0001
0000
0000
0000
0000
0000
0010
0000
0000
0000
0000
0000
0100
0000
0000
0000
0000
0000
1000
0000
0000
0000
0000
0000
0001
0000
0000
0000
0000
0000
0100
0000
0000
0000
0000
0000
0010
0000
0000
0000
0000
0000
1000
0000
0000
0000
0000
0000
0001
0000
0000
0000
0000
0000
0010
0000
0000
0000
0000
0000
0001
0000
0000
0000
0000
0000
1000
0000
0000
0000
0000
0000
0001
0000
0000
0000
0000
0000
0100
0000
0000
0000
0000
0000
,
0010
0000
0000
0000
0000
0000
1000
0000
0000
0000
0000
0000
0001
0000
0000
0000
0000
0000
0010
0000
0000
0000
0000
0000
0001
0000
0000
0000
0000
0000
1000
0000
0000
0000
0000
0000
0010
0000
0000
0000
0000
0000
0100
0000
0000
0000
0000
0000
0010
0000
0000
0000
0000
0000
1000
0000
0000
0000
0000
0000
0010
0000
0000
0000
0000
0000
0100
0000
0000
0000
0000
0000
0001
0000
0000
0000
0000
0000
0010
0000
0000
0000
0000
0000
0100
0000
0000
0000
0000
0000
0010
0000
0000
0000
0000
0000
,
0001
0000
0000
0000
0000
0000
1000
0000
0000
0000
0000
0000
0010
0000
0000
0000
0000
0000
0100
0000
0000
0000
0000
0000
0001
0000
0000
0000
0000
0000
1000
0000
0000
0000
0000
0000
0010
0000
0000
0000
0000
0000
1000
0000
0000
0000
0000
0000
0100
0000
0000
0000
0000
0000
0010
0000
0000
0000
0000
0000
0100
0000
0000
0000
0000
0000
0010
0000
0000
0000
0000
0000
0001
0000
0000
0000
0000
0000
0010
0000
0000
0000
0000
0000
0001
0000
0000
0000
0000
0000
1000
0000
0000
0000
0000
0000
,
0100
0000
0000
0000
0000
0000
0010
0000
0000
0000
0000
0000
0001
0000
0000
0000
0000
0000
1000
0000
0000
0000
0000
0000
0010
0000
0000
0000
0000
0000
1000
0000
0000
0000
0000
0000
0100
0000
0000
0000
0000
0000
0010
0000
0000
0000
0000
0000
0001
0000
0000
0000
0000
0000
1000
0000
0000
0000
0000
0000
0010
0000
0000
0000
0000
0000
1000
0000
0000
0000
0000
0000
0010
0000
0000
0000
0000
0000
0100
0000
0000
0000
0000
0000
0010
0000
0000
0000
0000
0000
0100
0000
0000
0000
0000
0000
,
0001
0000
0000
0000
0000
0000
0100
0000
0000
0000
0000
0000
0010
0000
0000
0000
0000
0000
1000
0000
0000
0000
0000
0000
0100
0000
0000
0000
0000
0000
1000
0000
0000
0000
0000
0000
0100
0000
0000
0000
0000
0000
0010
0000
0000
0000
0000
0000
0100
0000
0000
0000
0000
0000
0010
0000
0000
0000
0000
0000
0001
0000
0000
0000
0000
0000
1000
0000
0000
0000
0000
0000
0010
0000
0000
0000
0000
0000
0100
0000
0000
0000
0000
0000
0010
0000
0000
0000
0000
0000
1000
0000
0000
0000
0000
0000
,
0001
0000
0000
0000
0000
0000
0010
0000
0000
0000
0000
0000
0001
0000
0000
0000
0000
0000
1000
0000
0000
0000
0000
0000
0001
0000
0000
0000
0000
0000
0010
0000
0000
0000
0000
0000
0100
0000
0000
0000
0000
0000
1000
0000
0000
0000
0000
0000
0100
0000
0000
0000
0000
0000
1000
0000
0000
0000
0000
0000
0001
0000
0000
0000
0000
0000
0010
0000
0000
0000
0000
0000
0001
0000
0000
0000
0000
0000
0010
0000
0000
0000
0000
0000
0001
0000
0000
0000
0000
0000
0100
0000
0000
0000
0000
0000
,
0010
0000
1000
0000
0001
0000
0010
0001
,
0010
1000
0100
1000
,
0001
0100
0010
0000
1000
0000
0000
0000
,
0001
0010
1000
0000
0100
0000
1000
0000
,
0010
1000
0010
1000
0001
0000
0100
0000
,
1000
0101
1010
0010
,
1000
0001
1000
0010
0100
0000
0001
0000
,
0000
1000
0001
0000
1000
0000
0010
0000
,
1000
0010
1000
0100
1000
0000
0001
0010
,
0001
0000
1000
0100
1000
0001
0100
0010
,
1000
0001
1000
0010
0001
0000
0010
0000
,
0001
0000
1000
0100
1000
0000
0001
0000
,
0010
1000
0001
1000
0010
0000
0100
0000
,
1000
0000
0001
0010
0100
0000
1000
0000
,
1001
1001
1001
1001
,
0010
0000
1000
0000
0010
0000
1000
0000
0001
1000
0100
0010
0001
0100
1000
0000
,
0010
0000
0000
0000
0000
0000
0100
0000
0000
0000
0000
0000
0001
0000
0000
0000
0000
0000
1000
0000
0000
0000
0000
0000
0010
0000
0000
0000
0000
0000
0100
0000
0000
0000
0000
0000
0001
0000
0000
0000
0000
0000
0100
0000
0000
0000
0000
0000
0010
0000
0000
0000
0000
0000
0100
0000
0000
0000
0000
0000
0001
0000
0000
0000
0000
0000
1000
0000
0000
0000
0000
0000
0010
0000
0000
0000
0000
0000
1000
0000
0000
0000
0000
0000
0100
0000
0000
0000
0000
0000
1000
0000
0000
0000
0000
0000
,
0100
0000
0000
0000
0000
0000
0010
0000
0000
0000
0000
0000
0100
0000
0000
0000
0000
0000
0010
0000
0000
0000
0000
0000
0001
0000
0000
0000
0000
0000
0100
0000
0000
0000
0000
0000
0001
0000
0000
0000
0000
0000
0010
0000
0000
0000
0000
0000
0001
0000
0000
0000
0000
0000
1000
0000
0000
0000
0000
0000
0100
0000
0000
0000
0000
0000
0010
0000
0000
0000
0000
0000
0100
0000
0000
0000
0000
0000
1000
0000
0000
0000
0000
0000
0100
0000
0000
0000
0000
0000
0010
0000
0000
0000
0000
0000
,
0001
0000
0000
0000
0000
0000
0100
0000
0000
0000
0000
0000
0001
0000
0000
0000
0000
0000
0010
0000
0000
0000
0000
0000
0100
0000
0000
0000
0000
0000
1000
0000
0000
0000
0000
0000
0010
0000
0000
0000
0000
0000
1000
0000
0000
0000
0000
0000
0001
0000
0000
0000
0000
0000
0010
0000
0000
0000
0000
0000
0100
0000
0000
0000
0000
0000
0010
0000
0000
0000
0000
0000
0100
0000
0000
0000
0000
0000
1000
0000
0000
0000
0000
0000
0100
0000
0000
0000
0000
0000
0010
0000
0000
0000
0000
0000
,
0001
0000
0000
0000
0000
0000
0100
0000
0000
0000
0000
0000
0010
0000
0000
0000
0000
0000
1000
0000
0000
0000
0000
0000
0001
0000
0000
0000
0000
0000
0100
0000
0000
0000
0000
0000
0001
0000
0000
0000
0000
0000
1000
0000
0000
0000
0000
0000
0010
0000
0000
0000
0000
0000
0100
0000
0000
0000
0000
0000
0010
0000
0000
0000
0000
0000
1000
0000
0000
0000
0000
0000
0010
0000
0000
0000
0000
0000
1000
0000
0000
0000
0000
0000
0100
0000
0000
0000
0000
0000
0010
0000
0000
0000
0000
0000
,
0001
0000
0000
0000
0000
0000
0100
0000
0000
0000
0000
0000
0010
0000
0000
0000
0000
0000
1000
0000
0000
0000
0000
0000
0001
0000
0000
0000
0000
0000
1000
0000
0000
0000
0000
0000
0100
0000
0000
0000
0000
0000
0010
0000
0000
0000
0000
0000
0001
0000
0000
0000
0000
0000
0100
0000
0000
0000
0000
0000
0010
0000
0000
0000
0000
0000
0100
0000
0000
0000
0000
0000
0010
0000
0000
0000
0000
0000
1000
0000
0000
0000
0000
0000
0010
0000
0000
0000
0000
0000
1000
0000
0000
0000
0000
0000
,
0100
0000
0000
0000
0000
0000
0010
0000
0000
0000
0000
0000
0001
0000
0000
0000
0000
0000
1000
0000
0000
0000
0000
0000
0010
0000
0000
0000
0000
0000
0100
0000
0000
0000
0000
0000
0001
0000
0000
0000
0000
0000
1000
0000
0000
0000
0000
0000
0010
0000
0000
0000
0000
0000
0100
0000
0000
0000
0000
0000
0001
0000
0000
0000
0000
0000
1000
0000
0000
0000
0000
0000
0100
0000
0000
0000
0000
0000
0010
0000
0000
0000
0000
0000
0001
0000
0000
0000
0000
0000
1000
0000
0000
0000
0000
0000
,
0100
0000
0000
0000
0000
0000
0010
0000
0000
0000
0000
0000
0001
0000
0000
0000
0000
0000
1000
0000
0000
0000
0000
0000
0100
0000
0000
0000
0000
0000
0010
0000
0000
0000
0000
0000
0001
0000
0000
0000
0000
0000
0010
0000
0000
0000
0000
0000
0001
0000
0000
0000
0000
0000
1000
0000
0000
0000
0000
0000
0100
0000
0000
0000
0000
0000
1000
0000
0000
0000
0000
0000
0001
0000
0000
0000
0000
0000
0010
0000
0000
0000
0000
0000
0100
0000
0000
0000
0000
0000
1000
0000
0000
0000
0000
0000
,
0010
0000
0000
0000
0000
0000
0100
0000
0000
0000
0000
0000
0001
0000
0000
0000
0000
0000
1000
0000
0000
0000
0000
0000
0100
0000
0000
0000
0000
0000
0010
0000
0000
0000
0000
0000
0100
0000
0000
0000
0000
0000
1000
0000
0000
0000
0000
0000
0010
0000
0000
0000
0000
0000
0100
0000
0000
0000
0000
0000
0001
0000
0000
0000
0000
0000
0100
0000
0000
0000
0000
0000
0001
0000
0000
0000
0000
0000
0010
0000
0000
0000
0000
0000
0100
0000
0000
0000
0000
0000
0010
0000
0000
0000
0000
0000
,
0200
0000
0000
0000
0000
0000
0000
0000
,
0300
0000
0000
0000
,
0000
0000
0000
0000
,
0000
0000
0000
0000
,
0001
1000
0010
0100
,
0001
0010
0001
0000
1000
0000
0100
0000
,
1000
0010
1000
0000
0001
0010
1000
0000
,
0100
1000
0001
0100
0010
1000
0001
0000
,
0010
1000
0100
1000
,
0001
0000
0010
0000
0001
0010
0001
0000
,
1000
0001
0100
0010
1000
0001
0010
1000
,
0010
0000
0000
0000
0000
0000
1000
0000
0000
0000
0000
0000
0001
0000
0000
0000
0000
0000
0010
0000
0000
0000
0000
0000
0001
0000
0000
0000
0000
0000
0100
0000
0000
0000
0000
0000
0010
0000
0000
0000
0000
0000
1000
0000
0000
0000
0000
0000
0010
0000
0000
0000
0000
0000
0100
0000
0000
0000
0000
0000
0010
0000
0000
0000
0000
0000
1000
0000
0000
0000
0000
0000
0001
0000
0000
0000
0000
0000
0010
0000
0000
0000
0000
0000
0001
0000
0000
0000
0000
0000
0000
0000
0000
0000
0000
0000
,
0010
0000
0000
0000
0000
0000
1000
0000
0000
0000
0000
0000
0001
0000
0000
0000
0000
0000
0010
0000
0000
0000
0000
0000
0100
0000
0000
0000
0000
0000
1000
0000
0000
0000
0000
0000
0001
0000
0000
0000
0000
0000
0010
0000
0000
0000
0000
0000
0001
0000
0000
0000
0000
0000
0010
0000
0000
0000
0000
0000
0001
0000
0000
0000
0000
0000
0010
0000
0000
0000
0000
0000
0100
0000
0000
0000
0000
0000
1000
0000
0000
0000
0000
0000
0010
0000
0000
0000
0000
0000
1000
0000
0000
0000
0000
0000
,
0100
0000
0000
0000
0000
0000
1000
0000
0000
0000
0000
0000
0001
0000
0000
0000
0000
0000
0100
0000
0000
0000
0000
0000
0001
0000
0000
0000
0000
0000
1000
0000
0000
0000
0000
0000
0010
0000
0000
0000
0000
0000
1000
0000
0000
0000
0000
0000
0001
0000
0000
0000
0000
0000
0010
0000
0000
0000
0000
0000
0001
0000
0000
0000
0000
0000
0010
0000
0000
0000
0000
0000
0100
0000
0000
0000
0000
0000
0010
0000
0000
0000
0000
0000
0100
0000
0000
0000
0000
0000
1000
0000
0000
0000
0000
0000
,
0001
0000
0000
0000
0000
0000
0100
0000
0000
0000
0000
0000
0010
0000
0000
0000
0000
0000
1000
0000
0000
0000
0000
0000
0001
0000
0000
0000
0000
0000
0100
0000
0000
0000
0000
0000
0010
0000
0000
0000
0000
0000
1000
0000
0000
0000
0000
0000
0001
0000
0000
0000
0000
0000
0100
0000
0000
0000
0000
0000
0001
0000
0000
0000
0000
0000
0100
0000
0000
0000
0000
0000
0010
0000
0000
0000
0000
0000
1000
0000
0000
0000
0000
0000
0001
0000
0000
0000
0000
0000
0100
0000
0000
0000
0000
0000
,
0010
0000
0000
0000
0000
0000
1000
0000
0000
0000
0000
0000
0001
0000
0000
0000
0000
0000
0100
0000
0000
0000
0000
0000
0010
0000
0000
0000
0000
0000
1000
0000
0000
0000
0000
0000
0001
0000
0000
0000
0000
0000
1000
0000
0000
0000
0000
0000
0001
0000
0000
0000
0000
0000
1000
0000
0000
0000
0000
0000
0001
0000
0000
0000
0000
0000
0100
0000
0000
0000
0000
0000
0010
0000
0000
0000
0000
0000
1000
0000
0000
0000
0000
0000
0100
0000
0000
0000
0000
0000
0010
0000
0000
0000
0000
0000
,
0100
0000
0000
0000
0000
0000
0010
0000
0000
0000
0000
0000
0100
0000
0000
0000
0000
0000
1000
0000
0000
0000
0000
0000
0010
0000
0000
0000
0000
0000
1000
0000
0000
0000
0000
0000
0001
0000
0000
0000
0000
0000
0010
0000
0000
0000
0000
0000
0001
0000
0000
0000
0000
0000
0100
0000
0000
0000
0000
0000
0010
0000
0000
0000
0000
0000
1000
0000
0000
0000
0000
0000
0001
0000
0000
0000
0000
0000
0010
0000
0000
0000
0000
0000
0001
0000
0000
0000
0000
0000
1000
0000
0000
0000
0000
0000
,
0100
0000
0000
0000
0000
0000
0010
0000
0000
0000
0000
0000
0001
0000
0000
0000
0000
0000
0010
0000
0000
0000
0000
0000
0001
0000
0000
0000
0000
0000
0100
0000
0000
0000
0000
0000
0010
0000
0000
0000
0000
0000
1000
0000
0000
0000
0000
0000
0010
0000
0000
0000
0000
0000
0100
0000
0000
0000
0000
0000
0001
0000
0000
0000
0000
0000
1000
0000
0000
0000
0000
0000
0010
0000
0000
0000
0000
0000
0100
0000
0000
0000
0000
0000
0001
0000
0000
0000
0000
0000
0010
0000
0000
0000
0000
0000
,
1100
1100
1100
1100
,
0001
0000
1000
0000
0010
0000
0100
0000
1000
0001
0100
0001
1000
0100
0001
0000
,
0010
0000
0000
0000
0000
0000
0100
0000
0000
0000
0000
0000
0001
0000
0000
0000
0000
0000
0010
0000
0000
0000
0000
0000
0001
0000
0000
0000
0000
0000
1000
0000
0000
0000
0000
0000
0010
0000
0000
0000
0000
0000
1000
0000
0000
0000
0000
0000
0100
0000
0000
0000
0000
0000
0010
0000
0000
0000
0000
0000
0001
0000
0000
0000
0000
0000
1000
0000
0000
0000
0000
0000
0100
0000
0000
0000
0000
0000
0010
0000
0000
0000
0000
0000
0001
0000
0000
0000
0000
0000
1000
0000
0000
0000
0000
0000
,
0100
0000
0000
0000
0000
0000
0010
0000
0000
0000
0000
0000
0001
0000
0000
0000
0000
0000
0010
0000
0000
0000
0000
0000
0100
0000
0000
0000
0000
0000
1000
0000
0000
0000
0000
0000
0010
0000
0000
0000
0000
0000
0100
0000
0000
0000
0000
0000
0001
0000
0000
0000
0000
0000
1000
0000
0000
0000
0000
0000
0001
0000
0000
0000
0000
0000
0100
0000
0000
0000
0000
0000
0001
0000
0000
0000
0000
0000
0100
0000
0000
0000
0000
0000
0010
0000
0000
0000
0000
0000
1000
0000
0000
0000
0000
0000
,
0100
0000
0000
0000
0000
0000
0010
0000
0000
0000
0000
0000
0001
0000
0000
0000
0000
0000
0100
0000
0000
0000
0000
0000
0010
0000
0000
0000
0000
0000
1000
0000
0000
0000
0000
0000
0001
0000
0000
0000
0000
0000
0100
0000
0000
0000
0000
0000
0001
0000
0000
0000
0000
0000
0100
0000
0000
0000
0000
0000
0010
0000
0000
0000
0000
0000
1000
0000
0000
0000
0000
0000
0010
0000
0000
0000
0000
0000
0100
0000
0000
0000
0000
0000
0001
0000
0000
0000
0000
0000
0010
0000
0000
0000
0000
0000
,
0001
0000
0000
0000
0000
0000
0100
0000
0000
0000
0000
0000
0001
0000
0000
0000
0000
0000
1000
0000
0000
0000
0000
0000
0010
0000
0000
0000
0000
0000
0100
0000
0000
0000
0000
0000
0001
0000
0000
0000
0000
0000
0010
0000
0000
0000
0000
0000
0100
0000
0000
0000
0000
0000
0010
0000
0000
0000
0000
0000
0100
0000
0000
0000
0000
0000
0010
0000
0000
0000
0000
0000
0100
0000
0000
0000
0000
0000
1000
0000
0000
0000
0000
0000
0001
0000
0000
0000
0000
0000
0100
0000
0000
0000
0000
0000
,
0001
0000
0000
0000
0000
0000
0010
0000
0000
0000
0000
0000
0100
0000
0000
0000
0000
0000
0010
0000
0000
0000
0000
0000
0100
0000
0000
0000
0000
0000
0010
0000
0000
0000
0000
0000
0001
0000
0000
0000
0000
0000
0100
0000
0000
0000
0000
0000
0001
0000
0000
0000
0000
0000
1000
0000
0000
0000
0000
0000
0100
0000
0000
0000
0000
0000
0010
0000
0000
0000
0000
0000
0001
0000
0000
0000
0000
0000
0010
0000
0000
0000
0000
0000
0001
0000
0000
0000
0000
0000
0010
0000
0000
0000
0000
0000
,
0100
0000
0000
0000
0000
0000
1000
0000
0000
0000
0000
0000
0001
0000
0000
0000
0000
0000
1000
0000
0000
0000
0000
0000
0100
0000
0000
0000
0000
0000
0010
0000
0000
0000
0000
0000
0001
0000
0000
0000
0000
0000
1000
0000
0000
0000
0000
0000
0100
0000
0000
0000
0000
0000
0010
0000
0000
0000
0000
0000
0001
0000
0000
0000
0000
0000
1000
0000
0000
0000
0000
0000
0100
0000
0000
0000
0000
0000
0010
0000
0000
0000
0000
0000
0001
0000
0000
0000
0000
0000
1000
0000
0000
0000
0000
0000
,
0100
0000
0000
0000
0000
0000
0010
0000
0000
0000
0000
0000
0100
0000
0000
0000
0000
0000
0010
0000
0000
0000
0000
0000
0001
0000
0000
0000
0000
0000
0100
0000
0000
0000
0000
0000
0001
0000
0000
0000
0000
0000
0010
0000
0000
0000
0000
0000
0100
0000
0000
0000
0000
0000
1000
0000
0000
0000
0000
0000
0010
0000
0000
0000
0000
0000
0100
0000
0000
0000
0000
0000
0001
0000
0000
0000
0000
0000
1000
0000
0000
0000
0000
0000
0001
0000
0000
0000
0000
0000
0100
0000
0000
0000
0000
0000
,
0001
0000
0000
0000
0000
0000
1000
0000
0000
0000
0000
0000
0100
0000
0000
0000
0000
0000
0010
0000
0000
0000
0000
0000
0100
0000
0000
0000
0000
0000
1000
0000
0000
0000
0000
0000
0100
0000
0000
0000
0000
0000
0010
0000
0000
0000
0000
0000
0001
0000
0000
0000
0000
0000
1000
0000
0000
0000
0000
0000
0001
0000
0000
0000
0000
0000
0010
0000
0000
0000
0000
0000
0100
0000
0000
0000
0000
0000
1000
0000
0000
0000
0000
0000
0010
0000
0000
0000
0000
0000
0100
0000
0000
0000
0000
0000
,
0020
0000
0000
0000
0000
0000
0000
0000
,
0030
0000
0000
0000
;
