#TITLE:CALDERA;
#ARTIST:CALF;
#GENRE:HARDCORE BREAKBEATS;
#MUSIC:CALDERA.ogg;
#BANNER:CALDERA.png;
#BACKGROUND:CALDERA-bg.png;
#CDTITLE:./CDTITLES/beatmania.png;
#SAMPLESTART:23.786;
#SAMPLELENGTH:15;
#BPMS:0=210
,180=120
,212=210;
#BGSTAGE:14;

//--------------- dance-single - XLev450X-bSP ----------------
#NOTES:
     dance-single:
     XLev450X:
     Beginner:
     5:
     0,0,0,0,0:
0000
0000
0000
0000
,
0000
0000
0000
0000
,
1000
1000
1000
0000
,
0001
0000
0100
0000
,
0010
0010
0010
0000
,
1000
0000
0001
0000
,
0100
0100
0100
0000
,
0010
0000
0000
0000
,
1000
0000
0001
0000
,
1000
0000
0000
0000
,
0010
0000
0100
0000
,
0010
0000
0000
0000
,
1000
0000
0010
0000
,
1000
0000
0000
0000
,
0100
0000
0001
0000
,
0100
0000
0000
0000
,
2002
0000
0000
0000
,
0000
0000
0000
0000
,
0000
0000
0000
0000
,
0000
0000
0000
0000
,
0000
3003
0000
0000
0000
0000
0000
0000
,
0001
0000
1000
0000
,
0010
0000
0100
0000
,
0001
0000
1000
0000
,
0010
0000
0001
0001
,
0000
1000
0000
0010
,
0000
0000
0000
0100
,
0000
0001
0000
1000
,
0000
0000
0000
1000
,
0000
0001
0100
0010
,
0000
1000
0000
0001
,
0000
0100
0010
1000
,
0000
0001
1000
1000
,
0000
0010
0000
0100
,
0000
0000
0000
0001
,
0000
1000
0000
0010
,
0000
0000
0000
0100
,
0000
0001
0000
1000
,
0000
0100
0000
0001
,
1000
0000
0010
0000
,
0100
0000
0001
1000
,
0010
0000
0100
0000
,
1000
0000
0001
0100
,
0010
0000
1000
0000
,
0001
0000
0000
0000
,
2002
0000
0000
3003
,
0220
0000
0000
0330
,
2020
0000
0000
3030
,
0202
0000
0000
0303
,
0001
0001
0001
0000
,
1000
1000
1000
0000
,
0010
0100
0010
0000
,
0100
0000
0001
1000
,
0000
0000
0000
0000
,
0010
1000
0001
0100
,
0010
1000
0000
0001
,
0000
0100
0000
0010
,
1000
0001
0001
0001
,
0000
1000
0010
0100
,
0000
1000
0000
0100
,
0000
0010
0001
1000
,
0010
0100
0001
1000
,
0000
0010
0000
0100
,
0000
0001
1000
0010
,
0000
0100
0000
0010
,
0100
0000
0000
1000
,
0000
0000
0001
0000
,
0100
0000
0001
0000
,
1000
0001
1000
0001
,
2002
0000
0000
0000
0000
3003
0000
0000
;

//--------------- dance-single - XLev450X-BSP ----------------
#NOTES:
     dance-single:
     XLev450X:
     Easy:
     7:
     0,0,0,0,0:
0000
0000
0000
0000
,
0000
0000
0000
0000
,
0001
1000
0001
0100
,
0010
0000
1000
0000
,
0010
0001
0100
0010
,
1000
0000
0001
0000
,
0010
0001
1000
0010
,
0100
0001
0110
0000
,
0001
0000
1000
0000
,
0010
0100
0001
0000
,
1000
0000
0010
0000
,
0100
0001
1000
0010
,
0100
0000
0001
0000
,
1000
0010
0100
0001
,
1000
0000
0010
0000
,
0100
0000
0001
0000
1000
0001
0100
0001
,
0220
0000
0000
0000
,
0000
0000
0000
0000
,
0000
0000
0000
0000
,
0000
0000
0000
0000
,
0000
0330
0000
0000
0000
0000
0000
0000
,
0001
1000
0010
0100
,
0000
0001
0000
1000
,
0010
0100
0001
1000
,
0010
0100
1001
1001
,
0010
0100
0000
0001
,
1000
0100
0000
0001
,
1000
0010
0100
0001
,
1000
1000
1000
0010
,
0100
0001
0000
0100
,
0000
0001
1000
0010
,
0000
0100
0000
0001
,
1000
0010
0100
0001
,
0000
1000
0010
0100
,
0001
1000
0000
0010
,
0001
0100
0010
1000
,
0001
0100
0010
1000
,
0000
0010
0000
0000
1000
0000
0001
0000
,
0100
0010
1000
0001
,
0000
0010
0000
0000
1000
0000
0001
0000
,
0100
0010
1000
0001
,
0100
0000
0000
0001
0000
0000
0010
0000
,
1000
0001
0100
0001
,
0000
0010
0000
0000
0100
0000
0000
0001
,
0000
1000
0010
0000
,
2002
0000
3003
0000
,
2020
0000
3030
0000
,
0202
0000
0303
0000
,
0220
0000
0000
0330
,
1000
0001
1000
0000
,
0001
1000
0001
0000
,
0010
0100
0010
0000
,
0100
0000
0010
0000
0200
0000
0000
0300
,
0000
1001
0000
0000
0000
0000
0000
0000
,
0001
1000
0001
0000
,
0010
0000
1000
0001
,
0100
0000
0010
1000
,
0010
0100
0001
0001
,
0000
0010
0000
1000
,
0001
0100
0000
0010
,
0000
1000
0001
0100
,
0000
0010
0000
0100
,
0001
1000
0010
0100
,
0001
1000
0010
0100
,
0001
1000
0010
0100
,
0000
0001
0000
0000
0000
1000
0000
0000
,
0000
0001
0000
0000
0000
1000
0000
0000
,
0001
0100
0010
1000
,
0001
1000
0100
0000
0010
0001
1000
0100
,
2002
0000
0000
0000
0000
3003
0000
0000
;

//--------------- dance-single - XLev450X-DSP ----------------
#NOTES:
     dance-single:
     XLev450X:
     Medium:
     9:
     0,0,0,0,0:
0000
0000
0000
0000
,
0000
0000
0000
0000
,
1000
0001
0100
0010
,
1000
0100
0002
0003
,
0010
0001
1000
0010
,
0100
0001
0010
0000
,
1000
0010
0100
0001
,
1000
0010
0101
0000
,
0010
0000
1000
0000
,
0001
0000
0100
0000
0001
0100
0001
0000
,
0020
0030
2000
3000
,
0010
0100
2002
3003
,
0020
0030
0200
0300
,
0010
0000
1000
0000
0100
0001
0000
0100
,
0020
0030
2000
3000
,
0010
0001
0100
1000
0020
0000
0030
0000
,
2002
0000
0000
0000
,
0000
0000
0000
0000
,
0000
0000
0000
0000
,
0000
0000
0000
0000
,
0000
0000
0000
3003
0000
0000
0000
0000
,
0001
1000
0010
0000
0100
0000
0001
0000
,
1000
0010
0000
0100
,
0001
1000
0010
0100
,
0001
0000
1000
0000
0010
0100
0010
0000
,
0001
1000
0010
0100
,
0000
0001
0000
0010
,
1000
0010
0100
0001
,
0100
0001
0100
0000
0010
1000
0010
0000
,
0100
0001
0000
0010
,
0000
1000
0001
0100
,
0000
0010
1000
0001
,
0100
0000
0010
0000
0100
0010
0100
0000
,
0000
0001
1000
0001
,
0000
0100
0001
1000
,
0000
0010
0100
0001
,
1000
0010
0100
0001
,
1000
0000
0100
0000
0001
1000
0000
0100
,
0010
1000
0001
0100
,
0001
0100
1000
0000
0010
0000
0100
0000
,
0001
0100
1000
0000
0010
0000
0100
0000
,
0010
0001
0010
1000
,
0001
0100
0001
0000
1000
0010
1000
0000
,
0010
0000
1000
0000
0100
0000
0001
1000
,
0000
0001
0100
0000
2002
0000
3003
0000
,
2002
0000
0000
0000
3003
0000
0000
0220
0000
0000
0000
0000
0330
0000
0000
0000
,
2200
0000
0000
0000
3300
0000
0000
0022
0000
0000
0000
0000
0033
0000
0000
0000
,
0220
0000
0000
0000
0330
0000
0000
2002
0000
0000
0000
0000
3003
0000
0000
0000
,
2020
0000
0000
0000
3030
0000
0000
0202
0000
0000
0303
0000
0001
1000
0100
0010
,
0001
0000
1000
0000
0010
0100
0001
0000
,
1000
0000
0010
0000
1000
0010
0100
0001
,
1000
0000
0010
0000
0100
0001
0100
0000
,
0010
0000
0000
0000
0000
0000
1000
0000
0000
0000
0000
0000
0001
0000
0000
0100
0000
0000
0020
0000
0000
0000
0030
0000
,
0000
1001
0000
0000
0000
0000
0000
0000
,
0010
0000
0100
0000
0001
1000
0010
0000
,
0100
0000
0001
0000
1000
0000
0100
0001
,
0100
0000
0010
1000
0010
0000
0100
0000
,
0001
0000
0100
0000
0001
0100
0001
0000
,
1000
0000
0010
0000
1000
0000
0001
0100
,
0001
0000
1000
0000
0010
0000
1000
0010
,
0100
0000
0100
0001
0100
0000
0010
0000
,
1000
0001
0100
0010
,
1000
0010
1000
0000
0100
0001
0100
0000
,
0010
1000
0010
0000
0100
0001
0100
0000
,
0010
0001
1000
0100
0001
0010
0100
1000
,
0000
0010
0000
1000
0000
0001
0000
0100
,
0000
0001
0000
0010
0000
1000
0000
0010
,
0100
0001
1000
0010
,
0100
0001
1000
0010
0100
0001
1000
0010
,
0200
0000
0000
0000
0000
0300
0000
0000
;

//--------------- dance-single - XLev450X-ESP ----------------
#NOTES:
     dance-single:
     XLev450X:
     Hard:
     13:
     0,0,0,0,0:
0000
0000
0000
0000
,
0000
0000
0000
0000
,
0001
1000
0010
0100
0001
0010
1000
0010
,
0000
1000
0001
0000
1000
0000
0010
0000
,
0100
0001
1000
0010
0100
0000
0001
1000
,
0000
0001
0010
0000
0100
0001
1000
0000
,
0010
0100
0001
1000
0010
0000
0100
0001
,
0000
1000
0010
0000
0200
0000
0300
0000
,
0001
0000
1000
0000
0010
0100
0001
0000
,
1000
0000
0010
0000
0100
0001
1000
0010
,
0100
0000
0001
0000
1000
0010
0100
0001
,
1000
0010
0200
0300
,
0001
0000
1000
0000
0010
0001
0010
0000
,
0100
0000
1000
0000
0010
1000
0010
0000
,
0100
0000
0001
0000
1000
0010
0100
0000
,
0001
0000
0000
0000
1000
0000
0000
0000
0010
1000
0100
0000
0001
0010
0100
0000
,
2002
0000
0000
0000
,
0000
0000
0000
0000
,
0000
0000
0000
0000
,
0000
0000
0000
0000
,
0000
3003
0000
0000
,
0001
1000
0010
0100
0001
0000
1000
0000
,
0010
0000
0100
0001
1000
0000
0010
0000
,
0100
0000
0001
0000
1000
0010
0100
0001
,
1000
0010
0100
0000
0101
0000
1010
0000
,
0001
0100
0010
0000
1000
0000
0100
0001
,
1000
0010
0100
0000
0001
0000
0010
0001
,
0010
0000
0100
1000
0100
0010
0000
0100
,
0001
1000
0010
0100
0001
1000
0010
0000
,
0100
0000
0001
0000
1000
0010
0100
0000
,
0001
0000
1000
0000
0010
0000
0100
0001
,
1000
0000
0010
0000
1000
0000
0010
0100
,
0001
1000
0010
0000
1001
0000
0110
0000
,
0001
0000
1000
0000
0010
0000
0100
0001
,
1000
0000
0010
0000
0100
0000
0010
0001
,
0000
0000
0100
1000
0000
0000
0010
0100
,
0001
1000
0010
0100
0001
0000
1000
0000
,
0010
0000
0000
0100
0000
0000
0001
0000
,
1000
0000
0010
0100
0001
1000
0010
0000
,
0100
0000
0000
0001
0000
0000
0010
0000
,
1000
0001
0100
0010
1000
0001
0100
0000
,
0001
0000
0000
0100
0000
0000
0010
0000
,
1000
0010
1000
0100
0001
0100
0010
0000
,
1000
0000
0000
0001
0000
0000
0100
0000
,
0010
1000
0001
0100
0010
0000
0000
0000
,
2002
0000
0000
0000
3003
0000
0000
0202
0000
0000
0000
0000
0000
0303
0000
0000
,
2020
0000
0000
0000
3030
0000
0000
0220
0000
0000
0000
0000
0330
0000
0000
0000
,
0202
0000
0000
0000
0303
0000
0000
2002
0000
0000
0000
0000
3003
0000
0000
0000
,
0220
0000
0000
0000
0000
0000
0000
0000
0330
0000
0000
0000
0000
0000
2002
0000
0000
0000
0000
0000
3003
0000
0000
0000
0100
0000
1000
0000
0100
0010
0001
0100
,
0010
0000
1000
0000
0010
0000
0100
0000
0001
1000
0010
0100
0001
0000
1000
0000
,
0010
0000
0100
0000
0001
0000
0010
0000
0001
0000
0010
0000
0100
1000
0100
0001
,
0010
0000
0100
0000
0001
0000
1000
0000
0010
0100
0001
0000
1000
0000
0010
0000
,
0100
0000
0001
0000
1000
0000
0010
0001
0100
0000
0010
0100
2002
0000
0000
0000
,
3003
0100
0000
0010
1000
0000
0000
0000
,
0001
1000
0010
0100
0001
0000
1000
0000
,
0010
0100
0001
0000
1000
0000
0010
0000
,
0100
0001
1000
0000
0010
0100
0001
1000
,
0010
0100
0001
0000
1010
0000
0101
0000
,
0010
1000
0001
0000
0100
0000
0010
0001
,
0100
1000
0010
0100
,
0001
1000
0010
0000
0100
0000
0001
0000
,
1000
0010
0100
1000
,
0001
0100
0010
1000
0001
0100
0010
0001
,
1000
0001
0100
0010
1000
0001
1000
0100
,
0010
1000
0001
0100
0010
0001
1000
0100
,
0001
0100
0010
1000
,
0001
0100
0010
1000
,
0010
1000
0010
0100
,
0010
1000
0010
0000
0100
0000
0001
0100
0010
0000
0001
1000
0001
0000
0100
0010
,
0200
0000
0000
0000
0000
0300
0000
0000
;

//--------------- dance-single - XLev450X†-CSP ----------------
#NOTES:
     dance-single:
     XLev450X†:
     Challenge:
     15:
     0,0,0,0,0:
0000
0000
0000
0000
,
0000
0000
0000
0000
,
0010
0001
1000
0010
0100
0000
0001
1000
,
0000
0000
0010
0000
0100
0000
0000
0000
0010
1000
0001
0000
0010
0100
1000
0000
,
0010
0100
0001
1000
0010
0000
0100
1000
,
0000
0000
0010
0000
0100
0000
0000
0000
0100
0001
0100
0000
0001
0010
1000
0000
,
0010
1000
0010
1000
0010
0000
1000
0010
,
0000
0000
0100
0000
0010
0000
0000
0000
2002
0000
0000
0000
0000
3003
0000
0000
,
1000
0000
0000
0000
0010
0000
0000
0000
0100
0000
0001
0000
1000
0000
0000
0100
,
0010
0000
0100
0000
1000
0001
0100
0010
,
1000
0000
0000
0000
0001
0000
0000
0000
0010
0000
0001
0000
0010
0000
0000
0100
,
1000
0020
0100
0030
,
1000
0000
0001
0000
1000
0000
0001
0010
,
0001
0000
1000
0000
0010
0100
0001
1000
,
0010
1000
0010
0100
,
0010
0000
0000
0000
1000
0000
0000
0000
0001
1000
0100
0000
0010
0000
0001
0000
,
0200
0000
0000
0000
,
0000
0000
0000
0000
,
0000
0000
0000
0000
,
0000
0000
0000
0000
,
0300
0000
0000
0000
,
0001
0010
1000
0010
0100
1000
0001
0100
,
0010
1000
0001
0100
0010
1000
0001
0100
,
1000
0100
0010
1000
0001
0100
0010
1000
,
0001
0100
0010
0000
0101
0000
1010
0000
,
0010
1000
0010
1000
0001
0100
0010
1000
,
0001
0000
0100
0000
0010
0000
1000
0000
0001
1000
0100
0000
0010
0000
1000
0000
,
0001
0100
0010
1000
0001
0100
0010
0001
,
0010
1000
0001
0000
0010
0100
0001
0000
0010
1000
0001
0000
1000
0000
0010
0000
,
0100
0001
1000
0010
1000
0010
0100
1000
,
0001
0100
0010
1000
0001
1000
0010
1000
,
0010
0100
0001
1000
0010
0100
0001
1000
,
0010
0000
0001
0100
1000
0000
0001
0000
1010
0000
0000
0000
1010
0000
0000
0000
,
0001
0100
0010
1000
0001
0100
0010
1000
,
0001
0000
0100
0000
0010
0000
1000
0100
0001
0000
0100
0000
0010
0000
1000
0000
,
0001
0100
0010
1000
0001
0100
0010
1000
,
0001
1000
0100
0000
0010
0000
1000
0100
0001
0000
0000
0000
0010
0000
0001
0100
,
1000
0001
0000
1000
0010
0100
0000
1000
,
0000
0000
0010
0000
0100
0000
0000
0000
0001
0000
0010
1000
0001
0000
1000
0001
,
0010
0100
0001
0000
1000
0000
0010
1000
,
0000
0000
0010
0000
0100
0000
0000
0000
0001
1000
0010
0000
0001
0100
0010
0000
,
1000
0001
0100
0010
1000
0000
0001
1000
,
0000
0000
0010
0000
1000
0000
0000
0000
0010
1000
0100
0000
0001
0010
0100
0000
,
1000
0001
0100
0010
1000
0000
0001
0100
,
0000
0010
1000
0000
0220
0000
0330
0000
,
2002
0000
0000
3003
0000
0000
0000
0202
0000
0000
0000
0303
0000
0000
0000
0000
,
2020
0000
0000
3030
0000
0000
0000
0220
0000
0000
0000
0330
0000
0000
0000
0000
,
2200
0000
0000
3300
0000
0000
0000
0022
0000
0000
0000
0033
0000
0000
0000
0000
,
2002
0000
0000
0000
0000
0000
0000
0000
0000
3003
0000
0000
0000
0000
0000
0000
0000
0000
0000
0000
0000
2020
0000
0000
0000
0000
0000
0000
0000
0000
3030
0000
0000
0000
0000
0000
0001
0000
1000
0000
0010
0000
0100
0000
0001
0000
0010
0000
,
1000
0000
0001
0000
1000
0000
0010
0001
0010
0000
1000
0000
0010
0000
0100
0010
,
1000
0000
0010
0100
0010
0000
0001
0010
0001
0000
1000
0000
0001
0100
0010
1000
,
0001
0000
1000
0000
0010
1000
0010
0000
0100
0000
0001
0000
0010
0001
0010
0000
,
1000
0000
0010
0000
0100
0000
0010
1000
0000
0000
0010
0000
0100
0010
0200
0000
,
0300
0000
0000
0001
0000
0000
1000
0000
0000
0010
0000
0000
0000
0000
0000
0000
,
0001
0010
0001
1000
0010
0001
0100
0001
,
1000
0100
0010
1000
0001
0010
0001
0100
,
1000
0010
0100
0001
1000
0010
0100
1000
,
0001
0010
0100
0000
1000
0000
0010
0000
1001
0000
0000
0000
1001
0000
0000
0000
,
1000
0001
0010
1000
0001
1000
0010
0100
,
1000
0100
0001
0000
0100
0000
0001
0000
0010
0000
0100
0000
1000
0000
0001
0000
,
0010
1000
0001
1000
0010
0100
0001
0100
,
0010
1000
0001
0000
0010
0001
0100
0000
1000
0100
0001
0000
0010
0000
0100
0000
,
1000
0001
1000
0001
1000
0001
1000
0001
,
1000
0001
1000
0001
1000
0001
1000
0010
,
1000
0010
1000
0100
0001
0010
0100
1000
,
0000
0001
1000
0001
0100
1000
0001
0010
,
1000
0100
0001
0010
0100
1000
0100
0010
,
0001
0010
0100
0000
1000
0100
0010
0000
0001
1000
0100
0000
0010
0001
0010
0000
,
0001
0100
1000
0000
0010
0001
1000
0000
0001
0010
1000
0000
0010
1000
0001
0100
,
2000
0000
0000
0000
0000
3000
0000
0000
;
