#TITLE:Burning Flame;
#ARTIST:AJURIKA feat. SAK.;
#GENRE:HYPER TECHNO;
#MUSIC:Burning Flame.ogg;
#BANNER:Burning Flame.png;
#BACKGROUND:Burning Flame-bg.png;
#CDTITLE:./CDTitles/bm IIDX 28 BISTROVER.png;
#SAMPLESTART:56.159;
#SAMPLELENGTH:15;
#OFFSET:1.459;
#BPMS:0=165;
#BGCHANGES:3.6=Burning Flame.mp4=1.000=0=0=0=StretchNoLoop====,
99999.000=-nosongbg-=1.000=0=0=0=StretchNoLoop====;
#BGSTAGE:29;

//--------------- dance-single - XLev450X-bSP ----------------
#NOTES:
     dance-single:
     XLev450X:
     Beginner:
     3:
     0,0,0,0,0:
0000
0000
0000
0000
,
0000
0000
0000
0000
,
0000
0000
0000
0000
,
0000
0000
0000
0000
,
0000
0000
0000
0000
,
0000
0000
0000
0000
,
0001
0001
0001
0000
,
0010
0010
0010
0000
,
0100
0100
0100
0000
,
1000
1000
1000
0000
,
1000
0001
1000
0000
,
0001
1000
0001
0000
,
0010
0100
0010
0000
,
1001
0000
0000
0000
,
0010
0000
0010
0000
,
0010
0000
0000
0000
,
0001
0000
0001
0000
,
0001
0000
0000
0000
,
1000
0000
1000
0000
,
1000
0000
0000
0000
,
0100
0000
0100
0000
,
0100
0000
0000
0000
,
0001
0000
0010
0000
,
0001
0000
0000
0000
,
1000
0000
0100
0000
,
1000
0000
0000
0000
,
0010
0000
0100
0000
,
0010
0000
0000
0000
,
1000
0000
0001
0000
,
1000
0000
0000
0000
,
0001
0000
0000
0000
,
0010
0000
0000
0000
,
0100
0000
0000
0000
,
1000
0000
0000
0000
,
0100
0000
0000
0000
,
0010
0000
0000
0000
,
0001
0000
0000
0000
,
0010
0000
0000
0000
,
2002
0000
0000
0000
,
3003
0000
0000
0000
,
1000
1000
1000
0000
,
0010
0010
0100
0000
,
0001
0010
0001
0000
,
0100
0010
0100
0000
,
0001
0001
0000
0000
,
0010
0010
0000
0000
,
0100
0100
0000
0000
,
1000
1000
0000
0000
,
0010
0010
0010
0000
,
0100
0100
0001
0000
,
1000
0001
1000
0000
,
0010
0100
0010
0000
,
0010
0010
0001
0000
,
0001
0001
0100
0000
,
1000
1000
0001
0000
,
1001
0000
0000
0000
,
1000
0100
0001
0000
,
0010
0100
0010
0000
,
1000
1000
0010
0000
,
0100
0001
0010
0000
,
1000
0001
0010
0000
,
0010
0001
0010
0000
,
0100
0010
0100
0000
,
2002
0000
0000
3003
,
2002
0000
0000
0000
,
3003
0000
0000
0000
,
0220
0000
0000
0000
,
0330
0000
0000
0000
,
2002
0000
0000
0000
,
0000
0000
0000
0000
,
3003
0000
0000
0000
,
0000
0000
0000
0000
,
0001
0001
0000
0000
,
1000
1000
0000
0000
,
0100
0100
0000
0000
,
0010
0010
0000
0000
,
0001
0010
0001
0000
,
0100
1000
0100
0000
,
0010
0100
0010
0000
,
2002
0000
0000
0000
,
3003
0000
0000
0000
;

//--------------- dance-single - XLev450X-BSP ----------------
#NOTES:
     dance-single:
     XLev450X:
     Easy:
     6:
     0,0,0,0,0:
0000
0000
0000
0000
,
0000
0000
0000
0000
,
0000
0000
0000
0000
,
0000
0000
0000
0000
,
0000
0000
0000
0000
,
0000
0000
0000
0000
,
0001
1000
0010
0100
,
0010
0001
0010
0000
,
1000
0001
1000
0100
,
0001
0010
0100
0000
,
1000
0001
1000
0010
,
0100
0010
0001
0000
,
1000
0001
0100
0010
,
1001
0000
0000
0000
,
1000
0010
0100
0001
,
0010
1000
0001
0000
,
0010
0100
1000
0010
,
0100
0000
0001
0000
0010
0001
0010
0000
,
1000
0010
0100
1000
,
0001
1000
0010
0000
,
1000
0000
0100
0000
0010
0000
1000
0100
,
2000
0000
0000
3001
,
0010
0100
0001
0000
,
1000
0001
0100
0000
,
1000
0010
0100
0001
,
0010
0000
0100
0000
0010
0100
0010
0000
,
0001
1000
0001
0000
,
0010
1000
0010
0000
,
0100
1000
0001
0010
,
1000
0001
1000
0100
0002
0000
0013
0000
,
2000
0000
0010
0000
,
0010
0000
3010
0000
,
0002
0000
0100
0000
,
0100
0000
0103
0000
,
0001
1000
0001
0000
,
0010
0001
0010
0000
,
0100
1000
0001
1000
,
0001
1000
0001
0000
0010
1000
0010
0000
,
0220
0000
0000
0330
,
2002
0000
3003
0000
,
0000
0001
0000
1000
0000
0001
0000
1000
,
0000
0010
0000
0100
0000
0010
0000
0001
,
0010
1000
0100
1000
,
0001
0010
0202
0303
,
0001
0000
1000
0000
0010
1000
0010
0000
,
0001
0010
0100
0000
,
0010
1000
0001
0010
,
1000
0001
1000
0000
0022
0000
0033
0000
,
0000
1000
0000
0010
0000
0100
0000
0001
,
0000
0010
0000
1000
0000
0001
0000
1000
,
0001
0000
0010
0000
0010
0100
0010
0000
,
0001
0010
2000
3001
,
0001
1000
0010
0000
,
0100
0001
0010
1000
,
0001
1000
0001
0000
0010
1000
0010
0000
,
2002
0000
0000
3003
,
0001
1000
0010
0000
,
0100
0001
0010
1000
,
0100
0001
0010
0000
,
1000
0100
0010
1000
,
0001
0010
0100
0000
,
1000
0001
0010
1000
,
0100
0001
0010
0100
,
2002
0000
0000
3003
,
0002
0010
0013
0000
,
0020
0100
0130
0000
,
2000
0100
3100
0000
,
0002
1000
1003
0000
,
0002
0010
0010
0013
,
0200
0010
0010
0310
,
2000
0001
0001
3001
,
2002
0000
0000
3003
,
1000
0001
0010
0100
,
1000
0001
0020
0030
,
1000
0100
0001
0010
,
1000
0000
0001
0000
0010
0001
0010
0000
,
1000
0100
0001
1000
,
0010
0100
2000
3001
,
0001
1000
0010
0100
,
2002
0000
0000
0000
,
3003
0000
0000
0000
;

//--------------- dance-single - XLev450X-DSP ----------------
#NOTES:
     dance-single:
     XLev450X:
     Medium:
     11:
     0,0,0,0,0:
0000
0000
0000
0000
,
0000
0000
0000
0000
,
0000
0000
0000
0000
,
0000
0000
0000
0000
,
0000
0000
0000
0000
,
0000
0000
0000
0000
,
0001
0000
1000
0000
0010
0000
0001
0010
,
0001
0000
1000
0000
0010
0100
0010
0001
,
1000
0000
0001
0000
0010
0001
0010
0100
,
1000
0000
0001
0000
1000
0001
1000
0000
,
0010
0000
1000
0000
0010
0000
0001
0010
,
0001
0000
0100
0000
1000
0000
0001
1000
,
0001
0000
0010
1000
0010
0000
0100
0010
,
2002
0000
0000
3003
,
0001
0000
1000
0000
0010
0000
0100
0010
,
0100
0000
0001
0000
0001
0000
1000
0001
,
1000
0010
0010
0001
,
0010
0001
0010
0000
0010
0100
0010
0000
,
1000
0000
0100
0000
0001
0000
1000
0010
,
1000
0010
0001
0010
,
1000
0001
1000
0000
0010
1000
0010
0000
,
0100
0000
0000
0001
0000
0000
0010
0000
0000
1000
0000
0000
0010
0000
0000
0000
,
0001
0010
1000
0010
,
0001
0010
0001
0010
1000
0010
0100
0000
,
1000
0100
0001
0010
,
0100
0010
0100
0010
1000
0010
1000
0000
,
0001
0000
0010
0000
0001
0010
0001
0000
,
0010
0000
0100
0000
1000
0001
1000
0000
,
0010
1000
0100
0001
0010
0100
0010
0100
,
1000
0000
0001
0000
0010
0100
0010
0000
,
0001
0000
1000
0000
0001
0000
0010
0100
,
0010
0000
1000
0000
0010
0000
0001
0010
,
0001
0000
1000
0000
0100
0000
1000
0010
,
1000
0000
0010
0000
0100
0000
0001
0010
,
0001
0000
1000
0000
0100
0000
1000
0010
,
1000
0000
0010
0000
0001
0000
0100
0010
,
0100
0000
0001
0000
1000
0000
0001
0010
,
0001
0000
1000
0001
0010
0100
1000
0010
,
1000
0000
0000
0001
0000
0000
1000
0000
0000
0010
0000
0000
0100
0000
0010
0000
,
0100
0000
0000
0000
0010
0000
0000
0000
0001
0010
0001
0000
0100
1000
0100
0000
,
0000
0110
0000
0011
0000
1000
0010
0100
,
0000
1001
0000
0101
0000
0000
0010
1000
,
0010
0000
0100
0001
0100
0000
0001
0000
,
1000
0100
0010
0001
0010
0100
1000
0000
,
0010
0010
0010
0000
0100
0100
0100
0000
,
0001
1000
0100
1000
0001
0000
0100
0000
,
0010
0000
1000
0000
0001
0010
0100
0000
,
0010
0001
1000
0010
0000
0100
0001
1000
,
0000
1100
0000
0011
0000
0001
0100
0010
,
0000
0110
0000
1001
0000
1001
0000
0000
,
0010
0001
0010
0000
0100
1000
0100
0000
,
1000
0001
0100
0010
1000
0001
0010
0000
,
0100
0100
0100
0000
0010
0010
0010
0000
,
0001
1000
0010
0100
0000
0001
1000
0000
,
0001
0010
0001
1000
0010
0000
1000
0000
,
0100
0000
0010
0001
0000
1000
0010
0000
,
0001
0000
1000
0000
0010
0100
0010
0000
,
0001
0000
0010
0000
1000
1000
0010
0000
,
0100
0000
0001
0000
0010
0001
0010
0000
,
1000
0001
0101
0000
,
1000
0010
0100
1000
,
0001
0000
0010
0000
1000
0010
1000
0000
,
0010
0001
1000
0010
,
0100
0000
0000
0001
0000
0000
1000
0000
0000
0010
0000
0000
0100
0000
0001
0000
,
2000
0001
0001
3000
,
0001
0000
0000
0100
0000
0000
0020
0000
0000
0000
0000
0000
0130
0000
0000
0000
,
2002
0000
0000
3003
,
0001
0000
0000
1000
0000
0000
0002
0000
0000
0000
0000
0000
1003
0000
0000
0000
,
0002
0010
0010
0013
,
0200
1000
1000
1300
,
0020
0130
0200
0310
0020
0130
0200
0310
,
2002
0000
0000
3003
,
0001
0010
0001
1000
0010
0100
1000
0000
,
0001
0000
0010
0000
0100
0001
0010
0000
,
0101
0000
1010
0000
0010
0100
0010
0000
,
0001
0000
1000
0000
0001
0010
0001
0000
,
0101
1010
0110
1010
,
0001
0010
0001
0000
0100
1000
0100
0000
,
0001
0000
1000
0000
0001
1000
0001
0000
,
1000
0000
0000
0001
0000
0000
0100
0000
0000
0000
0010
0000
0200
0000
0000
0000
,
0300
0000
0000
0000
;

//--------------- dance-single - XLev450X-ESP ----------------
#NOTES:
     dance-single:
     XLev450X:
     Hard:
     15:
     0,0,0,0,0:
0000
0000
0000
0000
,
0000
0000
0000
0000
,
0000
0000
0000
0000
,
0000
0000
0000
0000
,
0000
0000
0000
0000
,
0000
0000
0000
0000
,
1000
0001
1000
0010
0100
1000
0010
0001
,
1000
0001
1000
0010
0100
0000
1001
0000
,
0010
0001
0010
0000
1000
0001
1000
0000
,
0010
0100
1000
0001
0010
1000
0001
0000
,
0010
0100
1000
0010
0100
1000
0001
0000
,
0010
0100
1000
0010
0100
0001
0010
0000
,
0001
1000
0010
0100
1000
0001
0010
1000
,
0001
0000
0000
0100
0000
0000
1000
0000
0000
0001
0000
0000
1000
0000
0001
0100
,
1000
0001
0100
0001
0010
0000
1001
0000
,
0001
1000
0100
1000
0010
0000
1001
0000
,
1000
0001
0010
0010
0001
1000
0010
1000
,
0100
0100
0100
0001
0010
0100
1000
0000
,
0010
1000
0001
1000
0100
0000
0110
0000
,
0010
0001
1000
0001
0100
0000
0110
0000
,
0001
1000
0100
0010
0100
1000
0010
0000
,
1001
0000
0000
1001
0000
0000
1000
0001
1000
0100
0001
0100
0001
0100
0001
1000
,
0001
1000
0010
0100
1000
0001
0010
1000
,
0010
0100
1000
0001
0010
0100
1000
0000
,
0010
0010
1000
0001
0100
1000
0001
0010
,
1000
0001
0010
0100
1000
0001
0101
0000
,
0001
1000
1010
0000
0010
0100
0110
0000
,
0001
0010
0011
0000
0001
0100
1001
0000
,
0010
1000
0010
0100
1000
0001
0010
1000
,
0001
0000
0000
0100
0000
0000
1000
0000
0000
0001
0000
0000
1000
0000
0001
0000
,
1000
0000
0001
0000
0010
1000
0010
0100
,
1000
0000
0001
0000
0010
0100
1000
0001
,
0010
0000
0001
0000
0001
1000
0001
1000
,
0010
1000
0010
0100
1000
0001
0010
1000
,
0001
0000
0000
0000
0100
0000
0000
0000
1000
0000
0001
0000
1000
0000
0001
0010
,
1000
0000
0000
0000
0001
0000
0000
0000
1000
0000
0010
0000
1000
0000
0001
0010
,
0001
0000
1000
0000
0001
0010
0100
0000
,
1000
0001
1000
0010
0100
0000
0001
0000
,
0011
0000
0000
1100
0000
0000
0110
0000
0000
1001
0000
0000
0010
0000
1000
0000
,
0001
0100
1000
0001
,
0010
1000
0010
0100
0001
0010
1000
0001
,
0100
1000
0010
1000
0001
0010
1000
0000
,
0001
0010
0001
0010
0001
1000
0010
0100
,
1000
0000
0001
0000
0010
0000
1000
0000
0001
0000
1000
0001
1000
0000
0010
1000
,
0010
0001
1000
0010
0100
1000
0001
0010
,
0001
0010
1000
0010
0100
1000
0001
0010
,
0100
1000
0010
0100
0001
0010
1000
0100
,
0001
0010
0100
1000
0001
0010
0100
1000
0001
0010
0100
1000
0001
1000
0001
1000
,
0100
0000
0010
0000
1000
0000
0100
0000
1000
0010
1000
0000
0001
0100
0001
0000
,
0010
0000
0100
0000
0010
0000
0001
0000
1000
0100
1000
0000
0001
0010
0001
0000
,
1000
0010
1000
0000
0001
0000
0100
0000
0001
0010
0001
0000
1000
0000
0100
0000
,
1000
0000
0010
0000
0001
0000
0010
0000
1000
0010
0100
0001
1000
0000
0001
0000
,
0011
0001
0101
0101
1010
1000
1100
1100
,
0001
0010
1000
0010
0100
0100
1001
0000
,
1000
0010
1000
0010
0100
0000
0001
0000
0001
0010
0001
0010
0100
0000
1000
0000
,
0010
0000
1000
0001
1000
0010
0100
0000
0001
0010
0001
0010
0100
1000
0100
1000
,
0001
1000
0010
0100
1000
0001
0010
0000
,
0010
1000
0100
1000
0001
0010
0101
0000
,
0001
0010
0100
1000
0001
0010
1000
0000
,
0010
1000
0100
0010
0001
0010
0101
0000
,
0010
1000
0010
0100
1000
0001
0010
0000
,
1000
0100
1000
0001
0010
1000
1010
0000
,
0010
0100
1000
0001
0010
0100
1000
0001
,
0010
0000
0000
1000
0000
0000
0001
0000
0000
0100
0000
0000
1000
0000
0001
0000
,
2000
0000
0010
0000
0010
0000
3010
0100
,
0020
0000
0000
0100
0000
0000
0100
0000
0000
0000
0000
0000
0130
0000
0000
0000
,
0002
0000
1000
0000
1000
0000
1003
0001
,
2000
0000
0000
0001
0000
0000
0001
0000
0000
0000
0000
0000
3001
0000
0000
0000
,
0100
0010
0100
0010
0001
1000
0100
0010
,
0100
1000
0100
1000
0001
0010
0100
1000
,
0010
0100
0010
1000
0100
1000
0100
1000
0100
0010
0001
0100
0001
1000
0010
0100
,
0001
0000
0000
1000
0000
0000
0001
0000
0000
0000
0010
0000
0100
0000
0010
0000
,
0100
0001
0100
0110
0000
1000
0001
1000
,
0010
0001
0010
0110
0000
0010
0100
0000
,
1001
0000
0001
0010
0001
0100
0010
1000
,
0100
0000
0001
0000
0100
0000
1000
0000
0001
0010
0001
0010
0100
0000
0000
0000
,
1010
1001
0011
1001
,
1000
0010
0001
0010
0100
0001
1000
0000
,
0100
0000
0100
0000
1000
0000
1000
0000
0010
0000
0010
0000
1000
0001
1000
0001
,
1000
0000
0000
0110
0000
0100
2002
0000
,
3003
0000
0000
0000
;
