#TITLE:Break For Me;
#ARTIST:James Landino ft. Noelle;
#GENRE:LOUNGE;
#MUSIC:Break For Me.ogg;
#BANNER:Break For Me.png;
#BACKGROUND:Break For Me-bg.png;
#SAMPLESTART:23.009;
#SAMPLELENGTH:15;
#OFFSET:-0.140;
#BPMS:0=125.934
,145.25=251.868
,146.75=125.934
,148=251.868
,149.5=125.934
,154.75=251.868
,156.25=125.934
,157.5=251.868
,159=125.934
,164.25=251.868
,165.75=125.934
,167=251.868
,168.5=125.934;
#BGSTAGE:30;
#DISPLAYBPM:125:251;

//--------------- dance-single - XLev450X-bSP ----------------
#NOTES:
     dance-single:
     XLev450X:
     Beginner:
     4:
     0,0,0,0,0:
0000
0000
0000
0000
,
0000
0000
0000
0000
,
0000
0000
0000
0000
,
0000
0000
0000
0000
,
0001
0001
0001
0000
,
1000
1000
1000
0000
,
0010
0100
0010
0000
,
1001
0000
0000
0000
,
0100
1000
0100
0010
,
0001
0000
1000
0000
,
0010
0100
0001
1000
,
0110
0000
1100
0000
,
0010
0010
0010
1000
,
0100
0100
0100
0001
,
0010
1000
0010
0000
,
0100
0001
0100
0000
,
0010
1000
0100
0001
,
0010
0100
1000
0001
,
0110
0000
1001
0000
,
0101
0000
1010
0000
,
0010
0000
1000
0000
,
0001
0000
0000
0000
,
0010
0000
0100
0000
,
1000
0000
0000
0000
,
0001
0000
1000
0000
,
0001
0000
0000
0000
,
0010
0000
0100
0000
,
0010
0000
0000
0000
,
0010
0010
0010
0000
,
1000
1000
1000
0001
,
0100
0100
0100
0000
,
0010
1000
0001
0000
,
0100
0010
1000
0000
,
0100
0001
1000
0000
,
0010
0100
0001
0000
,
1000
0010
0100
0001
,
1001
0000
0000
0000
0000
0000
0000
0000
0000
0000
0000
0110
0000
0000
0000
0000
,
0000
0000
0000
1001
0000
1000
0000
1000
,
0000
0000
0000
0101
0000
0000
0000
0000
,
0000
1010
0000
0000
0000
0000
0000
0000
0000
0000
0000
0000
0001
0000
0000
0000
,
0001
0001
0000
1001
,
0000
0000
0000
0000
0000
0000
0000
0110
0000
0000
0000
0000
0000
0000
0000
0000
,
0000
1010
0000
0010
0000
0010
0000
0000
,
0000
0001
0000
1000
0000
0010
0000
0100
,
0000
1001
0000
0000
0000
0000
0000
0000
;

//--------------- dance-single - XLev450X-BSP ----------------
#NOTES:
     dance-single:
     XLev450X:
     Easy:
     6:
     0,0,0,0,0:
0000
0000
0000
0000
,
0000
0000
0000
0000
,
0000
0000
0000
0000
,
0000
0000
0000
0000
,
0001
1000
0010
0100
,
0001
1000
0010
0000
,
0100
0001
1000
0000
,
0010
0100
0001
1000
,
0010
0000
0100
0001
,
1000
0000
0010
0100
,
0001
1000
0010
0100
,
0001
1000
0010
0000
,
1001
1100
1010
0101
,
0010
1000
0001
0100
,
0001
1000
0010
0100
,
0002
0003
2000
3000
,
0010
0100
0001
1000
,
0010
0000
0100
0000
0002
0000
0000
0003
,
2000
0000
0000
0000
0000
3000
0000
0000
0020
0000
0000
0000
0030
0000
0000
0000
,
0002
0000
0003
0000
0200
0000
0000
0300
,
0010
1000
0001
0100
,
0010
0000
1000
0000
,
0001
1000
0010
0100
,
0001
1000
0010
0000
,
0100
0001
1000
0010
,
0100
0000
0001
0000
,
1000
0010
0100
0001
,
1000
0000
0010
0000
,
1000
0000
0010
0000
0100
0000
2002
3003
,
0010
0100
0001
1000
,
0010
0000
0100
0000
0202
0303
2020
3030
,
1000
0010
0100
0001
,
1000
0000
0010
0000
0100
0000
2020
3030
,
0100
0001
1000
0010
,
0100
0000
0001
0000
0202
0303
2020
3030
,
0010
0100
0001
1000
,
0020
0000
0000
0030
0000
2000
0000
0000
0000
3000
0000
0002
0000
0000
0003
0000
,
0020
0000
0030
1000
0000
0010
0000
2000
,
0000
0000
0000
0000
3000
0000
0002
0000
0000
0003
0000
0200
0000
0000
0000
0300
,
0000
0020
0000
0000
0030
0000
0002
0000
0000
0000
0003
0000
0010
0000
0000
0000
,
1000
0000
0010
0000
0100
0000
0002
0003
,
0000
0002
0000
0000
0000
0003
0000
2000
0000
0000
3000
0000
0020
0000
0000
0000
,
0030
0100
0000
0010
0000
2000
0000
3000
,
0000
0001
0000
1000
0000
0010
0000
0100
,
0000
2002
0000
0000
0000
0000
0000
0000
,
0000
3003
0000
0000
0000
0000
0000
0000
0000
0000
0000
0000
0000
0000
0000
0000
;

//--------------- dance-single - XLev450X-DSP ----------------
#NOTES:
     dance-single:
     XLev450X:
     Medium:
     9:
     0,0,0,0,0:
0000
0000
0000
0000
,
0000
0000
0000
0000
,
0000
0000
0000
0000
,
0000
0000
0000
0000
,
0001
1000
0010
0000
0100
0000
0001
0000
,
1000
0010
0100
0000
0001
1000
0000
0010
,
0100
0001
1000
0010
,
0100
0001
1000
0010
0100
0000
0011
0000
,
1000
0010
0100
0101
,
1000
0000
0010
0000
0100
0001
1000
0000
,
0010
0100
0001
1000
,
0010
0000
1000
0000
0010
0000
0000
0000
0100
0000
0000
0010
0000
0000
0100
0000
,
0001
0100
0001
0000
1000
0010
1000
0000
,
0010
0000
0100
0000
0010
0000
0100
0000
0001
0000
0010
0100
0000
1000
0000
0000
,
0010
0000
0100
0001
1000
0000
0110
0000
,
0100
0001
1000
0010
0100
0000
1001
0000
,
1000
0010
1000
0000
0100
0000
0001
0000
,
1000
0000
0010
0000
0100
0000
0001
0000
1000
0000
0100
0001
0000
0010
0000
0000
,
0100
0000
0000
1001
0000
0000
0000
0100
,
0010
0000
0000
1010
0000
0010
0100
0000
,
0010
0100
0001
0000
1000
0010
0100
0000
,
0001
0000
0000
0000
1000
0000
0000
0000
0010
0000
0100
0000
0000
0001
0000
0000
,
0010
0000
0100
0000
0001
1000
0010
0000
,
0100
0001
1000
0010
,
0100
0001
1000
0010
,
0100
0000
0000
0000
0001
0000
0000
0000
1000
0000
0010
0000
0000
0100
0000
0000
,
0001
0000
1000
0000
0010
0100
0001
0000
,
1000
0010
0100
0001
,
1000
0000
0100
0000
0001
0000
0000
0000
0100
0000
1000
0010
0001
0000
0000
0000
,
0010
0000
1000
0000
0001
0000
0100
0000
0010
0000
0000
0100
0000
0010
0100
0000
,
0001
0000
0100
0000
0010
0000
0000
0000
1000
0100
0000
0010
0001
0000
0000
0000
,
0100
0000
0010
0000
1000
0000
0001
0000
0100
0000
0000
1000
0000
0001
0000
0000
,
1000
0000
0001
0000
0100
0000
0000
0000
0010
0000
1000
0100
0001
0000
0000
0000
,
0001
1000
0010
0100
0001
0000
1000
0001
,
0100
0000
0010
0000
1000
0001
0100
0010
,
1000
0000
0001
0000
0100
0010
1000
0000
,
0010
0100
0000
0001
0000
0000
0000
0000
0000
0000
0000
0001
0100
0000
0010
0000
,
0000
0000
0000
0000
0000
0000
1000
0000
0010
0000
0100
0000
0001
0000
1000
0100
,
0000
0010
0000
0100
0000
0000
0100
0010
0000
0001
0000
0000
0000
0000
0000
0000
,
0000
1000
0000
0100
0010
0000
0000
0000
0000
0000
0000
0000
1000
0000
0001
0000
,
0100
0000
0010
0000
1000
0100
0000
0010
0000
0001
0000
0000
0100
0000
0010
0100
,
0000
0000
0000
0000
0000
0000
0000
1000
0000
0100
0001
0000
0000
0000
0000
0000
,
0000
0000
0001
0000
0100
0000
0010
0000
1000
0000
0001
0010
0000
1000
0000
0010
,
0000
0000
0010
1000
0001
0000
0100
0010
,
1000
0002
0000
0000
0000
0000
0000
0000
,
0003
0000
0000
0000
;

//--------------- dance-single - XLev450X-ESP ----------------
#NOTES:
     dance-single:
     XLev450X:
     Hard:
     14:
     0,0,0,0,0:
0000
0000
0000
0000
,
0000
0000
0000
0000
,
0000
0000
0000
0000
,
0000
0000
0000
0000
,
0100
1000
0001
0100
0010
0100
0010
0000
,
0001
0000
0010
0000
0001
0000
0010
0000
0001
0000
1000
0010
0000
0100
0000
0010
,
0001
0010
0001
1000
,
0001
1000
0010
0000
0100
0000
1000
0000
0100
0000
0010
1000
0000
0100
0000
0000
,
0001
0010
0001
0010
0001
0100
0010
0000
,
0001
0000
0010
1000
0000
0000
1000
0000
0001
0000
0100
0000
0010
0000
1000
0000
,
0100
0100
0001
0100
,
0001
0010
0100
0000
0001
0000
0010
0000
0001
0000
0010
1000
0000
0010
0000
0000
,
0010
0000
1000
0000
0100
0000
0001
0000
0010
0000
1000
0001
0100
0000
0000
0000
,
0010
0000
0100
0000
0001
0000
0100
0000
0010
0000
0100
0010
0000
0001
0000
0000
,
0010
0000
0100
1000
0001
0000
0100
0001
0010
0000
1000
0001
0000
0100
0000
0000
,
0100
0000
0001
1000
0000
0010
0000
1000
0010
0000
0100
0001
0010
0100
1000
0000
,
0100
0000
1000
0000
0100
0000
1000
0000
0010
0000
0000
0100
0000
0001
1000
0001
,
0100
0000
1000
0000
0100
0000
0010
0000
0100
0000
0010
0100
0000
0001
0000
0000
,
0001
0000
0100
0010
0000
0000
0100
0000
1000
0010
0000
0000
0000
0000
1000
0000
,
0100
0000
0010
0001
0000
0000
1000
0000
0010
0001
0100
0000
0002
0000
0000
0003
,
0010
0000
0100
0000
0001
0000
0010
0000
0100
0000
0010
0001
0100
0000
1000
0000
,
0010
0000
1000
0000
0001
0000
0010
0000
0001
0000
0010
1000
0000
0100
0000
0000
,
0001
0000
1000
0000
0100
0000
1000
0000
0100
0010
0100
0010
0001
0000
1000
0000
,
0001
1000
0100
1000
0001
0100
0011
0000
,
0100
0000
0010
0000
0001
0000
1000
0000
0001
0000
0100
1000
0010
0000
1000
0000
,
0010
0000
0100
0000
0001
0000
1000
0000
0001
0000
1000
0001
0000
1000
0000
0000
,
0001
0000
1000
0000
0001
0000
0010
0000
0010
1000
0001
0010
0001
0000
0010
0000
,
0100
1000
0001
1000
0100
0010
0101
0000
,
0001
0000
0100
1000
0100
0000
0001
0010
0001
0000
0010
0100
0020
0000
0030
0000
,
0100
0000
0100
1000
0001
0000
0100
0010
0001
0000
0001
0100
0000
1000
0000
0000
,
0010
0000
0010
0100
0001
0000
0010
0001
0000
1000
0100
0010
0001
1000
0001
0010
,
0100
0000
0100
1000
0100
0000
0001
0010
0100
0000
0100
1000
0000
0010
0000
0000
,
0010
0000
0001
1000
0010
0000
0010
0100
0001
0000
0010
1000
0020
0000
0030
0000
,
0100
0000
0100
1000
0010
0000
0001
0100
0010
0000
0001
1000
0000
0100
0000
0000
,
0010
0000
0010
0100
0010
0000
0001
0100
0000
0100
0010
0100
0001
1000
0100
0010
,
0100
0000
0100
1000
0100
0000
0001
0010
0001
0000
0100
1000
0000
0100
0000
0000
,
1000
0000
0001
0100
0000
1001
0000
0000
0000
0000
0000
0001
0000
0100
0010
0000
,
0110
0000
0000
0000
0000
0000
0010
0100
0010
0100
0001
1000
0001
0010
0000
0100
,
0000
0100
0010
1000
0000
0000
1000
0000
0001
0010
0000
1010
0000
0000
0000
0000
,
0000
1000
0000
0100
0001
0000
0101
0000
0000
0000
0000
0000
0001
0010
0100
1000
,
0010
0100
0010
0100
0000
1000
0000
1000
0100
1000
0000
0000
0001
0000
1000
0100
,
0000
1100
0000
0000
0000
0000
0000
0001
0000
0100
0010
0000
0011
0000
0000
0000
,
0000
0000
0100
0010
0001
1000
0001
0010
0001
1000
0000
0100
0000
1000
0001
0010
,
0001
0000
0000
0000
0100
0010
1000
0001
0100
0001
0000
0010
0000
0001
0010
0100
,
1000
0100
0001
0000
1000
0000
0010
0000
1000
0000
0001
0000
0010
0000
0100
0000
,
1000
0000
0000
0000
;

//--------------- dance-single - XLev450X-CSP ----------------
#NOTES:
     dance-single:
     XLev450X:
     Challenge:
     17:
     0,0,0,0,0:
0000
0000
0000
0000
,
0000
0000
0000
0000
,
0000
0000
0000
0000
,
0000
0000
0000
0000
,
0100
1000
0001
0100
0010
0100
0010
0000
,
0001
0000
0010
0000
0001
0000
0010
0000
0001
0000
1000
0010
0000
0100
0000
0010
,
0001
0010
0001
1000
,
0001
1000
0010
0000
0100
0000
1000
0000
0100
0000
0010
1000
0000
0100
0000
0000
,
0001
0010
0001
0010
0001
0100
0010
0000
,
0001
0000
0010
1000
0000
0000
1000
0000
0001
0000
0100
0000
0010
0000
1000
0000
,
0100
0100
0001
0100
,
0001
0010
0100
0000
0001
0000
0010
0000
0001
0000
0010
1000
0000
0010
0000
0000
,
0100
1000
0010
0100
0010
1000
0010
0100
0001
1000
0010
0100
0010
0100
0001
0100
,
0001
0010
0100
0010
0100
1000
0001
0100
0001
0010
0000
0100
0000
0010
0000
0000
,
0001
0010
0001
0100
0001
1000
0100
1000
0010
1000
0001
0100
0001
1000
0100
1000
,
0001
0010
0100
0010
0001
0100
0010
1000
0001
1000
0001
1000
0010
0100
0001
0100
,
0001
0000
0000
1000
0000
0000
0100
0000
0000
0010
0000
0000
0100
0000
0000
1000
0000
0000
0100
0000
0010
0000
0100
0000
1000
0000
0000
0010
0000
0000
0001
0000
0000
1000
0000
0000
0010
0000
0000
1000
0000
0000
0010
0000
0000
1000
0000
0000
,
0001
0100
0010
0100
0001
1000
0001
0010
0001
0100
0000
1000
0000
0100
0000
0000
,
0001
0000
0000
1000
0000
0000
0001
0000
0000
0010
0000
0000
0001
0000
0000
0010
0000
0000
0100
0000
0010
0000
0001
0000
0010
0000
0000
1000
0000
0000
0010
0000
0000
0100
0000
0000
0010
0000
0000
1000
0000
0000
0001
0000
1000
0000
0100
0000
,
0001
0000
0000
0010
0000
0000
0001
0000
0000
0010
0000
0000
0100
0000
0000
0010
0000
0000
1000
0000
0100
0000
1000
0000
0001
0000
0000
1000
0000
0000
0001
0000
0000
0100
0000
0000
0010
0000
0000
0100
0000
0000
0001
0000
0000
1000
0000
0000
,
0010
0000
0100
0000
0001
0000
0010
0000
0100
0000
0010
0001
0100
0000
1000
0000
,
0010
0000
1000
0000
0001
0000
0010
0000
0001
0000
0010
1000
0000
0100
0000
0000
,
0001
0000
1000
0000
0100
0000
1000
0000
0100
0010
0100
0010
0001
0000
1000
0000
,
0001
1000
0100
1000
0001
0100
0011
0000
,
0100
0000
0010
0000
0001
0000
1000
0000
0001
0000
0100
1000
0010
0000
1000
0000
,
0010
0000
0100
0000
0001
0000
1000
0000
0001
0000
1000
0001
0000
1000
0000
0000
,
0001
0000
1000
0000
0001
0000
0010
0000
0010
1000
0001
0010
0001
0000
0010
0000
,
0100
1000
0001
1000
0100
0010
0101
0000
,
0001
0010
0001
0010
0001
0100
0010
1000
0010
0100
0001
0010
0100
0000
0000
0000
,
0010
1000
0001
0010
0001
0010
0001
0100
0010
0100
0000
0010
0000
0010
0001
0000
,
0001
0010
0100
1000
0001
1000
0100
0010
0000
0010
0001
1000
0001
1000
0001
0100
,
0010
0000
0100
1000
0100
0000
0001
0010
0100
0000
0010
1000
0000
0010
0000
0000
,
0010
1000
0100
1000
0001
1000
0001
0100
0010
0100
0001
0010
0100
0000
0000
0000
,
0001
0100
0001
1000
0010
0100
0001
0100
0010
0100
0000
0010
0000
0100
0010
0000
,
0001
0000
0010
1000
0001
0000
0100
0010
0001
0100
0001
0010
0100
1000
0010
0000
,
0100
0010
0001
0010
0001
1000
0001
0100
0010
1000
0000
0100
0000
0100
0001
0000
,
1000
0100
0010
0001
0000
0000
0000
0000
0000
0000
0000
0100
1000
0001
0010
0000
,
0000
0000
0000
0000
0000
0000
0001
0100
0001
0010
0100
1000
0010
1000
0000
0100
,
0000
0010
0000
1000
0001
0000
0100
1000
0010
1000
0000
0000
0000
0000
0000
0000
,
0000
0100
0010
0001
0100
0000
0000
0000
0000
0000
0000
0000
0010
0100
0010
0100
,
0001
0100
0010
1000
0000
0010
0000
1000
0000
0100
0001
0000
0010
1000
0001
1000
,
0000
0000
0000
0000
0000
0000
0000
0100
0010
0001
0100
0000
0000
0000
0000
0000
,
0000
0000
0100
1000
0001
0100
0001
1000
0001
1000
0000
1000
0000
0010
0000
0010
,
0100
0000
0000
0000
0010
0001
0010
0001
1000
0001
0000
0010
0000
0001
0100
0010
,
0100
0001
0010
0000
1000
0000
0010
0000
1000
0000
0001
0000
0100
0000
0010
0000
,
1000
0000
0000
0000
;
