#TITLE:Brazilian Phonk Mano;
#ARTIST:Slowboy & lucaf. & Crazy Mano;
#GENRE:AGGRESSIVE FUNK;
#MUSIC:Brazilian Phonk Mano.ogg;
#BANNER:Brazilian Phonk Mano.png;
#BACKGROUND:Brazilian Phonk Mano-bg.png;
#SAMPLESTART:51.72;
#SAMPLELENGTH:15;
#OFFSET:-0.028;
#BPMS:0=130;
#BGSTAGE:29;

//--------------- dance-single - XLev450X-bSP ----------------
#NOTES:
     dance-single:
     XLev450X:
     Beginner:
     3:
     0,0,0,0,0:
0000
0000
0000
0000
,
0000
0000
0000
0000
,
0001
0000
0000
0000
,
1000
0000
0000
0000
,
0010
0000
0000
0000
,
0100
0000
0000
0000
,
0001
0000
1000
0000
,
0010
0000
0010
0000
,
0001
0000
0100
0000
,
0001
0000
1000
0000
,
0001
0000
0100
0000
,
0010
0000
0001
0000
,
0010
0000
1000
0000
,
0001
0000
0100
0000
,
0010
0000
0001
0000
,
1000
0000
0010
0000
,
0001
0001
0001
0000
,
1000
1000
0010
0000
,
0100
0100
0001
0000
,
1000
1000
0010
0000
,
0100
0001
1000
0000
,
0100
0010
0001
0000
,
1000
0010
0100
0000
,
0001
1000
0010
0000
,
2002
0000
0000
0000
,
0000
0000
0000
0000
,
0000
0000
0000
0000
,
0000
0000
0000
0000
0000
0000
0000
3003
,
0001
0001
1000
0000
,
0100
0001
0010
0000
,
0010
0010
0100
0000
,
1000
0100
0001
0000
,
0010
0001
0100
0000
,
0001
1000
0010
0000
,
0100
1000
0010
0000
,
0100
0001
0010
0000
,
1000
1000
0001
0000
,
0001
0100
0010
0000
,
0001
0100
0010
0000
,
1000
0010
0001
0000
,
0100
0001
0010
0000
,
1000
0100
0001
0000
,
0010
0100
0001
0000
,
1000
0010
0100
0000
,
2002
0000
0000
0000
,
0000
0000
0000
0000
0000
0000
0000
0000
0000
0000
0000
3003
0000
0000
0000
0000
;

//--------------- dance-single - XLev450X-BSP ----------------
#NOTES:
     dance-single:
     XLev450X:
     Easy:
     6:
     0,0,0,0,0:
0000
0000
0000
0000
,
0000
0000
0000
0000
,
0001
1000
0010
0000
,
0100
0001
0010
0000
,
0100
0001
1000
0000
,
0010
0100
0001
0000
,
1000
0001
0010
0100
,
0202
0303
2020
3030
0220
0330
2002
3003
,
0010
0010
0100
0001
,
1000
0000
0010
0000
0100
0001
1000
0000
,
0010
0100
0001
1000
,
0010
0000
0100
0000
0010
0001
1000
0000
,
0010
0100
0001
0000
,
1000
0010
0100
0000
,
0001
0010
1000
0000
,
0100
0000
0010
0000
1000
0000
0001
0100
,
0010
1000
0001
0100
,
0010
0000
0001
1000
,
0010
0000
0100
0000
0001
1000
0010
0000
,
0100
0000
0001
0000
2002
0000
0000
3003
,
0010
0000
0100
0000
0001
1000
0010
0000
,
0100
0000
0001
0000
0010
0001
1000
0000
,
0010
0000
0100
0000
0010
1000
0001
0000
,
0100
0000
0010
0000
1000
0001
0010
0100
,
2002
0000
3003
0202
,
0000
0000
0303
2020
,
0000
0000
3030
0220
,
0000
0000
0000
0000
0000
0000
0000
0330
,
0001
0000
1000
0000
0010
0100
0001
0000
,
1000
0000
0010
0000
0100
0001
1000
0010
,
0100
0000
0001
0000
0010
1000
0001
0100
,
0010
0000
0001
0000
0010
0001
1000
0000
,
0010
0000
0100
0000
0001
1000
0010
0000
,
0100
0000
0001
0000
0010
1000
0001
0000
,
0100
0000
0010
0000
1000
0001
0100
0000
,
0010
0000
1000
0000
0220
0000
0000
0330
,
0001
0000
1000
0000
0010
0100
1000
0001
,
0100
0000
0010
0000
1000
0000
0010
0100
,
0001
0000
0010
0000
1000
0100
0001
0010
,
1000
0000
0001
0000
0100
0010
1000
0000
,
0001
0000
0100
0000
0010
0001
1000
0000
,
0010
0000
0100
0000
0001
1000
0010
0100
,
0001
0000
1000
0000
0010
0100
0001
0000
,
1000
0000
0010
0000
0100
0001
1000
0010
,
0200
0000
0000
0000
,
0000
0000
0000
0000
0000
0000
0000
0000
0000
0000
0000
0300
0000
0000
0000
0000
;

//--------------- dance-single - XLev450X-DSP ----------------
#NOTES:
     dance-single:
     XLev450X:
     Medium:
     10:
     0,0,0,0,0:
0000
0000
0000
0000
,
0000
0000
0000
0000
,
0001
0000
0000
1000
0000
0000
0000
0000
0010
0000
0000
0000
0100
0000
0000
0000
,
0001
0000
0000
0010
1000
0000
0000
0000
0010
0000
0000
0000
0100
0000
0000
0000
,
0001
0000
0000
0010
0000
0000
0000
0000
1000
0000
0000
0000
0010
0000
0000
0000
,
0100
0000
0000
0001
0000
0000
0000
0000
1000
0000
0000
0000
0001
0010
0000
0000
,
0100
1000
0001
1000
0010
0001
0100
1000
,
0011
1010
0110
0101
,
0001
0100
0010
0000
1000
0010
0100
0000
,
0001
0000
1000
0000
0010
0100
0001
0000
,
0001
1000
0010
0100
,
0001
0000
1000
0000
0010
0100
0001
0000
,
0010
1000
0100
0000
,
0001
1000
0010
0000
,
0100
0000
0001
0000
1000
0010
0100
0000
,
0001
1000
0101
0000
,
0001
0000
1000
0000
0010
0100
0001
0000
,
1000
0000
0010
0000
0100
1000
0100
0000
,
0001
0000
0010
0000
0100
0001
1000
0000
,
0010
0100
0110
0000
,
0001
0000
1000
0000
0010
0100
0001
0000
,
0010
0000
1000
0000
0100
0001
1000
0000
,
0010
0000
0100
0000
0010
1000
0001
0000
,
0100
0000
0010
0000
1000
0001
0100
0000
,
1000
0000
0000
0000
0001
0000
0000
0100
0000
0000
0010
0000
1000
0000
0000
0000
,
0001
0000
0000
0000
0100
0000
0000
0010
0000
0000
0001
0000
1000
0000
0000
0000
,
0010
0000
0000
0000
0100
0000
0000
0001
0000
0000
1000
0000
0010
0000
0000
0000
,
0100
0000
0000
0000
0001
0000
0000
1000
0000
0000
0010
0000
0100
0000
0001
0000
,
0010
0000
1000
0000
0001
0100
0010
1000
,
0001
0000
0000
0000
0100
0000
0000
0000
0010
0000
0000
1000
0000
0000
0010
0000
,
0100
0000
0001
0000
0010
0100
0001
1000
,
0010
0000
0000
0000
0100
0000
0000
0000
0010
0000
0000
0001
0000
0000
1000
0000
,
0010
0000
0100
0000
0001
1000
0010
0100
,
0001
0000
0000
0000
1000
0000
0000
0000
0010
0000
0000
0100
0000
0000
0001
0000
,
1000
0000
0010
0000
0100
0001
1000
0000
,
0010
0000
0100
0000
0001
1000
0010
0100
,
0001
0000
0000
0000
1000
0000
0000
0000
0010
0000
0000
0100
0000
0000
0001
0000
,
1000
0000
0000
0000
0010
0000
0100
0000
0001
0000
0000
1000
0000
0000
0010
0000
,
0100
0000
0001
0000
0100
0010
1000
0000
,
0001
0000
0000
0000
0100
0000
0000
0000
0001
0000
0000
1000
0000
0000
0010
0000
,
0100
0000
0001
0000
1000
0001
0100
0000
,
0010
0000
0000
0000
0001
0000
0000
0000
1000
0000
0000
0010
0000
0000
0100
0000
,
0001
0000
0100
0000
0001
1000
0010
0000
,
0100
0000
0001
0000
1000
0010
0100
0001
,
0020
0000
0000
0000
,
0000
0000
0000
0000
0000
0000
0000
0000
0000
0000
0000
0030
0000
0000
0000
0000
;

//--------------- dance-single - XLev450X-ESP ----------------
#NOTES:
     dance-single:
     XLev450X:
     Hard:
     13:
     0,0,0,0,0:
0000
0000
0000
0000
,
0000
0000
0000
0000
,
0001
0000
0000
0100
0000
0000
0010
0000
0000
1000
0010
0000
0001
0000
0100
0000
,
0001
0000
0000
0010
0000
0000
0000
0000
0000
0000
0000
0000
0000
0000
0000
0000
,
1000
0000
0000
0010
0001
0000
0100
0000
0010
0001
1000
0000
0001
0000
0100
0000
,
0001
0000
0000
0100
0000
0000
0000
0000
0000
0000
0000
0000
0000
0000
0000
0000
,
1000
0100
0001
0000
1000
0000
0010
0000
0100
0000
0001
0000
0010
0000
0100
0000
,
0001
0000
0010
0000
0100
0010
0001
1000
,
0010
0000
0000
0100
0000
0000
0001
0000
1000
0010
0100
0000
0001
0000
1000
0000
,
0001
0000
0000
0100
0000
0000
0010
0000
0001
0000
1000
0010
0000
0100
0001
0000
,
0010
0000
0000
0001
0000
0000
1000
0000
0001
0100
0001
0000
1000
0000
0010
0000
,
0100
0000
0000
0001
0000
0000
1000
0000
0010
0000
0000
0000
0100
0000
0001
0000
,
1000
0000
0000
0010
0000
0000
0100
0000
0001
0000
1000
0000
0010
0000
0100
0000
,
0001
0000
0000
0010
0000
0000
0001
0000
1000
0000
0000
0001
0010
0000
0100
0000
,
0001
0000
0000
0010
0000
0000
0100
0000
1000
0000
0001
0000
0010
0000
0100
0000
,
0001
0000
0000
1000
0000
0000
0010
0000
0100
0000
0001
1000
0010
0000
0100
0000
,
0001
0000
0000
0100
0000
0000
0010
0000
0001
0000
1000
0010
0100
0000
0001
0000
,
1000
0000
0000
0010
0000
0000
0100
0000
0001
0000
1000
0010
0000
0100
0001
0000
,
0010
0000
0000
0001
0000
0000
0010
0000
0001
1000
0010
0000
0100
0000
0001
0000
,
1000
0000
0000
0010
0000
0000
0100
0000
0001
0000
0000
0000
1000
0000
0001
0000
,
0100
0000
0000
0010
0000
0000
1000
0000
0001
0100
0010
0000
1000
0000
0001
0000
,
0010
0000
0000
0100
0000
0000
0001
0000
1000
0000
0000
0010
0000
0000
0100
0000
,
0001
0000
0000
1000
0000
0000
0010
0000
0100
0000
0001
0000
1000
0000
0010
0000
,
0100
0000
0000
0001
0000
0000
1000
0000
0010
0000
0000
0100
0000
0000
0010
0000
,
0001
0000
0000
0000
1000
0000
0000
0001
0000
0000
0010
0000
0100
0000
0000
0000
,
0001
0000
0000
0000
1000
0000
0000
0100
0000
0000
0010
0000
0100
0000
0000
0000
,
0001
0000
0000
0000
1000
0000
0000
0001
0000
0000
0010
0000
0100
0000
0000
0000
,
0001
0000
0000
0000
1000
0000
0000
0100
0000
0000
0010
0000
0100
0000
0001
0000
,
1000
0000
0000
0000
0000
0000
0000
0000
0000
0010
0000
0000
0000
0000
0000
0000
0000
0000
0100
0000
0000
0000
0000
0000
0100
0000
1000
0000
0100
0000
0010
0000
0001
0000
0010
0000
0100
0000
0000
0000
0000
0000
0001
0000
0000
0000
0000
0000
,
1000
0000
0000
0010
0000
0000
0100
0000
0001
0000
0010
1000
0000
0010
0000
0000
,
0100
0000
0000
0000
0000
0000
0000
0000
0000
0001
0000
0000
0000
0000
0000
0000
0000
0000
1000
0000
0000
0000
0000
0000
0100
0000
1000
0000
0001
0000
0100
0000
0010
0000
1000
0000
0001
0000
0000
0000
0000
0000
0100
0000
0000
0000
0000
0000
,
0001
0000
0000
1000
0000
0000
0010
0000
0100
0000
0001
1000
0000
0010
0000
0000
,
0100
0000
0000
0000
0000
0000
0000
0000
0000
0001
0000
0000
0000
0000
0000
0000
0000
0000
1000
0000
0000
0000
0000
0000
0010
0000
1000
0000
0001
0000
0100
0000
0001
0000
0010
0000
0001
0000
0000
0000
0000
0000
1000
0000
0000
0000
0000
0000
,
0010
0000
0000
0100
0000
0000
0001
0000
1000
0000
0010
0001
0000
0100
0000
0000
,
1000
0000
0000
0000
0000
0000
0000
0000
0000
0001
0000
0000
0000
0000
0000
0000
0000
0000
0100
0000
0000
0000
0000
0000
0010
0000
1000
0000
0010
0000
0100
0000
0010
0000
1000
0000
0001
0000
0000
0000
0000
0000
0010
0000
0000
0000
0000
0000
,
1000
0000
0000
0010
0000
0000
0100
0000
0001
0000
0000
0000
0010
0000
1000
0000
,
0001
0000
0000
0100
0000
0000
0010
0000
0001
1000
0010
0000
0100
0000
0001
0000
,
1000
0000
0000
0010
0000
0000
0100
0000
0001
0000
1000
0000
0001
0100
1000
0000
,
0010
0000
0000
0100
0000
0000
0001
0000
0010
0001
1000
0010
0100
0000
0001
0000
,
1000
0000
0000
0010
0000
0000
0100
0000
0010
0000
0001
1000
0010
0000
0100
0000
,
0001
0000
0000
1000
0000
0000
0010
0000
0100
0001
1000
0010
0100
0000
0001
0000
,
1000
0000
0000
0010
0000
0000
0100
0000
0001
0000
1000
0010
0100
0000
0001
0000
,
1000
0000
0000
0010
0000
0000
0001
0000
0100
0000
0010
0001
1000
0000
0010
0000
,
0100
0000
0000
0001
0000
0000
1000
0000
0010
0000
0100
0001
1000
0000
0010
0000
,
0200
0000
0000
0000
,
0000
0000
0000
0000
0000
0000
0000
0000
0000
0000
0000
0300
0000
0000
0000
0000
;

//--------------- dance-single - XLev450X-CSP ----------------
#NOTES:
     dance-single:
     XLev450X:
     Challenge:
     16:
     0,0,0,0,0:
0000
0000
0000
0000
,
0000
0000
0000
0000
,
0001
0000
0000
1000
0000
0000
0010
0000
0100
0000
0001
1000
0010
0000
0100
0000
,
0001
0000
0000
1000
0000
0000
0010
0000
0001
0000
0000
0000
0100
0000
0001
0000
,
1000
0000
0000
0010
0000
0000
0100
0000
0001
1000
0010
0000
0100
0000
0001
0000
,
1000
0000
0000
0010
0000
0000
0001
0000
0100
0000
0001
0000
1000
0000
0010
0000
,
0100
0000
0001
1000
0010
0000
0100
0000
0001
0000
1000
0000
0001
0000
0100
0000
,
0101
0000
0000
0000
1010
0000
0000
0000
0101
0000
0001
0000
1000
0000
0010
0100
,
0001
0000
1000
0000
0010
0000
0100
0000
0001
1000
0010
0100
0001
0000
1000
0000
,
0010
0000
0000
0001
0000
0000
0100
0000
0010
0000
0001
1000
0010
0000
0100
0000
,
0001
0000
0000
1000
0000
0000
0010
0000
0001
1000
0010
0000
0100
0000
0001
0000
,
1000
0000
0000
0010
0000
0000
0001
0000
0100
0000
0001
1000
0010
0000
0100
0000
,
0001
0000
0000
1000
0000
0000
0010
0000
0001
1000
0010
0100
0001
0000
1000
0000
,
0010
0000
0000
0100
0000
0000
0001
0000
0010
0001
0010
1000
0000
0000
0010
0000
,
0100
0000
0000
0001
0000
0000
1000
0000
0010
0100
0001
1000
0010
0000
0100
0000
,
0001
0000
0000
1000
0000
0000
0010
0000
0100
0000
0001
0010
1000
0000
0010
0000
,
0100
0000
0000
0001
0000
0000
1000
0000
0001
0100
0010
0000
1000
0000
0001
0000
,
0100
0000
0000
0010
0000
0000
1000
0000
0001
0000
0100
0010
1000
0000
0001
0000
,
0100
0000
0000
0010
0000
0000
0001
0000
0010
0001
0010
0001
1000
0000
0010
0000
,
0100
0000
0000
0001
0000
0000
1000
0000
0010
0000
0100
0001
1000
0000
0010
0000
,
0100
0000
0000
0001
0000
0000
1000
0000
0010
0100
0001
0000
1000
0000
0010
0000
,
0100
0000
0000
0001
0000
0000
1000
0000
0010
0000
0100
0001
1000
0000
0010
0000
,
0100
0000
0000
0001
0000
0000
1000
0000
0010
0100
0001
0000
1000
0000
0010
0000
,
0100
0000
0000
0001
0000
0000
1000
0000
0010
0000
0100
0001
1000
0000
0010
0000
,
0001
0000
1000
0000
0010
0000
0000
0100
0000
0000
0001
0000
1000
0000
0001
0000
,
0100
0000
0010
0000
1000
0000
0000
0001
0000
0000
0100
0000
0010
0000
0001
0000
,
1000
0000
0010
0000
0100
0000
0000
0001
0000
0000
1000
0000
0010
0000
0100
0000
,
0001
0000
1000
0000
0010
0000
0000
0100
0000
0000
0001
0000
1000
0000
0010
0000
,
0010
0000
0000
1000
0000
0000
0010
0000
0000
0100
0000
0000
0001
0000
0000
1000
0000
0000
0100
0000
0000
1000
0000
0000
0010
0000
1000
0000
0010
0000
1000
0000
0001
0000
0010
0000
1000
0000
0000
0100
0000
0000
0001
0000
0000
0100
0000
0000
,
0010
1000
0001
0010
0001
1000
0010
1000
0010
0001
0000
0100
0000
0001
0010
0000
,
0100
0000
0000
1000
0000
0000
0100
0000
0000
0010
0000
0000
0100
0000
0000
0010
0000
0000
0001
0000
0000
0100
0000
0000
0010
0000
1000
0000
0001
0000
0010
0000
0100
0000
1000
0000
0010
0000
0000
0001
0000
0000
0010
0000
0000
0001
0000
0000
,
0010
0001
1000
0010
0100
0010
1000
0001
0010
0000
1000
0010
0100
0010
0100
0000
,
1000
0000
0000
0100
0000
0000
0010
0000
0000
0001
0000
0000
1000
0000
0000
0001
0000
0000
1000
0000
0000
0010
0000
0000
0100
0000
1000
0000
0100
0000
0010
0000
0001
0000
1000
0000
0001
0000
0000
0100
0000
0000
0010
0000
0000
0100
0000
0000
,
0010
0001
0100
0010
0100
0001
1000
0001
0100
1000
0000
0001
0000
0010
1000
0000
,
0010
0000
0000
1000
0000
0000
0001
0000
0000
1000
0000
0000
0010
0000
0000
0100
0000
0000
0001
0000
0000
0010
0000
0000
0100
0000
0010
0000
0001
0000
0100
0000
0010
0000
0100
0000
0001
0000
0000
0010
0000
0000
0100
0000
0000
0010
0000
0000
,
1000
0001
1000
0010
0100
0001
1000
0001
0100
0000
0010
0100
0010
0001
0010
0000
,
0010
0000
0000
1000
0000
0000
0010
0000
0000
0100
0000
0000
0001
0000
0000
1000
0000
0000
0100
0000
0000
1000
0000
0000
0010
0000
1000
0000
0010
0000
1000
0000
0001
0000
0010
0000
1000
0000
0000
0100
0000
0000
0001
0000
0000
0100
0000
0000
,
0010
1000
0001
0010
0001
1000
0010
1000
0010
0001
0000
0100
0000
1000
0010
0000
,
0100
0000
0000
1000
0000
0000
0100
0000
0000
0010
0000
0000
0100
0000
0000
0010
0000
0000
0001
0000
0000
0100
0000
0000
0010
0000
1000
0000
0001
0000
0010
0000
0100
0000
1000
0000
0010
0000
0000
0001
0000
0000
0010
0000
0000
0001
0000
0000
,
0010
0001
1000
0010
0100
0010
1000
0001
0010
0000
1000
0010
0100
0010
0100
0000
,
1000
0000
0000
0100
0000
0000
0010
0000
0000
0001
0000
0000
1000
0000
0000
0001
0000
0000
1000
0000
0000
0010
0000
0000
0100
0000
1000
0000
0100
0000
0010
0000
0001
0000
1000
0000
0001
0000
0000
0100
0000
0000
0010
0000
0000
0100
0000
0000
,
0010
0001
0100
0010
0100
0001
1000
0001
0100
0010
0000
0001
0000
0010
1000
0000
,
0010
0000
0000
1000
0000
0000
0001
0000
0000
1000
0000
0000
0010
0000
0000
0100
0000
0000
0001
0000
0000
0010
0000
0000
0100
0000
0010
0000
0001
0000
0100
0000
0010
0000
0100
0000
0001
0000
0000
0010
0000
0000
0100
0000
0000
0010
0000
0000
,
1000
0001
1000
0010
0100
0001
1000
0001
0100
0000
0010
0100
0010
0001
0010
0001
,
0200
0000
0000
0000
,
0000
0000
0000
0000
0000
0000
0000
0000
0000
0000
0000
0300
0000
0000
0000
0000
;
