#TITLE:Brave Spirits;
#ARTIST:MK;
#GENRE:MELODIC RIDDIM;
#MUSIC:Brave Spirits.ogg;
#BANNER:Brave Spirits.png;
#BACKGROUND:Brave Spirits-bg.png;
#CDTITLE:./CDTitles/bm IIDX 29 CastHour.png;
#SAMPLESTART:26.895;
#SAMPLELENGTH:15;
#SELECTABLE:YES;
#OFFSET:-0.104;
#BPMS:0=152;
#BGSTAGE:22;

//--------------- dance-single - XLev450X-bSP ----------------
#NOTES:
     dance-single:
     XLev450X:
     Beginner:
     3:
     0,0,0,0,0:
0000
0000
0000
0000
,
0000
0000
0000
0000
,
0000
0000
0000
0000
,
0000
0000
0000
0000
,
0000
0000
0000
0000
,
0001
0000
1000
0000
,
0001
0000
0000
0000
,
0010
0000
0100
0000
,
0010
0000
0000
0000
,
1001
0000
0000
0000
,
0000
0000
0000
0000
,
0000
0000
0000
0000
,
0000
0000
0000
0000
,
0001
0001
0001
0000
,
1000
1000
1000
0000
,
0010
1000
0100
0000
,
0110
0000
0000
0000
,
0101
0000
0010
0000
,
1000
0000
0000
0000
,
0001
0000
1000
0000
,
0010
0000
0000
0000
,
0100
0000
0001
0000
,
1000
0000
0000
0000
,
0010
0000
1000
0000
,
0001
0000
0000
0000
,
0010
0010
0010
0000
,
1000
0000
0001
0000
,
0100
0100
0100
0000
,
0010
0000
0001
0000
,
1000
0000
0000
0000
,
0001
0000
0000
0000
,
1000
0000
0010
0000
,
0100
0000
0000
0000
,
1001
0000
0000
0000
,
0000
0000
0000
0000
,
0110
0000
0000
0000
,
0000
0000
0000
0000
,
0101
0000
0000
0000
,
0000
0000
0000
0000
,
1010
0000
0000
0000
,
0000
0000
0000
0000
,
0010
0010
0010
0000
,
0000
0000
0000
0000
,
0100
0100
0100
0000
,
0000
0000
0000
0000
,
0001
1000
0001
0000
,
0010
0100
0010
0000
,
0001
1000
0010
0100
,
1001
0000
0000
0000
,
0001
0001
0001
0000
,
1000
0000
0010
0000
,
0100
0100
0100
0000
,
0010
0000
0001
0000
,
1000
0001
0100
0000
,
0010
0000
1000
0000
,
0001
0100
0010
0000
,
1000
0000
0010
0000
,
0101
0000
0000
0000
,
1010
0000
0000
0000
,
0110
0000
0000
0000
,
1001
0000
0000
0000
,
1010
0000
0000
0000
,
0101
0000
0000
0000
,
0110
0000
0000
0000
,
1010
0000
0000
0000
,
0010
0000
0010
0000
,
0010
0000
0000
0000
,
1000
0000
0001
0000
,
0100
0000
0000
0000
,
0010
0000
1000
0000
,
0001
0000
0000
0000
,
0100
0000
0010
0000
,
1000
0000
0001
0000
,
0110
0000
0000
0000
;

//--------------- dance-single - XLev450X-BSP ----------------
#NOTES:
     dance-single:
     XLev450X:
     Easy:
     5:
     0,0,0,0,0:
0000
0000
0000
0000
,
0000
0000
0000
0000
,
0000
0000
0000
0000
,
0000
0000
0000
0000
,
0000
0000
0000
0000
,
0001
1000
0020
0030
,
0200
0300
0002
0003
,
1000
0010
0200
0300
,
0001
1000
0010
0100
,
2002
0000
0000
0000
,
0000
0000
3003
0000
,
2000
0000
3000
0020
0000
0030
0000
0200
,
0000
0300
0000
0002
0000
0000
0003
0000
,
1000
0001
0200
0300
,
0010
1000
0002
0003
,
0010
1000
0001
0100
,
2002
0000
0000
3003
,
0020
0030
0200
0300
,
0001
1000
0020
0030
,
2000
3000
0002
0003
,
0100
0010
2000
3000
,
0002
0003
0200
0300
,
0010
1000
0200
0300
,
0002
0000
0003
0000
2000
0000
3000
0020
,
0000
0030
0000
0200
0000
0000
0300
0000
,
0001
0010
0002
0003
,
2000
3000
0200
0300
,
0010
1000
0020
0030
,
0200
0300
0002
0003
,
1000
0010
0200
0300
,
0002
0003
2000
3000
,
0010
1000
0200
0300
,
0002
0003
0100
0010
,
2002
0000
0000
0000
3003
0000
0000
0220
,
0000
0000
0000
0000
0000
0330
0000
0000
,
2020
0000
3030
0000
,
0202
0000
0303
0000
,
0220
0000
0330
0000
,
0020
0000
0030
0000
,
0002
0000
0003
0000
,
2000
0000
3000
0000
,
0010
0100
0002
0003
,
2000
3000
0002
0003
,
0010
0100
0002
0003
,
0020
0030
0200
0300
,
1000
0001
0200
0300
,
0010
1000
0002
0003
,
0010
0100
0001
1000
,
0220
0000
0000
0330
,
0001
0001
0001
1000
,
0020
0030
0200
0300
,
1000
1000
1000
0001
,
0100
0010
0200
0300
,
0020
0030
2000
3000
,
0001
0100
0020
0030
,
2000
0000
3000
0000
0002
0003
0000
2000
,
0000
3000
0000
0002
0000
0003
0000
0000
,
0020
0030
0200
0300
,
0002
0003
2000
3000
,
0020
0030
0200
0300
,
0002
0003
2000
3000
,
0200
0300
0002
0003
,
0020
0030
2000
3000
,
0002
0003
0200
0300
,
0020
0030
2000
3000
,
0010
1000
0002
0003
,
0100
0010
2000
3000
,
0001
0100
0010
1000
,
0002
0003
0200
0300
,
0010
1000
0002
0003
,
0010
0100
0002
0003
,
1000
0001
0100
0010
,
2000
3000
0002
0003
,
0220
0000
0000
0330
;

//--------------- dance-single - XLev450X-DSP ----------------
#NOTES:
     dance-single:
     XLev450X:
     Medium:
     8:
     0,0,0,0,0:
0000
0000
0000
0000
,
0000
0000
0000
0000
,
0000
0000
0000
0000
,
0000
0000
0000
0000
,
0000
0000
0000
0000
,
0001
0000
1000
0000
0010
0100
0001
1000
,
0000
0010
0100
0001
,
1000
0000
0010
0100
0000
0001
1000
0000
,
0000
0010
0100
0001
1000
0000
0010
0000
,
0200
0000
0000
0000
,
0000
0000
0300
0000
,
0002
0000
0003
2000
0000
3000
0000
0020
,
0000
0030
0000
0200
0000
0000
0300
0000
,
0010
0001
0010
0000
0100
1000
0100
0000
,
0010
0100
0001
0000
0010
0100
1000
0000
,
0001
0000
1000
0000
0010
0100
0001
0000
,
2002
0000
0000
0000
0000
3003
0000
0000
,
0101
0000
1000
0010
,
0100
0001
1000
0010
,
0100
0000
0001
1000
,
0010
0000
0100
0000
0001
1000
0010
0000
,
0100
0000
0001
1000
,
0010
1000
0010
0000
0100
0001
0100
0000
,
0010
0000
1000
0000
0100
0000
0001
1000
,
0000
0010
0100
0001
0000
0000
0010
0000
,
1000
0000
0001
0100
0010
0000
0001
0000
,
1000
0010
0100
0001
,
1000
0000
0010
0100
,
0001
0000
0000
0000
1000
0010
1000
0000
,
0100
0000
0001
0000
0100
0010
0100
0000
,
0001
0000
1000
0000
0001
0100
0010
0000
,
1000
0000
0001
0000
0100
0010
1000
0000
,
0001
0000
0000
0000
1000
0010
0100
0000
,
2002
0000
3003
0000
0010
0100
0000
0002
,
0000
0003
0000
2000
0000
3000
0010
0000
,
0200
0000
0300
0002
0000
0003
0000
2000
,
3000
0020
0030
0200
0300
0001
0000
1000
,
0020
0000
0030
0000
0100
0001
0000
2000
,
0000
3000
0000
0010
0100
0001
1000
0000
,
0020
0030
0000
0200
0300
0000
0000
0002
,
0000
0003
0000
2000
3000
0010
0100
0000
,
0001
1000
0010
0000
,
1000
0001
0100
0000
,
0010
1000
0001
0000
,
0010
0100
0001
1000
,
0010
0100
0001
0000
1000
0000
0010
0000
,
1000
0010
1000
0000
0100
0000
0001
0000
,
0010
1000
0001
0100
0010
1000
0001
0100
,
0020
0000
0030
1001
,
0010
0000
0100
0000
0001
1000
0010
0000
,
0100
0000
0001
0000
1000
0001
0100
0000
,
0010
0000
1000
0000
0001
1000
0010
0000
,
0100
0000
0001
0000
1000
0010
1000
0000
,
0100
0000
0001
0000
0100
0001
0100
0000
,
0010
0000
1000
0000
0010
1000
0010
0000
,
0100
0000
0001
0000
0100
0010
1000
0001
,
0000
0100
0010
1000
0000
0000
0001
0000
,
0100
0000
0010
0000
,
1000
0001
0100
0000
,
0010
0000
1000
0000
0001
0100
0010
0000
,
1000
0001
0100
0001
,
1000
0000
0010
0100
0001
0000
1000
0000
,
0010
0000
0100
0001
0100
0000
0010
0000
,
1000
0000
0001
1000
0010
0000
0100
0000
,
0001
0000
0010
1000
0001
0100
0010
0000
,
0001
0000
1000
0000
0010
0100
0001
0000
,
0010
0000
1000
0000
0001
0100
0010
0000
,
1000
0000
0001
0000
0010
0100
0001
0000
,
1000
0010
0100
0000
,
0001
1000
0010
0100
,
0001
0000
1000
0010
0100
0000
0001
0000
,
1000
0000
0001
0000
0100
0000
0010
1000
,
0000
0001
0000
0010
0000
1000
0001
0100
,
0020
0000
0000
0030
;

//--------------- dance-single - XLev450X-ESP ----------------
#NOTES:
     dance-single:
     XLev450X:
     Hard:
     15:
     0,0,0,0,0:
0000
0000
0000
0000
,
0000
0000
0000
0000
,
0000
0000
0000
0000
,
0000
0000
0000
0000
,
0000
0000
0000
0000
,
2020
0000
0000
0000
3030
0000
0000
0202
,
0000
0303
0000
0010
1000
0100
0001
0000
,
2020
3030
0000
0202
0000
0303
0000
2020
,
0000
3030
0000
0020
0030
0000
0200
0300
,
2002
0000
0000
0000
,
0000
0000
0000
3003
,
2000
0000
3000
0002
0000
0003
0000
0200
,
0000
0300
0000
0020
0000
0000
0030
0000
,
0001
0000
1000
0000
0010
0100
0001
0000
,
1000
0000
0010
0000
0100
0001
1000
0000
,
0010
0000
0100
0000
0001
0010
1000
0100
,
0001
0010
0100
1000
0100
0010
0001
0010
0100
1000
0100
0010
0002
0003
0000
0000
,
0001
0000
1000
0000
0010
0000
0100
0000
0001
1000
0000
0010
0000
0001
0100
0000
,
0001
0000
0000
1000
0000
0001
0000
0000
0100
0000
0000
0001
0010
0000
0001
0000
,
1000
0000
0000
0000
0010
0000
0100
0000
0001
0000
0000
1000
0000
0010
0000
0000
,
0100
0000
0000
0001
0000
0000
1000
0000
0010
0000
0000
0000
0100
0000
0010
0000
,
0001
0000
0000
0000
1000
0000
0010
0000
0100
0000
0000
0001
0000
1000
0000
0000
,
0010
0000
0000
0100
0000
0001
0000
0000
1000
0000
0000
0001
0010
0000
0000
0000
,
0100
0000
0000
0000
0001
0000
1000
0000
0010
0000
0000
0100
0000
0000
1001
0000
,
0000
0010
0100
0011
0000
0010
0100
0010
,
0001
1000
0010
0100
0001
0000
1000
0000
,
0010
0100
1000
0001
1000
0010
1000
0000
,
0001
1000
0010
0100
0001
0000
1000
0000
,
0010
0100
0000
0001
1000
0000
0010
0000
,
0100
0001
1000
0010
0100
0000
0001
0000
,
1000
0010
0100
0001
0010
0000
1000
0000
,
0010
0100
0001
1000
0010
0000
0010
0000
,
0100
0001
1000
0010
0100
0001
1000
0010
,
0200
0000
0000
0000
0300
0000
0000
0000
0002
0003
2000
0000
3000
0000
0020
0000
,
0000
0030
0000
0100
0001
1000
0010
0000
,
0100
0000
0000
0010
0000
0000
0000
1000
,
0000
0000
0000
0001
0000
0000
0100
0000
,
0010
0000
0000
0000
1000
0001
0000
0100
,
0000
0000
0000
0010
0001
1000
0010
0000
,
0100
0000
0000
0001
0000
0000
0000
1000
,
0000
0000
0000
0010
0000
0000
0000
0000
,
0001
1000
0010
0100
,
0001
0000
1000
0000
0010
0100
0001
0000
,
1000
0000
0010
0000
0100
0001
1000
0000
,
0010
0100
0001
1000
,
0010
1000
0100
0000
0001
1000
0010
0000
,
0100
0001
1000
0000
0100
0001
1000
0000
,
0010
0100
0001
1000
0010
0100
0001
1000
,
0010
1000
0010
0100
0001
1000
0100
1000
0001
1000
0100
0010
0100
0000
0000
0000
,
0001
1000
0001
0100
0001
0000
1000
0000
0010
0000
0000
0000
0100
0000
0000
0000
,
0001
1000
0010
0000
0100
0001
1000
0000
,
0010
0001
1000
0010
0100
0000
1001
0000
,
1000
0000
0000
0010
0000
0001
0000
0000
0100
0000
0001
0000
0001
0010
0001
0010
,
0100
0001
1000
0000
0010
0100
0001
0000
,
1000
0010
0100
0001
0010
0000
1000
0000
,
0010
0100
0001
1000
0010
0000
0100
1000
,
0000
0000
0010
0000
1000
0000
0001
0000
0000
0000
0100
1000
0100
0010
0001
0010
,
0001
0000
0100
0010
0100
0010
0001
0000
0001
0100
0001
1000
,
0100
0000
0001
0100
0010
0100
0001
0000
0001
0010
0100
1000
,
0001
0000
0010
1000
0010
1000
0001
0000
0001
0100
0001
1000
,
0010
0000
0010
1000
0001
0010
0100
0010
0100
1000
0001
1000
,
0000
1000
0100
0010
0100
1000
0010
0000
0001
0010
0001
0010
,
0100
0000
0001
1000
0100
1000
0010
0000
0001
0100
0001
1000
,
0010
0000
0010
0100
0001
0100
0001
0000
0100
1000
0001
0010
,
0100
0000
0010
0100
0010
0100
0010
1000
0100
1000
0100
1000
,
0001
1000
0010
0100
0001
0010
1000
0001
,
0000
1000
0010
0100
0000
0001
1000
0010
,
0100
0000
0001
1000
0000
0010
0100
0001
,
0000
1000
0010
0100
0001
0000
1000
0000
,
0010
0100
0001
1000
0010
0100
0001
0100
,
0000
1000
0010
0100
0001
0000
1000
0000
,
0010
0100
0001
1000
0010
0100
0001
1000
,
0000
0010
0100
0001
0000
1000
0010
0100
,
2002
0000
0000
3003
;

//--------------- dance-single - XLev450X-CSP ----------------
#NOTES:
     dance-single:
     XLev450X:
     Challenge:
     17:
     0,0,0,0,0:
0000
0000
0000
0000
,
0000
0000
0000
0000
,
0000
0000
0000
0000
,
0000
0000
0000
0000
,
0000
0000
0000
0000
,
1001
0000
0000
0000
1000
0000
0010
0000
0001
0010
0000
1000
0100
0001
0100
0000
,
1000
0000
0010
0000
0100
0000
1000
0000
0001
0010
0000
0010
1000
0100
0001
0000
,
0100
0000
1000
0010
0000
0010
0001
1000
0100
0000
0001
0010
0000
0010
1000
0001
,
0100
0000
1000
0010
0000
0010
0001
1000
0200
0000
0000
0000
0310
0000
0000
0000
,
2002
0000
0000
0000
,
0000
0000
0000
3003
,
2000
0000
0000
0000
0000
0000
3200
0000
0000
0000
0000
0000
0000
0300
0020
0000
,
0000
0000
0030
0002
0000
0000
0003
0000
,
0001
0000
0100
0000
1000
0000
0001
0010
1000
0000
0010
0001
0000
1000
0100
0010
,
0001
0000
1000
0001
0000
0000
1001
0000
0001
0010
1000
0000
0001
0010
0100
1000
,
0001
0000
0010
0000
1000
0000
1001
0000
0001
0000
0100
1000
0000
0100
0010
0001
,
0010
0100
0001
0010
0001
0100
0001
1000
0010
0100
0010
0100
0010
0000
0000
0000
,
0001
0000
0010
0000
0001
0000
0100
1000
0100
0000
0010
0000
0100
0010
1000
0000
,
0002
0000
0203
2300
0000
3100
0001
0000
,
1000
0000
0010
0000
1000
0000
0100
1000
0100
0000
0010
0000
0100
0010
0001
0000
,
1000
0000
0000
0000
0001
0000
0000
0000
0100
0000
0000
0000
0010
0000
0000
0000
0100
0000
0000
0000
0001
0000
0000
0000
1000
0000
0000
0010
0000
0000
1000
0000
0000
0000
0000
0000
0100
0000
0000
0010
0000
0000
0001
0000
0000
0010
0000
0000
,
1000
0000
0001
1000
0001
0010
0100
1000
0001
0000
0100
0000
0000
0000
0001
0000
,
1000
0001
1000
0010
0100
0001
1000
0000
0100
0000
0000
0000
0011
0000
0000
0000
,
1001
0000
0001
0010
0100
1000
0001
0100
0010
0000
1000
0000
0000
0000
1001
0000
,
0000
0000
0001
0010
0100
1000
0001
0000
0010
0000
0000
0100
0000
0000
0010
0000
,
1000
0001
1000
0001
1000
0000
1000
0000
,
0001
0000
0110
0000
1001
0000
1000
0100
,
0010
0000
0000
0000
0010
0000
0000
0000
0100
0000
0000
0100
1000
0000
0001
0000
,
0100
0000
0100
0000
0010
1000
1001
0000
,
0010
0000
0001
0000
0010
0001
0010
0001
0010
0000
0100
0000
0010
0001
0010
0001
,
1000
0000
0010
0000
0100
0010
0100
0010
0100
0000
0001
0000
1000
0000
0100
0000
,
0010
0000
0100
0000
1000
0010
1000
0010
1000
0000
0001
0000
0010
0100
0010
0100
,
0010
0000
0001
0000
1000
0010
1000
0010
0100
0001
0100
0001
1000
0100
1000
0100
,
1000
0010
0000
0001
0010
1000
0100
0000
0001
1000
0010
0000
0001
1000
0010
0000
,
0001
0010
0000
0010
1000
0100
0010
0000
0001
0100
0000
1000
0001
0000
0010
1000
,
0000
0100
0001
0000
1000
0010
0000
0001
0100
0000
1000
0100
0000
0001
0020
0000
,
0000
0000
0000
0000
0130
1000
0100
1000
0100
0000
0010
0000
1000
0000
0010
0000
,
0100
0000
1000
0000
0001
0100
0000
0010
0001
0000
1000
0000
0001
0010
0000
0100
,
0001
0000
0010
0000
0100
1000
0001
0010
0001
0000
0100
0000
1000
0000
0001
0000
,
0010
1000
0100
0000
0010
0001
0100
1000
0000
0000
1000
0000
0100
0000
0001
0000
,
0010
0000
0001
0000
1000
0001
0000
0001
0010
0000
0100
0000
0001
0000
0100
0000
,
0010
0000
0001
0000
0100
0010
0000
1000
0010
0000
0100
0000
1000
0000
0100
0000
,
0010
0000
1000
0000
0100
0001
0000
0001
0200
0000
0000
0000
1300
0000
0010
0000
,
0002
0000
0000
0000
1003
0000
0100
0000
0001
0000
1000
0000
0100
0001
0010
0000
,
0100
1000
0010
0001
0000
0000
0001
0000
0010
0000
1000
0000
0100
0000
1000
0000
,
0001
1000
0000
1000
0100
0000
0010
0000
1000
0000
0010
0000
0100
0000
1000
0000
,
0010
0100
0000
0001
0100
0000
0010
0000
0001
0000
0010
0000
0100
0000
0001
0000
,
0010
0100
0010
0000
0001
0010
0100
1000
0000
0010
0100
0000
0001
0010
0100
1000
,
0001
0010
0001
1000
0100
1000
0100
1000
0001
0100
0001
0100
0020
0000
0030
0000
,
0001
0010
1000
0000
0100
0000
0001
0000
1000
0100
0001
0000
0100
1000
0010
0000
,
0010
0001
1000
0100
0010
0001
0010
1000
0010
0001
0100
0001
0010
1000
0001
0010
,
0100
1000
0010
0001
0010
1000
0100
0001
0100
1000
0100
0010
0001
0100
0010
0000
,
0001
0100
1000
0010
0001
0000
1010
0000
0001
0010
1000
0010
0100
0000
1001
0000
,
1000
0100
0010
0001
0100
0000
0010
1000
,
0100
0010
0001
0000
0010
0000
0100
0000
,
1000
0010
0001
0010
1000
0010
0001
0000
,
0001
0100
1000
0100
0001
0000
0010
0001
,
0100
1000
0100
0010
0001
0010
0001
1000
0100
1000
0100
0010
,
0100
0010
0001
0010
0100
1000
0010
0100
0010
1000
0100
0010
,
0100
0010
0001
1000
0001
0100
0001
1000
0100
0010
0001
1000
,
0100
1000
0100
0010
0001
1000
0100
1000
0001
0010
0100
1000
,
0100
1000
0001
0010
0100
0010
0001
0100
0001
1000
0100
0010
,
0001
0100
0010
1000
0010
0100
0001
0010
0001
0010
0100
1000
,
0010
1000
0010
0100
0001
1000
0100
1000
0001
0100
0001
0100
,
0001
0010
0100
0010
0100
1000
0010
1000
0001
0010
0001
1000
,
0010
0000
1000
0000
0001
0010
0001
0010
0001
0000
0010
0000
0100
0000
1000
0000
,
0010
0000
1000
0000
0001
0100
0001
0100
0001
0000
0100
0000
0010
0000
1000
0000
,
0001
1000
0010
0000
1000
0000
0001
0000
0010
0001
1000
0000
0010
0000
1000
0000
,
0001
1000
0100
0000
1000
0000
0001
0000
1000
0100
1000
0000
0001
0100
0001
0000
,
0001
0010
0100
0000
0001
0100
0000
1000
0010
0000
0001
1000
0000
0100
1000
0100
,
0010
0011
1001
0011
,
0010
0000
1000
0000
0100
0001
1000
0010
0001
0000
0100
1000
0000
1000
0100
0000
,
1000
0001
0000
0001
0010
0000
1000
0000
0100
0000
0101
0000
0110
0000
0000
0000
,
0220
0000
0000
0330
;
