#TITLE:Boomy and The Boost;
#ARTIST:Eagle;
#GENRE:NEO JUNGLE;
#MUSIC:Boomy and The Boost.ogg;
#BANNER:Boomy and The Boost.png;
#BACKGROUND:Boomy and The Boost-bg.png;
#CDTITLE:./CDTitles/bm IIDX 25 CANNON BALLERS.png;
#SAMPLESTART:90.133;
#SAMPLELENGTH:15;
#OFFSET:0.880;
#BPMS:0=174;
#BGCHANGES:0=Boomy and The Boost.mp4=1.000=0=0=0=StretchNoLoop====,
99999.000=-nosongbg-=1.000=0=0=0=StretchNoLoop====;
#BGSTAGE:15;

//--------------- dance-single - XLev450X-bSP ----------------
#NOTES:
     dance-single:
     XLev450X:
     Beginner:
     3:
     0,0,0,0,0:
0000
0000
0000
0000
,
0000
0000
0000
0000
,
0000
0000
0000
0000
,
0000
0000
0000
0000
,
0000
0000
0000
0000
,
0000
0000
0000
0000
,
0000
0000
0000
0000
,
0000
0000
0000
0000
,
0000
0000
0000
0000
,
0000
0000
0000
0000
,
0001
0000
1000
0000
,
0001
0000
0000
0000
,
0010
0000
1000
0000
,
0010
0000
0000
0000
,
0100
0000
0001
0000
,
0100
0000
0000
0000
,
0010
0000
0010
0000
,
0001
0000
0000
0000
,
0001
0000
0000
0000
,
0001
0000
0000
0000
,
1000
0000
0000
0000
,
0000
0000
0000
0000
,
0100
0000
0000
0000
,
0100
0000
0000
0000
,
0010
0000
0000
0000
,
1001
0000
0000
0000
,
0001
0000
1000
0000
,
0001
0000
0000
0000
,
0100
0000
1000
0000
,
0100
0000
0000
0000
,
0010
0000
0001
0000
,
0010
0000
0000
0000
,
0001
0000
0001
0000
,
0001
0000
0000
0000
,
1000
1000
1000
0000
,
0010
0010
0010
0000
,
0100
0000
0100
0000
,
0100
0000
0000
0000
,
0010
0010
0010
0000
,
0001
0001
0001
0000
,
0010
0000
1000
0000
,
0010
0000
0000
0000
,
1001
0000
0000
0000
,
0000
0000
0000
0000
,
0000
0110
0000
0000
,
0000
0000
0000
0000
,
0000
1001
0000
0000
,
0000
0000
0000
0000
,
0000
0110
0000
0000
,
0000
0000
0000
0000
,
0000
0010
0000
0010
,
0000
0010
0000
0000
,
0000
1000
0000
1000
,
0000
1000
0000
0000
,
0000
0001
0000
0001
,
0000
0001
0000
0000
,
0000
0100
0000
0100
,
0000
0100
0000
0000
,
0010
0010
0001
0000
,
0010
0010
1000
0000
,
0100
0000
0100
0000
,
0001
0000
0000
0000
,
0001
0001
1000
0000
,
0010
0010
1000
0000
,
0100
0010
0100
0000
,
0001
0000
0000
0000
,
1000
0000
1000
0000
,
1000
0000
0000
0000
,
0010
0000
0010
0000
,
0010
0000
0000
0000
,
0001
0000
0001
0000
,
0001
0000
0000
0000
,
0100
0000
0100
0000
,
0100
0000
0000
0000
,
0010
0000
0000
0000
,
0001
0000
0000
0000
,
0010
0000
0000
0000
,
1000
0000
0000
0000
,
0100
0000
0000
0000
,
0010
0000
0000
0000
,
0001
0000
0000
0000
,
1000
0000
0000
0000
,
0010
0000
0010
0000
,
0000
0000
0000
0000
,
1000
0000
1000
0000
,
0000
0000
0000
0000
,
0001
0000
0001
0000
,
0000
0000
0000
0000
,
0100
0000
0100
0000
,
0000
0000
0000
0000
,
1001
0000
0000
0000
;

//--------------- dance-single - XLev450X-BSP ----------------
#NOTES:
     dance-single:
     XLev450X:
     Easy:
     8:
     0,0,0,0,0:
0000
0000
0000
0000
,
0000
0000
0000
0000
,
0000
0000
0000
0000
,
0000
0000
0000
0000
,
0000
0000
0000
0000
,
0000
0000
0000
0000
,
0000
0000
0000
0000
,
0000
0000
0000
0000
,
0000
0000
0000
0000
,
0000
0000
0000
0000
,
0001
1000
0010
0100
,
1000
0000
0010
0000
0010
0001
0010
0000
,
0100
1000
0001
0010
,
1000
0010
0100
0000
,
0001
1000
0010
0001
,
1000
0001
0010
1000
,
0010
1000
0010
0000
0001
0010
0001
0000
,
1000
0100
1000
0000
0010
0100
0010
0000
,
0001
1000
0001
0000
,
0010
1000
0010
0000
,
0100
0001
0010
0000
,
1000
0001
0010
0000
,
0001
1000
0010
0100
,
1000
0001
0010
1000
,
0010
1000
0010
0000
0001
0010
0001
0000
,
2002
0000
0000
3003
,
0001
1000
0010
1000
,
0100
0001
0010
0000
,
1000
0100
0010
0001
,
0010
1000
0100
0000
,
0010
0001
0100
1000
,
0001
1000
0001
0000
0010
0000
1000
0000
,
0100
0010
0001
1000
,
2002
0000
0000
3003
,
0001
1000
0010
0100
,
0010
0001
0010
0000
,
1000
0100
0010
0001
,
0220
0000
0000
0330
,
0001
1000
0010
0100
,
0001
0010
0100
1000
,
0001
1000
0001
0000
0010
1000
0010
0000
,
2002
0000
0000
3003
,
0010
0000
1000
0000
0000
0001
0000
0000
,
0100
0000
0000
0010
0000
0000
1000
0000
,
0001
0000
0100
0000
0000
1000
0000
0000
,
0010
0000
0000
0100
0000
0000
0001
0000
,
1000
0000
0010
0000
0000
0100
0000
0000
,
0001
0000
0000
1000
0000
0000
0010
0000
,
0100
0000
0001
0000
0000
1000
0000
0000
,
0010
0000
0000
0100
0000
0000
0001
0000
,
1000
0010
1000
0000
,
0001
0010
0100
0000
,
1000
0001
0010
1000
,
0100
0010
0001
0000
,
0001
0001
1000
0000
,
0010
0010
1000
0000
,
0100
0010
0001
0010
,
0100
1000
0001
0000
,
1000
1000
0010
0100
,
0001
0010
0100
0000
,
0001
0001
1000
0000
,
0010
0010
1000
0000
,
0010
0100
0001
0010
,
1000
0100
0001
0010
,
0001
0010
0001
0000
0100
1000
0100
0000
,
0010
0100
0010
0000
0001
0000
1000
0000
,
0001
0000
1000
0010
,
1000
0000
0010
0100
,
0010
0000
0001
0010
,
0001
0000
0100
1000
,
0001
1000
0010
1000
,
0100
0010
0001
0010
,
0010
1000
0010
0000
0010
0100
0010
0000
,
2002
0000
0000
3003
,
0001
0000
1000
0000
0000
0010
0000
0000
,
0100
0000
0000
0001
0000
0000
1000
0000
,
1000
0001
1000
0000
0010
0000
0100
0000
,
0001
0010
1000
0001
,
0010
0000
0100
0000
0000
0001
0000
0000
,
1000
0000
0000
0010
0000
0000
0100
0000
,
1000
0001
1000
0010
,
0010
0100
0010
0000
0001
0010
0001
0000
,
1000
0000
0001
0000
0000
0100
0000
0000
,
1000
0000
0000
0010
0000
0000
0100
0000
,
0001
0000
1000
0000
0010
1000
0010
0000
,
0001
0010
0100
1000
,
0010
0000
0101
0000
0000
1010
0000
0000
,
0110
0000
0000
1010
0000
0000
1001
0000
,
0001
1000
0100
1000
,
0001
1000
0001
0000
0010
1000
0010
0000
,
2002
0000
0000
0000
,
0000
0000
0000
0000
,
3003
0000
0000
0000
;

//--------------- dance-single - XLev450X-DSP ----------------
#NOTES:
     dance-single:
     XLev450X:
     Medium:
     12:
     0,0,0,0,0:
0000
0000
0000
0000
,
0000
0000
0000
0000
,
0000
0000
0000
0000
,
0000
0000
0000
0000
,
0000
0000
0000
0000
,
0000
0000
0000
0000
,
0000
0000
0000
0000
,
0000
0000
0000
0000
,
0000
0000
0000
0000
,
0000
0000
0000
0000
,
0001
0000
1000
0000
0010
0100
0010
0000
,
0001
0000
0010
0000
1000
0010
1000
0000
,
0100
0000
0001
0000
0100
0001
0100
0000
,
0001
1000
0001
0010
,
1000
0010
1000
0000
0010
0100
0010
0000
,
0001
0010
0001
0000
0100
1000
0100
0000
,
0001
0000
1000
0010
1000
0000
0010
0100
,
0001
1000
0001
0100
0010
1000
0001
0010
,
1000
0001
0100
1000
,
0010
1000
0010
0000
0010
0000
0100
1000
,
0100
0000
0001
0000
0010
0001
0010
0000
,
0100
0000
1000
0000
0001
1000
0001
0000
,
0010
1000
0100
0001
,
0010
0100
1000
0100
,
0010
1000
0010
0000
0001
0010
0001
0000
,
2002
0000
0000
3003
,
0001
0000
0011
0000
0000
0010
0000
0000
,
1000
0000
0100
0000
1000
0001
1000
0000
,
0010
0000
1010
0000
0000
0110
0000
0000
,
0001
0000
0010
0000
1000
0001
1000
0000
,
0010
0000
1010
0000
0000
0101
0000
0000
,
0001
0000
1000
0000
0010
1000
0010
0000
,
0001
0000
0000
0000
0100
0000
0000
0000
1000
0000
0000
0001
0000
0000
1000
0000
,
0001
0000
1000
0000
0010
0100
0010
0000
,
0001
1000
0100
1000
,
0010
1000
0010
0000
0001
0010
0001
0000
,
0100
1000
0001
1000
,
0010
0000
0000
0100
0000
0000
0001
0000
1000
0000
0001
0000
1000
0000
0000
0000
,
0001
0000
1000
0000
0010
0100
0001
0000
,
0010
0000
1000
0000
0100
1000
0100
0000
,
0001
1000
0001
0000
0010
1000
0010
0000
,
2002
0000
0000
3003
,
0220
0330
0000
0000
1000
0000
0000
1010
0000
0000
0001
0000
0000
0101
0000
0000
,
1000
0000
0000
1010
0000
0000
0001
0000
0000
0101
0000
0000
0020
0000
0000
0000
,
0030
0000
0000
0000
0001
0000
0000
0011
0000
0000
1000
0000
0000
1100
0000
0000
,
0001
0000
0000
0011
0000
0000
1000
0000
0000
1100
0000
0000
0020
0000
0000
0000
,
0030
0000
0000
0000
0001
0000
0000
1001
0000
0000
0010
0000
0000
0011
0000
0000
,
1000
0000
0000
1001
0000
0000
0010
0000
0000
1010
0000
0000
0200
0000
0000
0000
,
0300
0000
0000
0000
1001
0000
0000
1001
0000
0000
0110
0000
0000
0110
0000
0000
,
1001
0000
0010
0000
0100
0010
0100
0000
,
0001
0000
1000
0000
0010
0100
0010
0000
,
0001
0010
0001
0000
0100
1000
0100
0000
,
0001
1000
0010
1000
,
0001
0010
1000
0000
,
0001
0000
0010
0000
1000
0010
1000
0000
,
0010
0100
0010
0000
0001
0010
0001
0000
,
0100
1000
0001
1000
,
0001
1000
0001
0000
0001
0000
0000
0000
,
0010
1000
0100
0010
,
0001
0010
0100
0000
,
1000
0010
1000
0100
,
0010
1000
0010
0000
0001
0010
0001
0000
,
0100
1000
0001
0100
,
1000
0010
1000
0001
,
0001
1000
0010
0000
0001
0010
1000
0000
,
1000
0100
0001
0000
1000
0001
0010
0000
,
0001
0000
1000
0000
0010
1000
0010
0000
,
0001
0000
0100
0000
1000
0100
0001
0000
,
0010
0000
1000
0000
0010
1000
0010
0000
,
0001
0010
0100
1000
,
0010
1000
0010
0000
0001
0010
0001
0000
,
0100
1000
0100
0000
0010
0100
0010
0000
,
0001
1000
0010
0100
0001
0010
1000
0010
,
2002
0000
0000
3003
,
2002
3003
0000
0000
0001
0000
0000
0101
0000
0000
1000
0000
0000
1100
0000
0000
,
0001
0000
0000
0011
0000
0000
1000
0000
0000
1010
0000
0000
0200
0000
0300
0000
,
0001
0000
1000
0000
0010
0100
0010
0000
,
0001
0010
0001
0000
0010
1000
0010
0000
,
2200
3300
0000
0000
0001
0000
0000
0101
0000
0000
1000
0000
0000
1100
0000
0000
,
0001
0000
0000
0011
0000
0000
1000
0000
0000
1010
0000
0000
0200
0000
0300
0000
,
0001
0000
1000
0000
0010
1000
0010
0000
,
0010
0001
0010
0000
0010
0100
0010
0000
,
2002
3003
0000
0000
0101
0000
0000
0101
0000
0000
1010
0000
0000
1010
0000
0000
,
1100
0000
0000
1100
0000
0000
0011
0000
0000
0011
0000
0000
0002
0000
0003
0000
,
1000
0010
1000
0001
0100
0010
1000
0001
,
0010
1000
0010
0100
0010
0001
0010
1000
,
2002
3003
0000
0000
1100
0000
0000
1100
0000
0000
0011
0000
0000
0011
0000
0000
,
0101
0000
0000
0101
0000
0000
1010
0000
0000
1010
0000
0000
2000
0000
3000
0000
,
0001
1000
0010
1000
0010
0001
0010
0000
,
0010
1000
0010
0100
0001
0010
0100
0010
,
2002
0000
0000
0000
,
0000
0000
0000
0000
,
3003
0000
0000
0000
;

//--------------- dance-single - XLev450X-ESP ----------------
#NOTES:
     dance-single:
     XLev450X:
     Hard:
     16:
     0,0,0,0,0:
0000
0000
0000
0000
,
0000
0000
0000
0000
,
0000
0000
0000
0000
,
0000
0000
0000
0000
,
0000
0000
0000
0000
,
0000
0000
0000
0000
,
0000
0000
0000
0000
,
0000
0000
0000
0000
,
0000
0000
0000
0000
,
0000
0000
0000
0000
,
0010
0000
1000
0001
0000
0010
1000
0001
,
0100
0000
0000
0000
1000
0000
0001
0000
0000
0000
0010
0000
1000
0000
0010
0100
,
1000
0000
0001
0100
0000
1000
0010
1000
,
0010
0000
0000
0000
0001
0000
0010
0000
0000
0000
0100
0000
1000
0000
0001
0100
,
1000
0010
1000
0000
0010
0100
0010
0000
,
0001
0010
0001
0000
0100
1000
0100
0000
,
0001
1000
0010
0100
0001
0010
0100
0010
,
1000
0001
1000
0010
0100
0000
1000
0010
,
1001
0000
1001
0000
1001
0000
0001
1000
,
0001
0000
0010
1000
0010
0100
0001
0010
,
0100
0000
1000
0010
1000
0010
1000
0010
,
0100
0001
0010
0100
1000
0001
0010
0000
,
0010
1000
0100
0010
0001
0010
0100
0001
,
1000
0010
1000
0001
0100
1000
0010
1000
,
0001
0100
1000
0100
0010
0001
1000
0001
0100
0010
0001
1000
0010
0001
0010
0100
,
2000
0000
0001
0001
0000
0001
0001
3001
,
0100
0000
1010
1000
0000
0011
0001
0000
,
1100
0000
0000
1000
0000
0000
0010
0000
0000
0100
0000
0000
0001
0000
1000
0000
,
0100
0000
0011
0001
0000
1010
1000
0000
,
0101
0000
0000
1000
0000
0000
0100
0000
0010
0000
0010
0000
0001
1000
0001
0000
,
0100
0000
1010
0001
0000
0011
1000
0000
,
0110
0000
0000
0001
0000
0000
1000
0000
0000
0100
0000
0000
0010
0000
0001
0000
,
1000
0000
0000
0000
0010
0000
0000
0000
0100
0000
0000
0100
0000
0000
0001
0000
,
0000
1000
0010
0000
1000
0000
0100
0000
,
1001
0000
0001
0010
1000
0010
0100
1000
,
0001
0000
0000
1000
0010
0000
1000
0000
0000
0001
0010
0000
0100
0000
1000
0000
,
0010
0001
0010
0100
0001
1000
0100
0010
,
1001
0000
0000
0110
0000
0000
1001
0000
0002
0000
0000
0000
1003
0000
0010
0000
,
0101
0000
1000
0100
0001
0100
0010
0001
,
1000
0000
0000
0100
0010
0000
0001
0000
0000
0100
0010
0000
1000
0000
0001
0000
,
0020
0000
0000
0000
,
0130
0000
0000
0000
1000
0000
0000
0000
0010
0000
0000
1000
0000
0000
0001
0000
,
1000
0000
0000
0000
0001
0000
0000
0100
0000
0000
0010
0000
0000
1000
0000
0000
,
0001
0000
0000
0100
0000
0000
1000
0000
0000
0001
0000
0000
0010
0100
0001
1000
,
0100
0010
0001
0000
0100
0000
0000
0001
0000
0000
1000
0000
0000
0010
0000
0000
,
0100
0000
0000
1000
0000
0000
0001
0000
0000
1000
0000
0000
0010
0001
0100
1000
,
0001
1000
0100
0010
0001
0000
0000
1000
0000
0000
0010
0000
0000
1000
0000
0000
,
0100
0000
0000
0001
0000
0000
0010
0000
0000
1000
0000
0000
0010
0000
0100
1000
,
0001
0100
1000
0100
0011
0000
0000
0101
0000
0000
1010
0000
0000
0110
0000
0000
,
1001
0000
0000
1100
0000
0000
1010
0000
0000
1001
0000
0000
1000
0001
1000
0001
,
0010
0100
0001
0000
1000
0100
0020
0000
,
0130
0000
1000
0001
0000
1000
0010
0000
,
0200
0000
0300
0100
0000
0010
0000
0000
,
0200
0000
0300
0100
0000
0010
1000
0001
,
0000
0010
0100
0000
0010
0001
0200
0000
,
0310
0000
1000
0001
0000
0100
0001
0000
,
0020
0000
0030
0100
0000
0100
0000
0000
,
1000
0010
1000
0001
0010
0001
0100
0000
,
0010
1000
0010
0001
0010
0100
0001
0000
,
1000
0100
0010
1000
0010
0100
1000
0000
,
0001
0100
0001
1000
0100
0010
0001
0000
,
0100
0010
0001
0010
1000
0010
0100
0000
,
0001
0000
0010
0000
0100
0000
1000
0000
0010
0000
0100
0000
0001
1000
0001
0000
,
1000
0000
0010
0000
0100
0000
0001
0000
1000
0000
0100
0000
0010
0001
0010
0000
,
0100
0000
1000
0000
0010
0000
0100
0000
0001
0000
1000
0000
0100
0010
0100
0000
,
1000
0000
0010
0000
0001
0000
0010
0000
0100
0000
0001
0000
1000
0100
1000
0000
,
0001
0000
0100
0000
0010
0000
1000
0000
0001
0000
0010
0100
0000
0100
1000
0000
,
0010
0000
0100
0000
0001
0000
1000
0000
0100
0000
0010
0001
0000
0001
1000
0000
,
0010
0000
0100
0000
0001
1000
0001
0000
0010
0000
0100
1000
0000
1000
0010
0000
,
0100
0000
0001
0000
1000
0100
1000
0000
0010
0000
0100
0001
0000
0001
1000
0000
,
0100
0010
0001
0010
1000
0010
0100
0010
,
0001
0100
1000
0100
0010
0100
0001
1000
,
0001
0010
0100
1000
0001
0010
0100
1000
0001
0010
0100
1000
0001
0010
0100
1000
,
0002
0000
1000
1000
0000
1000
1000
1003
,
0001
0000
0000
0000
1000
0000
0000
0010
0000
0000
0100
0000
0000
1000
0000
0000
,
0001
0000
0000
0010
0000
0000
1000
0000
0000
0001
0000
0000
0100
0000
0001
1000
,
0002
0000
1003
0000
0010
0000
0001
0000
0010
0000
1000
0000
0001
0100
0001
0000
,
0010
0000
1000
0000
0010
0000
0100
0000
1000
0000
0001
0000
1000
0010
1000
0000
,
0100
0000
0000
0000
0011
0000
0000
0101
0000
0000
1010
0000
0000
1100
0000
0000
,
0011
0000
0000
1010
0000
0000
0110
0000
0000
1001
0000
0000
1000
0010
0100
0001
,
1000
0000
0000
0000
0100
0000
0010
0000
0001
0000
0100
0000
0010
1000
0010
0000
,
0001
0000
0010
0000
0100
0000
0001
0000
1000
0000
0100
0000
0010
0001
0010
0100
,
1000
0000
0000
0000
1000
0010
0000
1000
0100
0000
0010
0001
0000
0100
0001
0000
,
1000
0100
0000
0010
0001
0000
1000
0010
0000
0100
0001
0000
1000
0001
0010
0100
,
1000
0000
0010
0000
0100
0000
0001
0000
1000
0000
0100
0000
0010
0001
0010
0000
,
0100
0000
1000
0000
0001
0000
0100
0000
1000
0000
0100
0000
0010
1000
0010
0000
,
0100
0000
0000
0000
0001
0010
0000
0001
0100
0000
0010
1000
0000
0100
1000
0000
,
0010
0100
0000
0001
1000
0000
0100
0010
0000
0001
1000
0000
0010
1000
0001
0100
,
0010
0010
1000
1000
0001
0001
0010
0010
,
0100
1000
0100
0000
0010
0001
0010
0000
0100
0000
1000
0000
1000
0000
0001
0100
,
0020
0000
0000
0000
,
0000
0000
0000
0000
,
0030
0000
0000
0000
;
