#TITLE:Bloody Tears (IIDX EDITION) (RGR-Special);
#ARTIST:DJ YOSHITAKA;
#GENRE:HARD RENAISSANCE;
#MUSIC:Bloody Tears (IIDX EDITION) (RGR-Special).ogg;
#BANNER:Bloody Tears (IIDX EDITION) (RGR-Special).png;
#BACKGROUND:Bloody Tears (IIDX EDITION) (RGR-Special)-bg.png;
#CDTITLE:./CDTitles/bm IIDX 13 DistorteD.png;
#SAMPLESTART:28.235;
#SAMPLELENGTH:15;
#BPMS:0=170;
#STOPS:176=1.059;
#BGSTAGE:29;

//--------------- dance-single - XLev450X respects AJR2k ----------------
#NOTES:
     dance-single:
     XLev450X respects AJR2k:
     Challenge:
     15:
     0,0,0,0,0:
0000
0000
0000
0000
,
0000
0000
0000
0000
,
0000
0000
0000
0000
,
0000
0000
0000
0000
,
0000
0000
0000
0000
,
0000
0000
0000
0000
,
0001
0000
1000
0000
0010
0000
0100
0000
0010
0000
0001
1000
0001
0000
0010
0000
,
0100
0000
0001
0000
0100
0010
0001
0000
1000
0000
0010
0000
1000
0000
0010
1000
,
0010
0000
0100
0001
0100
0000
0001
0100
0001
0000
0010
1000
0010
0000
1000
0010
,
1000
0000
0100
0001
0100
1000
0001
1000
0100
1000
0001
1000
0001
1000
0010
0001
,
1000
0001
1000
0010
0100
1000
0001
1000
,
0010
1000
0010
0100
0010
0001
1000
0001
0010
1000
0001
0100
1000
0000
0001
1000
,
0001
0000
1000
0010
0000
0000
0100
0000
0100
0000
0100
0000
0001
1000
0001
0000
,
0010
0000
0000
0010
0000
0000
0010
0000
0100
0000
1000
0000
0001
0000
0100
0000
,
0010
0000
0100
0010
0000
0100
0000
0010
0001
0100
1000
0001
0100
1000
0100
0000
,
0011
0000
0000
0011
0000
0000
1001
0000
1100
0000
0000
1100
0000
0000
0001
0000
,
1000
0000
0010
0100
0000
0010
0000
0001
0100
0000
0010
0000
1000
0001
1000
0000
,
0010
0000
0000
0010
0000
0000
0010
0000
1000
0000
0100
0000
0001
1000
0001
0000
,
1000
0100
0010
0100
0000
0010
0100
0000
0010
0000
1000
0000
0001
0000
0100
0000
,
0010
0000
0100
0000
0010
0000
1000
0000
0001
1000
0001
0100
0010
1000
0100
0010
,
0001
0000
0000
0001
0000
0000
1000
0000
0010
0000
0000
0100
0000
0000
1000
0000
,
0001
0000
0000
0100
0000
0000
0010
0000
1000
0001
0010
0100
1000
0100
0001
1000
,
0100
0000
0000
0001
0000
0000
1000
0000
0001
0000
0000
0100
0000
0000
0001
0000
,
1000
0000
0000
0010
0000
0000
0100
0000
1000
0000
0001
0000
0010
0000
1000
0100
,
0001
0000
0000
1000
0000
0000
0001
0000
0100
0000
0000
0010
0000
0000
1000
0000
,
0001
0000
0000
0100
0000
0000
0010
0000
0001
0010
0100
1000
0100
0010
0001
0010
,
0100
0000
0000
0010
0000
0000
1000
0000
0001
0000
0000
1000
0000
0000
0010
0000
,
0100
0000
0000
0001
0000
0000
0010
1000
0200
0000
0010
0000
0310
0000
0000
0000
,
0001
1000
0001
0100
0010
0001
1000
0000
,
0001
1000
0010
0100
1000
0010
0100
0001
,
0010
0101
0010
1010
,
0010
1000
0100
0001
0010
1000
0001
0010
,
1001
0101
1010
0110
,
0010
0001
0010
1000
0100
0001
0010
1000
,
0101
1010
0110
0001
,
0001
0100
1000
0100
0010
0001
1000
0100
0001
1000
0100
0001
0010
0100
1000
0100
,
0001
1100
0011
0000
1000
1000
0001
0000
,
0110
0000
0101
0000
0010
1000
0001
0000
,
0100
0100
1100
0000
0001
0000
0010
0000
,
0100
0010
1000
0000
0100
0010
1000
0000
,
1000
0010
0100
0010
0100
0010
1000
0001
,
0100
0010
1000
0001
0100
0010
1000
0001
,
0100
0010
0100
0010
1000
0001
0100
0010
,
1000
0100
0011
0011
1100
0000
1001
0220
,
0330
0000
0001
1000
0001
0000
1000
0010
0000
0000
0100
0000
0100
0000
0100
0000
,
0001
1000
0001
0000
0010
0000
0000
0010
0000
0000
0010
0000
0000
0000
1000
0000
,
0001
0000
0100
0000
0010
0000
0100
0010
0000
0100
0000
0010
0001
0100
1000
0001
,
0100
1000
0100
0000
0011
0000
0000
0011
0000
0000
1001
0000
1100
0000
0000
1100
,
0000
0000
0001
0000
1000
0000
0010
0100
0000
0010
0000
0001
0100
0000
0010
0000
,
1000
0001
1000
0000
0010
0000
0000
0010
0000
0000
0010
0000
1000
0000
0100
0000
,
0001
1000
0001
0000
1000
0100
0010
0100
0000
0010
0100
0000
0010
0000
1000
0000
,
0001
0000
0100
0000
0010
0000
0100
0000
0010
0000
1000
0000
0001
1000
0001
0100
,
0010
1000
0100
0010
0001
0000
0000
1000
0000
0000
0010
0000
0100
0000
0000
0001
,
0000
0000
1000
0000
0010
0000
0000
0100
0000
0000
1000
0000
0010
0000
0001
0010
,
0001
0010
1000
0100
0001
0000
0000
0100
0000
0000
1000
0000
0001
0000
0000
0010
,
0000
0000
1000
0000
0100
0000
0000
0010
0000
0000
1000
0000
0010
1000
0010
0001
,
1000
0100
0010
0001
0010
0000
0000
1000
0000
0000
0001
0000
0010
0000
0000
1000
,
0000
0000
0010
0000
0001
0000
0000
0100
0000
0000
0001
0000
1000
0010
0100
0001
,
0010
1000
0100
0001
1100
0000
0000
1100
0000
0000
1001
0000
0110
0000
0000
0110
,
0000
0000
0110
0000
0101
0000
0000
0101
0000
0000
1001
0000
1000
0002
1000
0000
,
2000
3003
0000
0000
;
