#TITLE:Bling-Bang-Bang-Born;
#ARTIST:Covered by uno(IOSYS) feat. Fra;
#GENRE:IIDX EDITION;
#MUSIC:Bling-Bang-Bang-Born.ogg;
#BANNER:Bling-Bang-Bang-Born.png;
#BACKGROUND:Bling-Bang-Bang-Born-bg.png;
#CDTITLE:./CDTitles/bm IIDX 32 Pinky Crush.png;
#SAMPLESTART:62.866;
#SAMPLELENGTH:15;
#OFFSET:-0.382;
#BPMS:0=157;
#BGSTAGE:31;

//--------------- dance-single - XLev450X-bSP ----------------
#NOTES:
     dance-single:
     XLev450X:
     Beginner:
     3:
     0,0,0,0,0:
0000
0000
0000
0000
,
0000
0000
0000
0000
,
0000
0000
0000
0000
,
0000
0000
0000
0000
,
0000
0000
0000
0000
,
0000
0000
0000
0000
,
0000
0000
0000
0000
,
0000
0000
0000
0000
,
0000
0000
0000
0000
,
0000
1000
0000
0001
,
0000
1000
0000
0010
,
0000
0100
0000
0001
,
0000
0010
0000
1000
,
0000
0001
0000
0100
,
0000
0010
0000
0001
,
0000
1000
0000
0001
,
0000
1000
0000
0000
,
0000
0001
0001
0001
,
0000
1000
1000
1000
,
0000
0010
0010
0010
,
0000
0100
0100
0100
,
0000
0001
0000
1000
,
0000
0001
0000
0000
,
0000
1000
0000
0010
,
0000
0100
0000
0000
,
0000
0001
1000
0001
,
0000
0010
1000
0010
,
0000
0100
0001
0100
,
0000
0010
0100
0010
,
0000
0000
0001
0000
,
1000
0000
0001
0100
,
0000
0000
0010
0000
,
1000
0000
0001
0100
,
0000
0010
0000
0010
,
0000
0010
0000
0000
,
0000
1000
0000
1000
,
0000
1000
0000
0000
,
0000
0001
0000
0001
,
0000
0001
0000
0000
,
0000
0010
0000
0100
,
0000
0010
0000
0000
,
0000
1000
1000
1000
,
0000
0001
0001
0001
,
0000
0010
0010
0010
,
0000
0100
0100
0100
,
0000
1000
0100
1000
,
0000
0010
0001
0010
,
0000
1000
0000
0001
,
0000
1000
0000
0000
,
0000
0000
0010
0000
,
0010
0000
1000
0000
,
0001
0000
0100
0000
,
0010
1000
0001
0100
,
0000
0000
0001
0000
,
1000
0000
0001
0000
,
0100
0000
1000
0000
,
0010
0100
0001
1000
;

//--------------- dance-single - XLev450X-BSP ----------------
#NOTES:
     dance-single:
     XLev450X:
     Easy:
     5:
     0,0,0,0,0:
0000
0000
0000
0000
,
0000
0000
0000
0000
,
0000
0000
0000
0000
,
0000
0000
0000
0000
,
0000
0000
0000
0000
,
0000
0001
0000
1000
,
0000
0001
0000
0010
,
0000
0100
0000
0010
,
0000
2002
0000
0000
,
3003
0001
0001
0001
,
0000
1000
1000
1000
,
0000
0010
1000
0010
,
0100
0001
0000
1000
,
0000
0001
0001
0100
,
0000
0010
0010
1000
,
0000
0100
0001
1000
,
0000
0010
0100
1000
,
0000
0001
1000
0001
,
0001
1000
0000
0010
,
0000
0000
0100
0000
1000
0000
0001
1000
,
0100
0010
1000
0010
,
0000
1000
0001
0001
,
1000
0000
0100
0100
,
0010
0000
0100
0001
,
1000
0000
0010
0000
0010
0000
1000
0100
,
0010
0001
0001
1000
,
0001
1000
0100
0001
,
1000
0000
1000
0010
,
0100
0000
0000
0000
0010
0000
0001
0100
,
0010
1000
0100
0001
,
0000
1000
0001
0100
,
0000
0010
1000
0001
,
0100
0000
0010
0000
1000
0100
0002
0000
,
0103
1000
1000
0001
,
0100
0010
0000
1000
,
0000
0001
1000
0010
,
1000
0202
0000
0000
,
0303
1000
1000
0001
,
0000
0100
0010
1000
,
0000
0001
1000
0010
,
0100
2002
0000
0000
,
3003
1000
1000
0001
,
0100
0000
0010
0000
1000
0000
0001
1000
,
0001
0100
0010
1000
,
0001
0000
0100
0000
0010
0000
0001
0010
,
0001
1000
0100
0001
,
1000
0000
0010
0000
0100
0000
0001
1000
,
0001
0000
0100
0000
0000
0010
1000
0000
,
0001
0000
0200
0000
0000
0000
0000
0300
,
0000
1000
1000
0001
,
0100
0000
0010
0001
0010
0000
1000
0100
,
1000
0000
0001
1000
,
0010
0000
0100
0010
0100
0000
0010
1000
,
0010
0000
0001
1000
,
0001
0000
0100
0001
0100
0000
1000
0010
,
1000
0000
0010
1000
,
0001
0000
1000
0001
1000
0010
0100
1000
,
0001
2002
0000
0000
,
0000
0000
0000
3003
;

//--------------- dance-single - XLev450X-DSP ----------------
#NOTES:
     dance-single:
     XLev450X:
     Medium:
     10:
     0,0,0,0,0:
0000
0000
0000
0000
,
0000
0000
0000
0000
,
0000
0000
0000
0000
,
0000
0000
0000
0000
,
0000
0000
0000
0000
,
0000
0000
0001
0000
1000
0000
0010
0001
,
0100
0010
1000
0000
0001
0000
0010
0001
,
0010
0000
1000
0000
0010
0000
0100
0001
,
1000
0010
0200
0000
0000
0000
0000
0000
,
0300
0000
0000
0000
0001
0000
0000
0001
0000
0000
0001
0000
0000
0000
1000
0000
,
0010
0000
0100
0000
1000
0000
0000
1000
0000
0000
1000
0000
0000
0000
0010
0000
,
0100
0010
0000
0001
1000
0001
0000
0100
,
0010
1000
0001
0100
0010
1000
0001
1000
,
0010
0000
0000
0000
0001
0000
0000
0001
0000
0000
0001
0000
0000
0001
0000
0000
,
0010
0000
0100
0000
0010
0000
0000
1000
0000
0000
1000
0000
0000
1000
0000
0000
,
0010
0000
0100
0000
0010
0000
0000
0100
0000
0000
0100
0000
0000
0100
0000
0000
,
1000
0000
0010
0000
0100
0000
0000
0001
0000
0000
1000
0000
0000
0010
0000
0000
,
0100
0001
1000
0000
0010
0000
0100
0010
,
0001
0010
1000
0000
0001
0000
0100
0010
,
1000
0000
0001
0000
0010
0000
0001
0100
,
0001
1000
0010
0000
1000
0000
0010
1000
,
0010
0001
0100
0010
,
0000
1000
0001
0000
0100
0000
0010
0000
,
0000
0001
0100
0000
1000
0000
0010
0000
,
0000
1000
0010
0100
0001
0000
1000
0000
,
0000
0000
0010
0000
0100
0000
0001
0010
,
0001
0000
1000
0000
0010
0000
0100
1000
,
0100
0000
0010
0000
0100
0000
0001
1000
,
0001
0100
0001
0010
,
0000
0000
1000
0000
0010
0000
0100
0001
,
1000
0000
0010
0000
1000
0000
0001
0100
,
0010
0001
1000
0010
,
1000
0000
0001
0100
0010
1000
0002
0000
,
1000
0003
1000
0000
0001
0000
1000
0000
,
0010
0100
0001
1000
,
0010
1000
0010
0000
0100
0001
0100
0000
,
0010
0000
1000
0000
0001
0100
0020
0000
,
0000
0030
0001
0000
1000
0000
0010
0000
,
0100
1000
0001
0100
,
0010
0000
0001
1000
0010
0100
0001
1000
,
0010
0100
0020
0000
0000
0000
0030
1000
,
0001
0000
0100
0000
0001
0000
0000
0001
0000
0000
0001
0000
0010
0000
0000
0010
,
0000
0000
0010
0000
0100
0000
0000
0100
0000
0000
0100
0000
0010
0000
0000
0000
,
0001
0000
0000
0000
1000
0000
0000
1000
0000
0000
0001
0000
0100
0000
0000
0010
,
0000
0000
0010
0000
1000
0000
0000
0001
0000
0000
0100
0000
0010
0000
0000
0000
,
1000
0000
0000
0000
0001
0000
0000
0001
0000
0000
0001
0000
1000
0000
0000
1000
,
0000
0000
1000
0000
0010
0000
0000
0010
0000
0000
0010
0000
1000
0000
0000
0000
,
0001
0010
0001
0000
1000
0100
1000
0000
,
0011
2200
0000
0000
,
3300
0000
0100
0000
0100
0000
0001
1000
,
0010
0000
0100
0000
0001
0000
0010
0001
,
1000
0000
0001
0000
0001
0000
0100
0010
,
1000
0010
0100
0000
0001
0000
1000
0000
,
0010
0000
0000
0000
0000
0000
0001
1000
,
0001
0100
0010
1000
0001
0100
0010
0001
,
1000
0000
0000
0000
0000
0000
0001
1000
,
0010
0000
0100
0000
0001
0000
1000
0000
0010
0000
0100
0000
0010
0000
1000
0001
,
0100
2002
0000
0000
,
0000
0000
0000
3003
;

//--------------- dance-single - XLev450X-ESP ----------------
#NOTES:
     dance-single:
     XLev450X:
     Hard:
     14:
     0,0,0,0,0:
0000
0000
0000
0000
,
0000
0000
0000
0000
,
0000
0000
0000
0000
,
0000
0000
0000
0000
,
0000
0000
0000
0000
,
0000
0000
0000
0000
1000
0000
0000
0000
0001
0000
0000
0000
0010
0000
0000
1000
,
0000
0000
0001
0000
0100
0000
0000
0000
0010
0000
0000
0000
0001
0000
0000
1000
,
0000
0000
0010
0000
0100
0000
0000
0000
0001
0000
0000
0000
1000
0000
0000
0001
,
0000
0100
2002
0000
0000
0000
0000
0000
,
3003
0000
0000
0000
0001
0000
0000
0001
0000
0000
0001
0000
0000
0000
1000
0000
,
0010
0000
0100
0000
0001
0000
0000
1000
0000
0000
1000
0000
0000
0000
0010
0000
,
0100
0000
0001
0000
0000
0000
1000
0001
0010
0000
0100
0000
0000
0000
0001
0000
,
0010
0001
0010
0000
1000
0000
0010
0000
0100
0000
0001
0000
1000
0000
0010
0000
,
0100
0000
0000
0000
0001
0000
0000
1000
0000
0000
0010
0000
0100
0000
0000
0000
,
0001
0000
0000
0000
1000
0000
0000
0001
0000
0000
0100
0000
0010
0000
1000
0000
,
0001
0000
0100
0000
0010
0000
0000
1000
0000
0000
0001
0000
0100
0000
0000
0010
,
1000
0000
0001
0000
0100
0000
0000
0001
0000
0000
1000
0000
0010
0000
0000
0100
,
0000
0001
1000
0000
0010
0000
0100
0001
,
1000
0000
0010
0000
0100
0000
0000
0000
1000
0000
0000
0000
0010
0000
0001
0010
,
0000
1000
0000
0010
1000
0000
0000
0000
0100
0000
0000
0000
0001
0000
1000
0000
,
0010
0000
0100
0000
0001
0000
0000
0000
1000
0000
0000
0000
0010
0001
0000
1000
,
0010
0100
0001
0000
1000
0001
0100
0000
,
0010
0000
0000
0000
1000
0000
0000
0000
0010
0000
0100
0000
0010
0000
0000
0001
,
0000
1000
0001
1000
0010
1000
0001
0100
,
0010
0001
1000
0010
0100
0010
1000
0000
,
0000
0000
0010
0001
1000
0000
0010
0100
,
1000
0000
0000
0000
0010
0000
0001
0010
0001
0000
1000
0010
1000
0000
0010
0000
,
0100
0000
1000
0001
0100
0010
1000
0000
,
0001
0000
0100
0010
1000
0001
1000
0000
,
0010
0000
1000
0010
0100
0001
1000
0000
,
0010
0000
1000
0001
0100
0010
1000
0000
,
0101
0000
0010
1000
0010
0000
0100
0001
,
1000
0000
0100
0000
0001
1000
0001
0000
0100
0010
1000
0000
0002
0000
0000
0000
,
1000
0003
1000
0001
0100
0010
1000
0001
,
0100
0010
1000
0000
0011
0000
1100
0000
,
0010
0001
1000
0000
0010
0100
1000
0000
,
0001
0000
0000
0000
0200
0000
0000
0300
0001
0000
1000
0000
0020
0000
0000
0000
,
0000
0030
1000
0001
0010
0100
0001
1000
,
0010
0100
0001
0010
1000
0010
0100
0001
,
0010
0000
1000
0000
0001
0010
0001
0000
1000
0100
1000
0000
0010
0001
1000
0100
,
0001
0010
0100
1000
0200
0000
0000
0000
0000
0000
0000
0000
0300
0000
0001
0000
,
1000
0000
0010
0000
0001
0000
0000
0001
0000
0000
0001
0000
1000
0000
0000
1000
,
0000
0000
1000
0000
0010
0000
0000
0010
0000
0000
0100
0000
0010
0000
1000
0100
,
0001
0000
0100
0000
1000
0000
0000
1000
0000
0000
1000
0000
0010
0000
0000
0010
,
0000
0000
0010
0000
0001
0000
0000
1000
0000
0000
0010
0000
0100
0000
0001
0100
,
1000
0000
0001
0000
0100
0000
0000
0010
0000
0000
0010
0000
1000
0000
0000
0001
,
0000
0000
0001
0000
0100
0000
0000
0010
0000
0000
1000
0000
0001
0000
0000
0000
,
0100
0001
1000
0000
0010
0100
1000
0000
,
0101
0000
0000
0000
1010
0000
0000
0000
0001
0000
0000
0000
1000
0000
0000
0010
,
0000
0000
0100
0000
0001
0000
0000
0000
1000
0000
0000
0000
0100
0010
0100
1000
,
0010
1000
0001
0100
0010
0000
1000
0000
0001
0000
0100
0000
0010
0000
1000
0000
,
0001
0000
0000
0000
0101
0000
0000
0000
1010
0000
0000
0000
0010
1000
0010
0100
,
0000
0100
0001
0010
0001
0000
1000
0000
0001
0000
0100
0000
0010
0000
0100
1000
,
0001
0000
0000
0000
0101
0000
0000
0000
1010
0000
0000
0000
0010
1000
0100
0010
,
0001
0100
0010
1000
0001
0000
1000
0000
0001
0000
0100
0000
0010
0000
1000
0000
,
0001
0000
0000
0000
1001
0000
0000
0000
0110
0000
0000
0000
0001
1000
0010
1000
,
0000
1000
0100
0010
0001
0000
1000
0000
0001
0000
0100
0000
0010
0000
1000
0010
,
0001
0000
1000
0001
1000
0001
1000
0001
,
1000
0001
1000
0001
1000
0001
1001
0000
;
