#TITLE:Billie Jean;
#ARTIST:XL Dog;
#MUSIC:Billie Jean.ogg;
#BANNER:Billie Jean.png;
#BACKGROUND:Billie Jean-bg.png;
#SAMPLESTART:42.689;
#SAMPLELENGTH:15;
#OFFSET:0.876;
#BPMS:0=137.676;
#BGSTAGE:4;
#DISPLAYBPM:137;

//--------------- dance-single - XLev450X-bSP ----------------
#NOTES:
     dance-single:
     XLev450X:
     Beginner:
     2:
     0,0,0,0,0:
0000
0000
0000
0000
,
0000
0000
0000
0000
,
0000
0000
0000
0000
,
0000
0000
0000
0000
,
0000
0000
0000
0000
,
1000
0000
0100
0000
,
0100
0000
0000
0000
,
0001
0000
0010
0000
,
0010
0000
0000
0000
,
0001
0000
0001
0000
,
0001
0000
0000
0000
,
1000
0000
0100
0000
,
0010
0000
0000
0000
,
1000
0000
0000
0000
,
0100
0000
0000
0000
,
0010
0000
0000
0000
,
0001
0000
0000
0000
,
1000
0000
1000
0000
,
0001
0000
0000
0000
,
1000
0000
0100
0000
,
0001
0000
0000
0000
,
1000
0000
0100
0000
,
0100
0000
0000
0000
,
0001
0000
0010
0000
,
1000
0000
0000
0000
,
0100
0000
0010
0000
,
0100
0000
0000
0000
,
0010
0000
0010
0000
,
0100
0000
0000
0000
,
1000
0000
0100
0000
,
1000
0000
0001
0000
,
1001
0000
0000
0000
,
0110
0000
0000
0000
,
1000
0000
0001
0000
,
0100
0000
0010
0000
,
0110
0000
0000
0000
,
1001
0000
0000
0000
,
1000
0000
0100
0000
,
0010
0000
0000
0000
,
0001
0000
0010
0000
,
0100
0000
0000
0000
,
0001
0000
0100
0000
,
0001
0000
0000
0000
,
1000
0000
0100
0000
,
0010
0000
0000
0000
,
0001
0000
1000
0000
,
0010
0000
0000
0000
,
1000
0000
0010
0000
,
0001
0000
0000
0000
,
0010
0000
0100
0000
,
0010
0000
0000
0000
,
1000
0000
0001
0000
,
0100
0000
0000
0000
,
0100
0000
0010
0000
,
0100
0000
0000
0000
,
0010
0000
0001
0000
,
0100
0000
0000
0000
,
1000
0000
0100
0000
,
0001
0000
1000
0000
,
1001
0000
0000
0000
,
0110
0000
0000
0000
,
1000
0000
0001
0000
,
0001
0000
1000
0000
,
0110
0000
0000
0000
,
1001
0000
0000
0000
,
1000
0000
0000
0000
,
0001
0000
0000
0000
,
0100
0000
0000
0000
,
0010
0000
0000
0000
,
1000
0000
0000
0000
,
0001
0000
0000
0000
,
0100
0000
0000
0000
,
0010
0000
0000
0000
,
1001
0000
0000
0000
;

//--------------- dance-single - hamsand210-BSP ----------------
#NOTES:
     dance-single:
     hamsand210:
     Easy:
     7:
     0,0,0,0,0:
0000
0000
0000
0000
,
0000
0000
0000
0000
,
0000
0000
0000
0000
,
0000
0000
0000
0000
,
0000
0000
0000
0000
,
2000
0001
3100
1000
,
0200
0010
1300
0100
,
2000
0001
3100
0010
,
0200
0010
0301
1000
,
0002
1003
0001
0010
,
0002
1000
0103
1001
,
2000
0010
3100
1000
,
0020
0100
1030
1001
,
1000
0000
0000
1000
0000
0000
1001
0000
,
0100
0000
0000
0010
0000
0000
1010
0000
,
0200
0001
0301
0001
,
2000
0010
3100
1001
,
1000
0100
1000
1000
,
0001
0010
0001
0010
,
1001
0010
0100
0100
,
1001
0100
0010
0010
,
1000
0001
0100
0010
,
0100
0001
1000
0100
,
1000
0010
0100
0001
,
2002
0000
0000
3003
,
0100
1001
0010
0010
,
0100
1001
0010
0010
,
0010
1001
0010
0010
,
0100
1001
0010
0010
,
1000
0010
0100
0001
,
1001
0100
1001
0100
,
1001
0000
0000
0000
,
1001
0100
1000
0100
,
1001
0100
0001
0100
,
1001
0100
1000
0100
,
1001
0100
0001
0100
,
1001
0100
1000
0100
,
2000
0001
3100
1000
,
0200
0010
1300
0100
,
2000
0001
3100
0010
,
0200
0010
0301
1000
,
0002
1003
0001
0010
,
0002
1000
0103
1001
,
2000
0010
3100
1000
,
0020
0100
1030
1001
,
0001
0001
1000
1000
,
0010
0010
0100
0100
,
1001
0001
0010
0001
,
1001
1000
0010
1001
,
0001
1001
0100
0010
,
0010
1001
1000
1000
,
1001
0001
1001
1000
,
0100
1000
0001
0001
,
0100
1001
0010
0010
,
0100
1001
0010
0010
,
0010
1001
0010
0010
,
0100
1001
0010
0010
,
1000
0010
0100
0001
,
1001
0100
1001
0100
,
1001
0000
0000
0000
,
1001
0100
1000
0100
,
1001
0100
0001
0100
,
1001
0100
1000
0100
,
1001
0100
0001
0100
,
1001
0100
1001
0100
,
1000
2000
0000
3000
,
0001
0002
0000
0003
,
0100
0200
0000
0300
,
0010
0020
0000
0030
,
1000
2000
0000
3000
,
0001
0002
0000
0003
,
0100
0200
0000
0300
,
0010
0020
0000
0030
,
1001
0000
0000
0000
;

//--------------- dance-single - XLev450X-DSP ----------------
#NOTES:
     dance-single:
     XLev450X:
     Medium:
     9:
     0,0,0,0,0:
0000
0000
0000
0000
,
0000
0000
0000
0000
,
0000
0000
0000
0000
,
0000
0000
0000
0000
,
0000
0000
0000
0000
,
2000
0000
0001
3000
0100
0010
1000
0001
,
0200
0000
0010
0300
1000
0001
0100
0010
,
2000
0000
0001
3000
0100
0001
1000
0010
,
0200
0000
0010
0300
1000
0001
0010
0100
,
2000
0000
0001
3000
0001
1000
0010
1000
,
0002
0000
1000
0003
0100
0010
1000
0100
,
2000
0000
0010
3000
0100
0010
1000
0100
,
0020
0000
0001
0030
1000
0001
0100
0010
,
1000
0000
0000
1001
0000
0000
1001
0000
,
0101
0000
0000
1010
0000
0000
1010
0000
,
0200
0000
0001
0300
1000
0100
0010
0001
,
2000
0000
0001
3000
0100
0010
1000
0001
,
1000
0000
0100
0000
1000
0001
1000
0000
,
0001
0000
0010
0000
0001
0100
0010
0000
,
1000
0000
0010
0000
0100
0010
0100
0000
,
0001
0000
0100
0000
0010
0100
0010
0000
,
1000
0001
0100
0010
,
0100
0001
1000
0100
,
1000
0010
0100
0001
,
0100
0000
0010
0000
0100
0000
0010
0000
0100
0000
0000
0100
0000
0000
0100
0000
,
0000
0000
1001
0000
0010
0100
0010
0000
,
0100
0000
1001
0000
0010
0100
0010
0000
,
0010
0000
1001
0000
0010
0100
0010
0000
,
0100
0000
1001
0000
0010
0100
0010
0000
,
1000
0010
0100
0001
,
1001
0100
1001
0100
,
1001
0000
0000
0000
0001
0001
0001
0000
,
1001
0100
0100
0100
,
1001
0000
0100
1000
0100
1000
0100
0000
,
1001
0000
0100
0001
0100
0001
0100
0000
,
1001
0000
0100
1000
0100
1000
0100
0000
,
1001
0000
0100
0001
0100
0001
0100
0000
,
2000
0000
0001
3000
0100
0010
1000
0001
,
0200
0000
0010
0300
1000
0001
0100
0010
,
2000
0000
0100
3000
0010
0001
1000
0010
,
0200
0000
0010
0300
1000
0001
0010
0001
,
0100
0000
0000
1001
0000
0000
1001
0000
,
0110
0000
0000
1001
0000
0000
1001
0000
,
0020
0000
0100
0030
0001
1000
0100
0010
,
0002
0000
1000
0003
0100
1000
0010
0100
,
0001
0001
1000
1000
,
0010
0010
0100
0100
,
1001
0000
0001
0100
0010
0000
0001
0000
,
1001
0000
1000
0100
0010
0000
1001
0000
,
0001
0000
1001
0000
0100
1000
0010
0000
,
0010
0000
1001
0000
1000
0100
1000
0000
,
1001
0001
1001
1000
,
0100
0000
1000
0000
0100
0000
0010
0000
0001
0000
0000
0001
0000
0000
0001
0000
,
0000
0000
1001
0000
0010
0100
0010
0000
,
0100
0000
1001
0000
0010
0100
0010
0000
,
0010
0000
1001
0000
0010
0100
0010
0000
,
0100
0000
1001
0000
0010
0100
0010
0000
,
1000
0010
0100
0001
,
1001
0100
1001
0100
,
1001
0000
0000
0000
0001
0001
0001
0000
,
1001
0100
0100
0100
,
1001
0000
0100
1000
0100
1000
0100
0000
,
1001
0000
0100
0001
0100
0001
0100
0000
,
1001
0000
0100
1000
0100
1000
0100
0000
,
1001
0000
0100
0001
0100
0001
0100
0000
,
1000
0000
1000
1000
2000
0000
3000
0000
,
0001
0000
0001
0001
0002
0000
0003
0000
,
0100
0000
0100
0100
0200
0000
0300
0000
,
0010
0000
0010
0010
0020
0000
0030
0000
,
1000
0000
1000
1000
2000
0000
3000
0000
,
0001
0000
0001
0001
0002
0000
0003
0000
,
0100
0000
0100
0100
0200
0000
0300
0000
,
0010
0000
0010
0010
0020
0000
0030
0000
,
1001
0000
0000
0000
;

//--------------- dance-single - Nifara & XLev450X-ESP ----------------
#NOTES:
     dance-single:
     Nifara & XLev450X:
     Hard:
     15:
     0,0,0,0,0:
0000
0000
0000
0000
,
0000
0000
0000
0000
,
0000
0000
0000
0000
,
0000
0000
0000
0000
,
0000
0000
0000
0000
,
1000
0010
0100
0001
0100
0010
1000
0001
,
0100
0000
0000
0100
0000
0000
0010
0000
1000
0000
0001
0000
0100
0000
0010
0000
,
1000
0010
1000
0100
0010
0001
1000
0010
,
0100
0000
0000
0010
0000
0000
0001
0000
1000
0000
0001
0000
0010
0000
0100
0000
,
2000
0000
0000
3001
0100
0010
1000
0100
,
2000
0000
0000
3010
0100
0010
1000
0100
,
2000
0000
0000
3010
0100
0010
1000
0100
,
0020
0000
0000
0130
1000
0001
0100
0010
,
1010
0000
0000
0000
0000
0000
1001
0000
0000
0010
0100
0010
1000
0100
0010
0000
,
0101
0000
0000
0000
0000
0000
1010
0000
0000
0010
0100
0010
1000
0001
1000
0000
,
0200
0000
0000
0301
1000
0100
0010
0001
,
2000
0000
0000
3001
0100
0010
1000
0001
,
1000
0001
0100
0010
1000
0001
1000
0001
,
1000
0100
0010
0001
0100
0001
0010
0001
,
0010
0100
0010
0001
1000
0010
0100
0001
,
0100
0001
0100
0001
0100
0010
0100
0010
,
1000
0010
1000
0001
0100
0010
0100
0010
,
0100
0010
1000
0001
1000
0100
1000
0010
,
0100
0010
1000
0010
1000
0001
1000
0010
,
0100
0000
0000
0010
0000
0000
0001
0000
0100
1000
0010
0100
0001
0010
0100
1000
,
0001
0010
0100
0000
0100
1000
0010
0000
,
0001
0000
0010
0000
0100
0000
0010
0000
0001
0000
0010
0000
1000
0010
0100
0001
,
1000
0100
0001
0000
0100
0010
0001
0000
,
0001
0000
0010
0000
0001
0000
1000
0000
0010
0000
1000
0000
0100
0010
0001
0010
,
0100
0010
0001
1000
0001
0010
0100
1000
,
0010
0100
0001
1000
0100
0010
0001
0010
,
0100
0000
0000
0100
0000
0000
0100
0000
0001
0010
0001
0010
0001
0020
0000
0000
,
0030
1000
0100
0020
0030
0001
0100
1000
,
0100
0010
0100
1000
0100
0010
0001
1000
0010
1000
0001
0100
1000
0010
0001
0000
,
0200
0000
0000
0300
0010
0000
0000
0000
0100
0000
0010
0000
0100
0000
0010
0000
,
0110
0000
0000
1001
0000
0000
0000
0000
,
1001
0000
0000
0000
0000
0000
0110
0000
0001
0100
0001
1000
0001
0010
0100
0010
,
2000
0000
0000
3001
0100
0010
1000
0001
,
0200
0000
0000
0310
1000
0001
0100
0010
,
2000
0000
0000
3100
0010
0001
1000
0010
,
0200
0000
0000
0301
1000
0001
0010
0100
,
1100
0000
0000
0000
0000
0000
1001
0000
0000
0001
0100
0001
0010
0100
0010
0000
,
0110
0000
0000
0000
0000
0000
1001
0000
0000
0010
0100
0001
1000
0010
1000
0000
,
0020
0000
0000
0130
0001
1000
0100
0010
,
0002
0000
0000
1003
0100
1000
0010
0100
,
0001
0000
0000
0001
0000
0000
1000
0000
0000
0000
0010
0000
0001
0000
0100
0000
,
0001
0000
0000
1000
0000
0000
0100
0000
0000
0000
1000
0000
0100
0000
0010
0000
,
0100
0000
0000
0100
0000
0000
1000
0000
0000
0000
1000
0000
0001
0000
0010
0000
,
0001
0000
0000
0001
0000
0000
0100
0000
0000
0000
0100
0000
0001
0000
0010
0000
,
0001
0000
0000
0100
0000
0000
1000
0000
0000
0000
1000
0000
0010
0000
0100
0000
,
0010
0000
0000
0100
0000
0000
1000
0000
0000
0000
0100
0000
0001
0000
1000
0000
,
0010
0000
0001
0100
0000
0100
0001
1000
,
0100
0000
0000
1000
0000
0000
0010
0000
0001
0010
1000
0100
0001
0100
0001
1000
,
0010
0100
0001
0000
0010
1000
0001
0000
,
0001
0000
0010
0000
0001
0000
1000
0000
0001
0000
0010
0000
0100
0010
0100
0010
,
0001
0010
0001
0000
0010
1000
0001
0000
,
0001
0000
1000
0000
0010
0000
1000
0000
0001
0000
0010
0000
0100
0010
0001
0100
,
0001
0010
0001
1000
0010
0100
0001
0100
,
0010
1000
0001
1000
0001
1000
0100
0010
,
0001
0000
0000
0001
0000
0000
0001
0000
1000
0010
1000
0010
1000
0020
0000
0000
,
0030
0100
1000
0200
0300
0100
1000
0100
,
0100
1000
0001
0010
0100
1000
0010
0100
,
0001
0000
0000
0010
0100
1000
0000
0010
,
0000
0100
0001
1000
0100
0010
0100
0010
,
0001
0000
0100
0000
0010
0000
1000
0000
0100
1000
0001
1000
0100
1000
0010
0000
,
1000
0001
0000
0001
1000
0000
1000
0001
0000
0000
0000
0000
2002
0000
3003
0000
,
1000
0001
0000
0001
1000
0000
1000
0001
0000
0000
0000
0000
1001
0000
0000
0000
,
1000
0001
0000
0001
1000
0000
1000
0001
0000
0000
0000
0000
2002
0000
3003
0000
,
1000
0001
0000
0001
0000
0001
1000
0000
1000
0001
0000
0001
0000
0001
1000
0000
,
1000
0001
0000
0001
1000
0000
1000
0001
0000
0000
0000
0000
2002
0000
3003
0000
,
1000
0001
0000
0001
1000
0000
1000
0001
0000
0000
0000
0000
1001
0000
0000
0000
,
1000
0001
0000
0001
1000
0000
1000
0001
0000
0000
0000
0000
2002
0000
3003
0000
,
1000
0001
0000
0001
0000
0001
1000
0000
1000
0001
0000
0001
0000
0001
1000
0000
,
2002
3003
0000
0000
0000
0000
0000
0000
;
