#TITLE:Beyond The Future;
#ARTIST:7 Sequence;
#GENRE:Technical House;
#MUSIC:Beyond The Future.ogg;
#BANNER:Beyond The Future.png;
#BACKGROUND:Beyond The Future-bg.png;
#SAMPLESTART:60.952;
#SAMPLELENGTH:15;
#SELECTABLE:YES;
#OFFSET:-0.029;
#BPMS:0=130;
#BGCHANGES:0.000=Beyond The Future.mp4=1.000=0=0=0=StretchNoLoop====,
99999.000=-nosongbg-=1.000=0=0=0=StretchNoLoop====;

//--------------- dance-single - XLev450X -未来--bSP ----------------
#NOTES:
     dance-single:
     XLev450X -未来-:
     Beginner:
     2:
     0,0,0,0,0:
0000
0000
0000
0000
,
0000
0000
0000
0000
,
0000
0000
0000
0000
,
0000
0000
0000
0000
,
0000
0000
0000
0000
,
0000
1000
0000
0001
,
0000
0100
0000
0010
,
0000
0001
0000
1000
,
0000
0010
0100
0000
,
0001
0001
1000
0000
,
1000
0010
0100
0000
,
0001
0100
0001
0000
,
1000
0000
0001
0000
,
0010
1000
0001
0000
,
0100
1000
0010
0000
,
0100
0001
0100
0000
,
1001
0000
0000
0000
,
1000
0001
0100
0000
,
0010
0000
0100
0000
,
0010
1000
0001
0000
,
0100
0000
0000
0000
,
0010
1000
0010
0000
,
0001
0100
0010
0000
,
0001
0000
1000
0000
,
0010
0000
0000
0000
,
0100
0000
0000
0000
,
0000
0000
0000
0000
,
0010
0000
0000
0000
,
0000
0000
0000
0000
,
1000
0000
0001
0000
,
0100
0000
0000
0000
,
0010
0000
1000
0000
,
0100
0000
0000
0000
,
0001
0001
0001
0000
,
1000
1000
1000
0000
,
0010
0100
0010
0000
,
0001
1000
0010
0000
,
0001
0000
1000
0000
,
0001
0000
0100
0000
,
0010
0000
1000
0001
,
0010
0000
0000
0000
,
0100
0001
1000
0000
,
1000
0010
0100
0000
,
0010
0000
0001
0000
,
1000
0010
0100
0000
,
0001
0000
0010
0000
,
1000
0010
0100
0000
,
0001
0000
1000
0000
,
0010
0000
0100
0000
,
0001
1000
0001
0100
,
0010
1000
0010
0100
,
0001
0100
0010
0100
,
1001
0000
0000
0000
;

//--------------- dance-single - XLev450X -未来--BSP ----------------
#NOTES:
     dance-single:
     XLev450X -未来-:
     Easy:
     5:
     0,0,0,0,0:
0000
0000
0000
0000
,
0000
0000
0000
0000
,
0000
0000
0000
0000
,
0000
0000
0000
0000
,
0000
0000
0000
0000
,
1000
0001
0100
0010
,
1000
0010
0100
0001
,
1000
0000
0010
0000
0001
1000
0010
0000
,
0100
0001
0020
0000
,
1030
0001
0100
0010
,
1000
0010
0002
0000
,
1003
0010
0100
1000
,
0100
0001
0100
0000
0010
0000
1000
0000
,
0010
1000
0010
0000
0100
0001
0100
0000
,
0010
0001
0101
1010
,
0010
0100
0010
0000
0010
0001
0010
0000
,
1000
0001
0200
0000
,
0310
0000
0001
0000
0010
0001
0010
0000
,
1000
0000
0010
0000
1000
0010
1000
0010
,
0100
0001
0010
1000
,
0001
0000
0200
0000
0300
0001
0010
0000
,
1000
0000
0001
0000
0010
0001
0010
0000
,
1000
0010
1000
0000
0010
0001
0010
0000
,
1000
0001
0100
0010
,
0001
0010
1000
0010
0100
0000
0001
0000
,
1000
0000
0001
0100
,
0010
0000
1000
0010
,
0100
0000
0001
1000
,
0010
0000
0100
0001
,
0010
0001
0010
0000
1000
0000
0010
0000
,
1000
0010
1000
0000
0100
0000
0001
0000
,
0010
0100
0010
0000
1000
0001
1000
0000
,
2002
0000
0000
0000
0000
0000
0000
3003
,
0010
0100
0001
1000
,
0010
1000
0010
0000
0100
0000
0001
0000
,
0010
0001
0010
0000
0100
0010
0100
0000
,
1000
0001
0100
0000
,
0001
1000
0010
1000
,
0001
0000
0100
0000
0010
1000
0010
0000
,
1000
0001
0100
0010
,
0001
0010
0001
0000
1000
0000
0000
0000
,
0100
0000
0001
0000
0100
0001
0100
0000
,
1000
0000
0010
0000
1000
0010
1000
0000
,
0100
0000
0010
0000
1000
0010
1000
0000
,
0100
0001
0100
0000
,
0001
1000
0010
0100
,
0010
0001
0010
0000
1000
0010
1000
0000
,
0100
0000
0001
0000
0100
0010
1000
0000
,
0101
0000
0000
0000
,
1000
0001
0100
0001
,
1000
0000
0001
0000
0100
0010
0100
0000
,
1000
0000
0001
0000
0100
0010
0100
0000
,
0002
0000
2003
0000
3000
0020
0000
0000
,
0000
0000
0030
0000
;

//--------------- dance-single - XLev450X -未来--DSP ----------------
#NOTES:
     dance-single:
     XLev450X -未来-:
     Medium:
     9:
     0,0,0,0,0:
0000
0000
0000
0000
,
0000
0000
0000
0000
,
0000
0000
0000
0000
,
0000
0000
0000
0000
,
0000
0000
0000
0000
,
1000
0001
0100
0000
0010
0001
0010
0000
,
1000
0010
0100
0001
1000
0010
0100
0000
,
0001
1000
0010
0100
0001
0010
1000
0001
,
0100
0010
1000
0001
0100
0010
0000
0000
,
1000
0001
0100
0010
,
1000
0010
0100
0000
0001
0001
0001
0001
,
1000
0010
0100
0000
1000
0010
1000
0000
,
0100
0001
0100
0010
0000
0100
0001
1000
,
0010
1000
0001
0000
1000
0010
0100
0000
,
1000
0001
0100
0010
1000
1000
1000
1000
,
0010
0100
0001
0000
0100
1000
0010
0000
,
0100
0001
1000
0010
,
1000
0001
0100
0000
0010
0001
0010
0000
,
1000
0010
1000
0001
0100
0010
0010
1000
,
0001
0100
0010
0000
1000
0001
0100
0000
,
0010
1000
0010
0100
0000
0001
1000
0010
,
0100
0000
0010
0000
1000
0001
0100
0000
,
0010
0001
1000
0010
0001
0001
1000
0010
,
0100
0001
1000
0010
0100
0001
0010
0000
,
0001
0000
0000
0000
0000
0000
0000
0000
0000
0010
0000
0000
1000
0000
0000
0000
0000
0000
0000
0000
0000
0001
0000
0000
0100
0000
0000
0000
0000
0000
0001
0000
0000
0000
0000
0000
0010
0000
0000
0000
1000
0000
0000
0000
0001
0000
0000
0000
,
0100
0001
1000
0010
,
0100
0001
0010
0000
0001
0010
0010
0000
,
1000
0001
0100
0010
,
0001
0010
0001
0000
1000
0000
0010
0000
,
0101
0000
1010
0000
0010
0100
0001
0000
,
1001
0000
0101
0000
1000
0010
0100
0000
,
1000
0000
0010
0000
0100
0001
0010
0000
,
0001
0000
0000
0100
0000
0000
0010
0000
0000
1000
0000
0000
0020
0000
0030
0000
,
0001
1000
0010
0000
0001
0010
0001
0000
,
1000
0010
1000
0000
0100
0001
0100
0000
,
0010
0000
1000
0000
0001
0100
0010
0000
,
0001
1000
0010
0100
0001
0010
0001
0000
,
1000
0010
1000
0000
0100
0001
0100
0000
,
0010
1000
0001
0100
0010
1000
0001
0000
,
0100
0000
0001
0000
1000
0010
1000
0000
,
0100
0010
0000
1000
,
0001
0100
0010
0000
0010
0001
0010
0000
,
1000
0010
0100
0001
1000
0000
0001
0000
,
1000
0010
1000
0000
0100
0001
0100
0000
,
1000
0010
0100
0000
0001
0000
1000
0000
,
1000
0001
0100
0000
0100
0100
0001
0000
,
1000
1000
1000
0000
0100
0100
0100
0000
,
0001
1000
0010
0100
0001
1000
0010
0100
,
0001
0000
1000
0000
0001
0100
0010
0000
,
0001
0001
1000
0010
,
0100
0000
0001
0000
1000
0010
1000
0000
,
0100
0000
0001
0000
0100
0010
0100
0001
,
0020
0000
2030
0000
3000
0020
0000
0000
,
0000
0000
0030
0000
;

//--------------- dance-single - XLev450X -未来--ESP ----------------
#NOTES:
     dance-single:
     XLev450X -未来-:
     Hard:
     14:
     0,0,0,0,0:
0000
0000
0000
0000
,
0000
0000
0000
0000
,
0000
0000
0000
0000
,
0000
0000
0000
0000
,
0000
0000
0000
0000
,
1000
0001
0100
0000
0010
0001
1000
0000
,
0010
0100
1000
0001
0100
0010
1000
0000
,
0010
0000
0000
0000
0000
0000
0001
0000
0000
0000
0000
0000
0100
0000
0000
0000
0000
0000
0010
0000
0000
0000
0000
0000
1000
0000
0000
0000
0000
0000
0100
0000
0010
0000
0100
0000
0010
0000
0000
1000
0000
0000
0001
0000
0100
0000
0010
0000
,
1000
0000
0100
0000
0010
0000
1000
0000
0001
0000
0100
0000
0000
0010
0000
1000
,
0001
1000
0100
0000
0010
1000
0001
0000
,
0100
0010
1000
0010
0101
0101
0101
0101
,
0010
1000
0100
0010
1000
0001
0100
0010
,
1000
0000
0001
1000
0100
0000
0010
0001
0100
0000
1000
0000
0001
0100
0001
0000
,
1000
0010
1000
0000
0100
0010
0001
0000
,
1000
0010
0100
0010
1010
1010
1010
1010
,
0001
0100
0010
0000
0001
1000
0001
0000
,
0100
0000
0000
0000
0000
0000
1000
0000
0000
0100
0000
0000
0001
0000
0000
0000
0000
0000
0010
0000
0000
0000
0000
0000
0000
0000
0000
0100
0000
0000
0010
0000
0000
1000
0000
0000
0010
0000
0000
0000
1000
0000
0000
0000
0010
0000
0000
0000
,
0001
0100
0010
0000
1000
0001
0100
0000
,
0010
0000
1000
0000
0001
0000
0100
0000
0010
0000
0001
0010
0001
0000
1000
0000
,
0010
0100
1000
0000
0010
0100
1000
0000
,
0001
0000
0100
0000
0010
0000
1000
0001
0000
0100
0000
0000
0010
0000
1000
0000
,
0001
0000
0100
0001
0100
0000
1000
0000
0010
0000
1000
0001
1000
0000
0000
0010
,
0100
0001
0100
0001
1000
0001
0100
0010
,
0001
0000
0010
0001
0010
0000
1000
0000
0010
0000
0100
0001
1000
0001
0100
0000
,
0001
0000
0000
1000
0000
0000
0001
0000
0000
0000
0000
0000
0010
0000
0000
0100
0000
0000
0010
0000
0000
0000
0000
0000
0001
0000
0000
1000
0000
0000
0001
0000
0000
0000
0000
0000
0010
0000
0000
0000
0100
0000
0000
0000
0001
0000
0000
0000
,
0100
0001
0000
0000
0000
1000
0000
0000
,
0010
0000
0000
0100
0000
0000
0001
0000
0000
0000
1000
0001
0000
0010
0000
0000
,
0100
0000
0000
0001
0000
0000
0000
0000
0000
0000
0100
0000
0000
0000
0000
0000
,
0001
0000
0000
0000
0000
0000
0001
0000
0000
0000
0000
0000
1000
0000
0000
0000
0000
0000
0000
0000
0000
0010
0000
0000
0000
0000
0000
0000
0000
0000
0000
0000
0000
0000
0000
0000
0001
0000
0000
0000
0000
0000
0100
0000
0010
0000
1000
0000
,
0010
0000
0001
0000
1000
0010
0100
0001
,
1000
0000
0010
0000
0001
0010
0001
0000
1000
0010
1000
0000
0010
0100
0010
0000
,
0001
0000
1000
0000
0010
0000
0100
0000
0001
0000
0100
0001
0000
1000
0010
0000
,
0101
0000
0000
0000
0000
0000
0000
0000
0000
1010
0000
0000
0000
0000
0000
0000
0000
0000
0110
0000
0000
0000
0000
0000
0000
0000
0000
1001
0000
0000
0000
0000
0000
0000
0000
0000
1000
0000
0001
0000
1000
0000
0001
0000
1000
0000
0001
0000
,
1000
0000
0001
0000
1000
0000
0010
0000
0100
0001
0000
0100
0000
0010
0000
0000
,
1000
0000
0001
0000
0100
0000
0010
0000
1000
0010
0100
0001
1000
0010
0100
0000
,
1000
0001
1000
0000
0100
0001
0100
1000
,
0010
1000
0010
0000
0100
0001
0100
0000
0010
0000
1000
0000
0001
0100
0000
0000
,
0010
0000
1000
0001
1000
0000
0010
0000
1000
0000
0100
0000
0001
1000
0001
0000
,
0010
0000
0100
0000
0010
0001
0010
0000
1000
0000
0010
0000
0100
0010
0100
0000
,
1000
0000
0001
0000
0100
0001
0100
0000
0010
0000
1000
0000
0010
0000
1000
0000
,
0001
0100
0000
0000
1000
0010
0000
0000
0100
0001
0000
0000
1000
0010
0000
0000
,
0100
0000
0010
0000
1000
0001
0100
0000
0010
0000
0001
0000
0010
0000
0001
0000
,
0010
0001
0010
0000
1000
0010
1000
0000
0010
0100
0010
0000
0001
0100
0001
0000
,
0010
0000
1000
0000
0010
0000
1000
0001
1000
0000
0001
0000
1000
0000
0010
0000
,
1000
0010
1000
0000
0100
0001
0100
0000
1000
0010
1000
0000
0001
0100
0001
0000
,
0010
1000
0001
0100
0010
1000
0001
0100
,
0010
0100
0010
0000
0010
0001
0010
0000
1000
0010
1000
0000
0100
0010
0100
0000
,
0010
1000
0100
0010
0100
0010
0001
1000
0001
0010
0100
1000
0100
1000
0010
1000
,
0001
0000
1000
0000
0010
0000
0100
0000
0010
0001
0010
0000
1000
0010
1000
0000
,
0010
0000
0100
0000
0001
1000
0010
0100
,
0001
0000
1000
0000
0010
0000
0100
0000
0001
0000
0010
0001
0010
0000
1000
0000
,
0010
0000
0100
0001
0100
0000
0010
0000
1000
0000
0001
0000
0100
0000
0010
0000
,
0200
0300
0202
0000
0303
2020
0000
0000
,
0000
0000
3030
0000
;
