#TITLE:Believe again (HYPER MEGA MIX);
#ARTIST:DJ nagureo feat. miryam;
#GENRE:J-DANCE POP;
#MUSIC:Believe Again (HYPER MEGA MIX).ogg;
#BANNER:Believe Again (HYPER MEGA MIX).png;
#BACKGROUND:Believe Again (HYPER MEGA MIX)-bg.png;
#CDTITLE:./CDTitles/beatmania.png;
#SAMPLESTART:38.312;
#SAMPLELENGTH:15;
#OFFSET:-0.004;
#BPMS:0=130;
#BGSTAGE:16;

//--------------- dance-single - XLev450X-bSP ----------------
#NOTES:
     dance-single:
     XLev450X:
     Beginner:
     2:
     0,0,0,0,0:
0000
0000
0000
0000
,
0000
0000
0000
0000
,
0000
0000
0000
0000
,
0000
0000
0000
0000
,
0000
0001
1000
0001
,
0000
0100
0010
1000
,
0000
0100
0001
0010
,
0000
1000
0001
0010
,
0000
0100
1000
0000
,
0000
0010
0001
0000
,
0000
0100
0010
0000
,
0000
1000
0010
0000
,
0000
0001
0000
0001
,
0000
0001
0000
0000
,
0000
0010
0000
1000
,
0000
0010
0000
0000
,
0000
0100
0100
0100
,
0000
1000
0100
1000
,
0000
0010
0100
0010
,
0000
0001
1000
0001
,
0000
1001
0000
0000
,
0000
0010
0000
0010
,
0000
0010
0000
0000
,
0000
0100
0000
0100
,
0000
0100
0000
0000
,
0000
1000
0000
0001
,
0000
1000
0000
0000
,
0000
0010
0000
1000
,
0000
0010
0000
0000
,
0000
0001
0000
1000
,
0000
0001
0000
0100
,
0000
1000
0000
0010
,
0000
0100
0000
0000
,
0000
1000
0000
0001
,
0000
0010
0000
1000
,
0000
0100
0000
0001
,
0000
0010
0000
0000
,
0000
1000
0001
1000
,
0000
0010
1000
0100
,
0000
0010
1000
0010
,
0000
0100
0010
0100
,
1001
0000
0000
0000
;

//--------------- dance-single - XLev450X-BSP ----------------
#NOTES:
     dance-single:
     XLev450X:
     Easy:
     5:
     0,0,0,0,0:
0000
0000
0000
0000
,
0000
0000
0000
0000
,
0000
0000
0000
0000
,
0000
0000
0000
0000
,
0000
1000
0001
0100
,
1000
0010
0100
0001
,
0000
1000
0001
1000
,
0100
0010
1000
0001
,
0000
0100
0010
1000
,
0010
0100
0001
1000
,
0000
0001
1000
0001
,
0100
1000
0001
0100
,
0000
0010
0010
1000
,
1000
0001
0100
0001
,
1000
0010
1000
0100
,
0001
1000
0010
0100
,
0000
0001
1000
0001
,
0100
0010
1000
0001
,
0100
0010
1000
0001
,
0100
0010
1000
0010
,
0000
1001
0000
0000
,
0000
0000
1000
0000
0001
0000
0010
0001
,
0010
0000
1000
0000
0100
0000
1000
0010
,
1000
0000
0100
0000
1000
0000
0001
1000
,
0001
0100
1000
0101
,
0000
0010
0010
1000
,
0100
0000
1000
0100
1000
0000
0001
0010
,
0001
1000
0001
0100
,
0010
1000
0000
0001
,
1000
0000
0010
0000
0010
0000
1000
0001
,
0100
1000
0001
0100
,
0000
0010
1000
0100
,
0001
0000
1000
0001
1000
0000
0010
1000
,
0010
0001
1000
0001
,
0100
1000
0010
0100
,
1000
0000
0001
0010
0001
0000
1000
0100
,
1000
0000
0001
1000
0010
0100
0001
0000
,
1000
0010
0100
0001
,
0000
1000
0100
0001
,
0010
1000
0001
0100
,
0000
1000
0010
0100
,
0010
1001
0000
0000
0000
0000
0000
0000
;

//--------------- dance-single - XLev450X-DSP ----------------
#NOTES:
     dance-single:
     XLev450X:
     Medium:
     8:
     0,0,0,0,0:
0000
0000
0000
0000
,
0000
0000
0000
0000
,
0000
0000
0000
0000
,
0000
0000
0000
0000
,
0000
0001
1000
0100
,
1000
0000
0001
0000
0010
0000
0100
0010
,
0100
1000
0100
1000
,
0001
0000
0010
0100
0010
0000
0001
0010
,
0001
1000
0100
1000
,
0010
0000
0100
0000
1000
0000
0001
1000
,
0001
1000
0010
0100
,
0010
0000
1000
0010
1000
0000
0011
0000
,
0000
1000
0001
0000
,
1000
0100
0001
0000
,
1000
0000
0010
0100
0010
0000
1000
0000
,
0100
0000
1000
0001
1000
0000
0010
1000
,
0010
0100
1000
0001
,
0000
0100
1000
0010
,
0000
1000
0001
0100
,
1000
0000
0010
0001
0010
0000
1000
0000
,
0010
0000
0000
0000
1000
0000
0000
0001
0000
0000
0100
0000
0010
0000
0000
0000
,
0000
0000
0001
0000
1000
0000
0100
1000
,
0100
0010
0100
0010
,
0100
0000
1000
0000
0001
0000
1000
0001
,
1000
0010
1000
0101
,
0000
1000
0010
1000
,
0100
0001
0010
0100
,
1000
0000
0001
0000
0100
0000
1000
0010
,
1000
0000
0001
0010
0001
0000
0100
0010
,
0100
0001
1000
0010
,
1000
0000
0001
0000
0100
0000
0001
0100
,
0001
1000
0010
1000
,
0100
0000
1000
0000
0010
0000
0100
0010
,
0100
0000
0001
0010
0001
0000
1000
0100
,
1000
0000
0010
0100
1000
0001
0100
0010
,
1000
0000
0001
0000
1000
0000
0001
0100
,
0010
1000
0100
0011
,
0000
1000
0001
1000
,
0100
0000
1000
0000
0010
0000
1000
0001
,
1000
0010
0001
1000
,
0100
0000
1000
0000
0010
0000
0100
0110
,
1000
1001
0000
0000
0000
0000
0000
0000
;

//--------------- dance-single - XLev450X-ESP ----------------
#NOTES:
     dance-single:
     XLev450X:
     Hard:
     11:
     0,0,0,0,0:
0000
0000
0000
0000
,
0000
0000
0000
0000
,
0000
0000
0000
0000
,
0000
0000
0000
0000
,
0000
0000
0001
0000
1000
0000
0010
0100
,
0010
0000
0001
0000
0010
0000
0001
1000
,
0001
0000
0100
0000
1000
0000
0010
1000
,
0010
0000
0100
0000
0010
0000
0001
1000
,
0001
0100
0010
0000
1000
0000
0010
1000
,
0010
0000
0100
0000
0001
0000
0010
0001
,
0010
0000
0100
0000
1000
0000
0001
1000
,
0001
0000
1000
0001
0100
0010
1000
0000
,
0010
1000
0010
0100
,
0001
0000
1000
0000
0010
0000
1000
0001
,
0100
0000
1000
0000
0100
0000
0010
1000
,
0001
0100
1000
0011
,
1100
0000
0010
1000
0010
0000
0100
0000
,
0100
0000
0010
0001
0010
0000
0001
0000
,
0001
0000
1000
0000
0001
0000
1000
0010
,
1000
0000
0100
0001
0100
0000
0010
0000
,
1000
0000
0000
0000
0010
0000
0000
0100
0000
0000
0001
0000
1000
0000
0000
0000
,
0000
0000
0000
0000
1001
0000
0100
1000
0100
0000
1000
0000
0010
0000
0100
0000
,
1000
0000
0000
0000
0010
0000
0010
1000
0010
0000
0100
0000
0001
0000
0010
0000
,
0100
0000
0010
0100
0010
0000
0000
0010
0000
0000
0001
0000
0010
0000
1000
0000
,
0001
0000
0010
0000
1000
0000
0000
0001
0000
0000
0100
0000
1000
0000
0001
0000
,
0010
0000
0100
0000
0001
0000
0000
0010
0001
0000
0000
0010
1000
0000
0000
0010
,
0100
0000
0000
1000
0100
0000
0000
0001
0010
0000
0000
1000
0001
0000
0000
0100
,
1000
0000
0000
0010
0100
0000
0001
0000
1000
0000
0010
0000
1000
0000
0001
0000
,
0010
0000
0100
1000
0010
0000
1000
0100
,
0001
0000
1000
0000
0001
1000
0001
0000
0100
0000
0010
0000
1000
0000
0010
0000
,
1000
0000
0000
0000
0001
0100
1000
0000
0100
0000
1000
0000
0001
1000
0010
0000
,
1000
0000
0100
0000
0001
0000
0000
0100
0000
0000
1000
0000
0010
0000
0100
0000
,
1000
0000
0000
0000
0010
0000
0000
0100
0000
0000
0001
0000
0010
0000
1000
0000
,
0010
0000
0000
0000
0001
0010
0000
1000
0100
0000
0000
0010
0100
0000
0000
0000
,
1000
0010
0000
0000
0010
0100
0000
0000
0001
0010
0000
0000
1000
0100
0000
0000
,
0001
0010
0000
0000
0001
0000
1000
0000
0100
0000
1000
0000
0001
0000
0010
0000
,
0001
0000
1000
0100
0010
1000
0001
0010
,
0100
1000
0001
0000
0100
0000
1000
0000
,
0010
0000
1000
0100
1000
0000
0001
0010
,
0001
1000
0001
0000
0100
0000
1000
0000
,
0010
0000
1000
0001
0100
0000
0010
1000
,
0100
1001
0000
0000
0000
0000
0000
0000
;
