#TITLE:Before Daybreak;
#ARTIST:TAG;
#GENRE:ROCK;
#MUSIC:Before Daybreak.ogg;
#BANNER:Before Daybreak.png;
#BACKGROUND:Before Daybreak-bg.png;
#CDTITLE:./CDTitles/GuitarFreaks & DrumMania XG.png;
#SAMPLESTART:75.289;
#SAMPLELENGTH:15;
#OFFSET:2.628;
#BPMS:0=144;
#BGCHANGES:4.000=Before Daybreak.mp4=1.000=0=0=0=StretchNoLoop====,
99999.000=-nosongbg-=1.000=0=0=0=StretchNoLoop====;

//--------------- dance-single - XLev450X-bSP ----------------
#NOTES:
     dance-single:
     XLev450X:
     Beginner:
     3:
     0,0,0,0,0:
0000
0000
0000
0000
,
0000
0000
0000
0000
,
0000
0000
0000
0000
,
0000
0000
0000
0000
,
0000
0000
0000
0000
,
0000
0000
0000
0000
,
0000
0000
0000
0000
,
0000
0000
0000
0000
,
0000
0000
0000
0000
,
0000
0000
0000
0000
,
0010
0000
1000
0000
,
0001
1000
0100
0000
,
0001
1000
0010
0000
,
1000
0010
0100
0000
,
0001
1000
0001
0100
,
1000
0001
0010
0000
,
0010
1000
0001
0100
,
0010
0000
0000
0000
,
0010
0010
1000
0000
,
0001
1000
0001
0000
,
0100
0001
1000
0000
,
0010
1000
0001
0100
,
1000
0001
0010
0000
,
1000
0010
1000
0000
,
0010
0100
0010
0000
,
1001
0000
0000
0000
,
0010
1000
0010
0000
,
0001
0001
1000
0000
,
0001
0000
1000
0000
,
0100
1000
0001
0000
,
0010
0000
1000
0000
,
0010
0000
0001
0000
,
1000
0001
0100
0000
,
0110
0000
0000
0000
,
0010
0010
1000
0000
,
0001
1000
0001
0000
,
0100
1000
0100
0000
,
0001
0010
1000
0100
,
0011
0000
0000
0000
,
1010
0000
0000
0000
,
1001
0000
0000
0000
,
0010
0000
0000
0000
,
0100
0000
0000
0000
,
0001
1000
0001
1000
,
0010
1000
0010
0000
,
0001
1000
0001
0000
,
0100
1000
0100
0000
,
0010
0010
1000
0001
,
0100
0000
0000
0000
,
0001
1000
0010
0100
,
0010
0000
0000
0000
,
0010
0001
0010
0000
,
1000
0100
1000
0000
,
0001
1000
0001
0100
,
0010
0000
0000
0000
,
0010
1000
0010
0000
,
0001
0010
0001
0000
,
1000
0001
0100
1000
,
0001
0000
0000
0000
,
1000
0010
1000
0000
,
0100
0001
0010
0000
,
1000
0010
0100
0000
,
1001
0000
0000
0000
,
0210
0000
0000
0000
,
0000
0000
0000
0300
;

//--------------- dance-single - XLev450X-BSP ----------------
#NOTES:
     dance-single:
     XLev450X:
     Easy:
     7:
     0,0,0,0,0:
0000
0000
0000
0000
,
0000
0000
0000
0000
,
0000
0000
0000
0000
,
0000
0000
0000
0000
,
0000
0000
0000
0000
,
0000
0000
0000
0000
,
0010
0010
1000
0001
,
0001
0000
1000
0000
0100
1000
0100
0000
,
0001
0010
2002
0000
,
3003
0010
1000
0001
,
0100
1000
0010
1000
,
0001
0100
1000
0001
,
0010
1000
1001
0000
,
0010
0000
0100
0000
2020
0000
0000
3030
,
0010
0000
1000
0000
0001
0010
0001
0000
,
1000
0100
1000
0001
,
0100
0000
0010
0000
2001
0000
0000
3000
,
0020
0000
0000
0000
0000
0000
0000
0030
,
0001
1000
0010
0000
,
1000
0100
0001
0010
,
0100
1000
0010
0000
,
0010
0001
1000
0010
,
0100
1000
0001
0000
,
1000
0100
1000
0001
,
0010
1000
0001
0000
,
1000
0000
0000
1000
0000
0000
0001
0000
0000
0001
0000
0000
0000
0000
0000
0000
,
1000
0010
1000
0100
,
0001
0010
1000
0000
,
0100
1000
0010
0100
,
0001
0010
0001
0000
,
1000
0100
1000
0000
,
0001
0010
0001
0000
,
0010
1000
0001
0100
,
2001
0000
0000
0000
0000
0000
0000
3000
,
0010
0010
1000
0100
,
0001
0010
0100
1000
,
0001
0100
0010
1000
,
0010
1000
0002
0003
,
0001
0000
0000
1000
0000
0100
0000
0000
0000
0000
0000
0000
,
0010
0000
0000
1000
0000
0010
0000
0000
0000
0001
0000
0000
,
2002
0000
0000
3003
0022
0000
0000
0033
,
0220
0000
0000
0000
0000
0000
0000
0330
,
2002
0000
0000
0000
0000
0000
0000
3003
,
0001
1000
0001
1000
,
0100
0000
1000
0000
0001
0010
0001
1000
,
0010
1000
0100
0010
,
2002
0000
0000
0000
0000
0000
0000
3003
,
0010
1000
0100
0001
,
1000
0000
0100
0000
0001
0010
1000
0001
,
0100
1000
0010
1000
,
0001
0010
0001
0000
1000
0100
1000
0000
,
0010
1000
0001
0100
,
0010
1000
0010
1000
,
0001
1000
0010
0000
0100
0000
0001
0000
,
0210
0000
0000
0000
0000
0000
0000
0300
,
0001
1000
0010
1000
,
0100
0001
1000
0100
,
0001
0000
0010
0000
1000
0100
1000
0000
,
0001
0010
0100
0000
,
0001
0010
1000
0100
,
0001
1000
0010
1000
,
0001
0010
1000
0000
0100
0001
0010
0000
,
2002
0000
0000
0000
0000
0000
0000
3003
,
0220
0000
0000
0000
,
0000
0000
0000
0000
0000
0000
0000
0000
0000
0000
0330
0000
0000
0000
0000
0110
;

//--------------- dance-single - XLev450X-DSP ----------------
#NOTES:
     dance-single:
     XLev450X:
     Medium:
     10:
     0,0,0,0,0:
0000
0000
0000
0000
,
0000
0000
0000
0000
,
0000
0000
0000
0000
,
0000
0000
0000
0000
,
0000
0000
0000
0000
,
0000
0000
0000
0000
,
0001
0000
0000
1000
0000
0000
0010
0000
0100
0000
0000
0000
0001
0000
0000
0000
,
1000
0100
1000
0000
0001
0010
0001
0000
,
1000
0000
0000
0001
0000
0000
0210
0000
0000
0000
0000
0000
0000
0000
0000
0000
,
0300
0000
0001
1000
0001
0000
0000
0000
0001
0000
1000
0000
0010
0000
0001
0000
,
1000
0001
1000
0100
,
0001
0000
0000
0010
0000
0000
0001
0000
0000
1000
0000
0000
,
0010
0000
0000
1000
0000
0000
0010
0000
0000
0000
0000
0000
0100
0000
0000
0000
0010
0000
0000
0000
1000
0000
0000
0000
,
0001
0000
1000
0000
1002
0000
0000
0003
,
0001
0000
1000
0000
0100
1000
0100
0000
,
0001
1000
0010
0100
,
0001
0000
0000
1000
0000
0000
0001
0000
1000
0000
0001
0000
,
0000
1100
0000
0000
0000
0000
0000
0000
0000
0000
0000
0000
,
0100
0000
0000
0001
0000
0000
1000
0000
0010
0000
0000
0000
0001
0000
0000
0000
,
1000
0000
0100
0000
0010
0100
0010
0000
,
1000
0000
0000
0001
0000
0000
0100
0000
0000
0000
0001
0000
1000
0000
0000
0000
,
0100
0000
1000
0000
0001
0010
0001
0010
,
1000
0000
0000
0001
0000
0000
0100
0000
0010
0000
0000
0000
0011
0000
0000
0000
,
1000
0000
0100
0000
0001
0010
1000
0001
,
0010
0000
1000
0000
0000
0001
0000
0000
1000
0000
0000
0001
0000
0000
0100
0000
,
0010
0001
0000
0010
0000
0000
1000
0100
0000
1000
0000
0000
2002
0000
3003
0000
,
0001
0000
1000
0000
0100
1000
0100
0000
,
0010
1000
0001
1000
,
0100
1000
0100
0000
0001
0010
0001
0000
,
0010
1000
0101
0000
,
0010
0010
1000
0100
,
0001
1000
0100
1000
,
0010
0010
0100
0001
1000
0000
0010
0100
,
0000
1000
0000
0000
0001
0000
0000
0100
0000
0000
0010
0000
1000
0000
0001
0000
,
1000
0010
1000
0100
,
0001
0010
0001
0000
1000
0000
0100
0000
,
0010
0010
1000
0000
0001
0001
0100
0000
,
1000
0000
0010
0000
1000
0000
0001
0000
,
0010
1000
0000
0100
0000
0010
0000
0001
0000
0000
0010
0000
0100
0000
1000
0000
,
0001
0100
0000
0010
0000
1000
0000
0001
0000
0000
0010
0000
0100
0000
1000
0000
,
0001
0000
0010
0000
0100
0000
1000
0000
0000
1001
0000
0000
1000
0000
0100
0000
0010
0000
0001
0000
0000
0110
0000
0000
,
1002
0000
0000
0000
0000
0000
0003
0100
,
0210
0000
0000
0000
0000
0000
0300
0000
,
0000
0000
0001
0000
0000
1000
0000
0100
0000
0000
0001
0000
0000
1000
0000
0010
,
0000
0000
1000
0000
0000
0001
0000
0000
0001
0000
1000
0000
0010
0000
1000
0001
,
0000
0000
1000
0000
0000
0001
0000
0100
0000
0000
1000
0000
0001
1000
0000
0100
,
0001
0000
1000
0100
0000
0010
0000
0001
0020
0030
0000
0000
0001
0000
0000
0000
,
1000
0100
0001
0000
0001
0010
1000
0000
,
1000
0100
1000
0100
0001
0010
1000
0000
,
0001
0010
0001
0000
0100
0010
0100
0000
,
1000
0001
0010
0000
1001
0000
0000
0000
,
1000
0001
0100
1000
,
0010
0001
0010
1000
0001
0100
1000
0000
,
0001
0000
0000
0000
1000
0000
0000
0000
0010
0000
0000
1000
0000
0000
0010
0000
,
0000
0001
0000
0000
1000
0000
0000
0100
0000
0000
0010
0000
0000
0001
0000
0000
,
0010
0001
1000
0000
0100
0000
1000
0000
,
0001
0010
0001
1000
0100
1000
0001
0000
,
0010
1000
0100
0001
,
1000
0100
0001
0000
1000
0010
1000
0000
,
0001
0100
1000
0001
,
0010
1000
0001
0000
0010
0000
0010
0000
,
1000
0000
0001
0000
0100
0000
0000
0000
0010
0000
0000
0001
0000
0000
0100
0000
,
1000
0000
0000
0001
0000
0000
0100
0000
0000
0010
0000
0000
1000
0000
0000
0000
,
2002
0000
0000
0000
,
0000
0000
0000
0000
0000
0000
0000
0000
0000
0000
3003
0000
0010
0100
0010
0110
;

//--------------- dance-single - XLev450X-ESP ----------------
#NOTES:
     dance-single:
     XLev450X:
     Hard:
     14:
     0,0,0,0,0:
0000
0000
0000
0000
,
0000
0000
0000
0000
,
0000
0000
0000
0000
,
0000
0000
0000
0000
,
0000
0000
0000
0000
,
0000
0000
0000
0000
0000
0000
0000
0000
0000
0000
0000
0001
0010
0100
1000
0100
,
0010
0000
0001
0100
0000
1000
0000
0010
0200
0000
0000
0000
0310
0000
0000
0000
,
0001
0000
1000
0010
0000
0100
0000
1000
0001
0000
1000
0010
0001
1000
0100
0010
,
0001
0000
0000
0100
0000
0000
2001
0000
0000
0000
0000
0000
0000
0000
3000
0000
,
0000
0000
0001
1000
0002
0000
0003
0000
1000
0001
0100
1000
0001
1000
0100
0010
,
0001
1000
0010
0000
1000
0100
1000
0001
,
0100
0000
1000
0000
0001
0000
0010
0100
0010
0000
0100
1000
0100
0000
0100
0000
,
1000
0000
0000
0000
0000
0000
0100
0000
0000
0000
0000
0000
1000
0000
0000
0100
0000
0000
0001
0000
0000
0000
0000
0000
0010
0000
0000
0000
0001
0000
0000
0000
1000
0000
0000
0000
0100
0000
0000
0000
0001
0000
0000
0000
1000
0000
0000
0000
,
0002
0000
0000
0000
2000
0000
3003
0000
0001
1000
0000
0010
0000
0100
0000
0010
,
0001
0000
1000
0000
0100
1000
0100
0001
,
0010
0000
0000
0000
1000
0000
0000
0000
0010
0000
1000
0001
0000
0100
0000
0001
,
1000
0000
0000
0000
0000
0000
0010
0000
0000
0000
0000
0000
0001
0000
0010
0000
0100
0000
1000
0000
0100
0000
0010
0000
,
0000
0000
0000
0000
1001
0000
0000
0000
0000
0000
0000
0000
0001
0000
0000
0000
0000
0000
1000
0000
0000
0000
0000
0000
0020
0000
0000
0000
0000
0000
0000
0000
0000
0130
0000
0000
0000
0000
0000
0000
0000
0000
0000
0000
0000
0000
0000
0000
,
0010
0001
0100
1000
0100
0010
0001
0010
0200
0000
0000
0000
0310
0000
0000
0000
,
0001
0000
0000
1000
0000
0001
0100
0000
1000
0100
0001
0010
0100
0000
1000
0000
,
0001
0000
0000
0100
0000
0000
1000
0000
0000
0000
0010
0100
1000
0100
0010
0001
,
0020
0030
1002
0000
1000
1000
1000
1003
,
0001
0000
1000
0010
0000
0100
0000
0010
0002
0000
0000
0000
0013
0000
0000
0000
,
0001
0000
0000
1000
0000
0010
0000
0000
0100
0000
0000
0000
0001
0000
0000
0000
,
1000
0000
0100
0100
0000
0001
0001
0000
1000
1000
0000
0010
0010
0000
0001
0000
,
1000
0010
0000
0001
0000
0000
0100
1000
0000
0100
0000
0000
0120
0000
0000
0030
,
0001
0000
1000
0000
0100
1000
0100
0001
,
1000
0010
0100
1000
0001
0000
0010
0000
,
1000
0010
1000
0000
0001
0010
0001
0000
,
1000
0000
0100
0000
0001
0000
1000
0000
0010
0000
1000
0100
0001
0000
0001
0000
,
1000
0000
0100
0000
1000
0001
0100
1000
0001
0000
0010
0000
1000
0000
0100
0000
,
1000
0001
0010
1000
0001
1000
0001
0010
,
1000
0001
1000
0000
0001
0000
1000
0000
0010
0000
0100
0000
1000
0000
0100
0000
,
0000
0001
0000
0000
1000
0000
0000
0100
0000
0000
0010
0000
0001
0000
1000
0000
,
0001
0100
0000
1000
0000
0001
0000
0010
0100
0000
0001
0000
1000
0000
0010
0001
,
1000
0001
1000
0100
1000
0010
1000
0000
,
0001
0000
1000
0000
0100
1000
0100
0000
,
0010
0000
1000
0000
0001
0000
0100
0000
0010
0100
0010
0000
0210
0300
1000
0100
,
0001
0100
0000
1000
0000
0010
0000
0001
0000
0010
0100
1000
0100
0000
0001
1000
,
0010
1000
0000
0001
0000
0100
0000
0010
0000
0001
0010
0100
2000
0000
0000
3000
,
0001
0000
1000
0000
0100
0000
0001
0000
0010
0000
0100
0000
1000
0000
0001
0000
1000
0000
0100
0000
0010
0000
0001
0000
,
0020
0000
0000
0000
0000
0000
0100
0000
0000
0000
0000
0000
0130
0000
0001
1000
,
0002
0000
0000
0000
0000
0000
0000
0003
,
0100
0000
0001
0000
0000
1000
0000
0010
0000
0000
0100
0000
0000
1000
0000
0001
,
0000
0000
0200
0000
0300
0010
0000
0000
0100
1000
0000
0100
0010
1000
0001
1000
,
0000
0000
0001
0000
0000
1000
0000
0010
0000
0000
0001
0000
0000
1000
0000
0010
,
0000
1000
0001
1000
0000
0100
0000
0001
1000
0001
0100
0010
1000
0100
0001
0010
,
0001
0100
1000
0001
1000
0100
1000
0001
,
0010
1000
0001
1000
0010
1000
0010
0100
,
1000
0001
0010
1000
0001
1000
0100
1000
,
0001
0000
0010
0000
1000
0000
0001
0000
0010
1000
0000
0100
0000
0001
0000
0100
,
1000
0100
0010
1000
0001
0010
1000
0010
,
0010
1000
0001
0100
1000
0001
0100
1000
,
0001
0000
0001
0000
1000
0000
1000
0000
0010
0000
0010
0000
0100
0001
1000
0000
,
0000
0001
0000
0000
1000
0000
0000
0100
0000
0000
0001
0000
0000
1000
0000
0000
,
0001
1000
0100
1000
0001
0010
0001
1000
,
0010
1000
0100
1000
0001
0010
1000
0000
,
0001
0010
1000
0001
0010
1000
0001
0010
,
0101
1010
0110
0010
,
1000
0100
1000
0100
0001
0010
1000
0001
,
0100
0010
0001
1000
0010
0001
1000
0010
,
1000
0000
0001
0000
0000
0100
0000
0000
1000
0000
0000
1002
0000
0000
0003
0000
,
0001
0010
0000
1000
0000
0000
0010
0100
0000
0001
0000
0000
1000
0100
0010
0001
,
0020
0000
0000
0030
1000
0000
0000
0010
0000
0000
0100
0000
0001
0000
0000
1000
,
0000
0000
0000
0000
0010
0000
0000
0000
0100
0000
0000
0000
0000
0000
0001
0000
0000
0000
0000
0000
1000
0000
0000
0000
0001
0000
0010
0100
1000
0100
0020
0000
,
0030
0000
0000
0000
0000
0000
0000
0000
0000
0000
0000
0000
0000
0000
0000
0000
0000
0000
0000
0000
0000
0000
0000
0000
0000
0000
0000
0000
0000
0000
0000
0000
0000
0000
0000
0000
0000
0000
0000
0000
0000
0000
0000
0000
0000
0000
0000
0000
0000
0000
0000
0000
0000
0000
0000
0000
0000
0000
0000
0000
0000
0000
0000
0000
0000
0000
0000
0000
0000
0000
0000
0000
0000
0000
0000
0000
0000
0000
0000
0000
0000
0000
0000
0000
0000
0000
0000
0000
0000
0000
0000
0000
0000
0000
0000
0000
0000
0000
0000
0000
0000
0000
0000
0000
0000
0000
0000
0000
0000
0000
0000
0000
0000
0000
0000
0000
0000
0000
0000
0000
0000
0000
0000
0000
0000
0000
0000
0000
0000
0000
0000
0000
0000
0000
0000
0000
0000
0000
0000
0000
0000
0000
0000
0000
0000
0000
0000
0000
0000
0000
0000
0000
0000
0000
0000
0000
0000
0000
0000
0000
0000
0000
0000
0000
0000
0000
0000
0000
0000
0000
0000
0000
0000
0000
0000
0000
0000
0000
0000
0000
0000
0000
0000
0000
0000
0000
0000
0000
0000
0000
0000
0000
;
