#TITLE:Become Myself;
#ARTIST:PIA;
#GENRE:HARDCORE;
#MUSIC:Become Myself.ogg;
#BANNER:Become Myself.png;
#BACKGROUND:Become Myself-bg.png;
#SAMPLESTART:53.525;
#SAMPLELENGTH:15;
#OFFSET:-0.157;
#BPMS:0=95;
#BGSTAGE:31;
#BGCHANGES:0.479=Become Myself.mp4=1.000=0=0=0=StretchNoLoop====,
99999=-nosongbg-=1.000=0=0=0 // don't automatically add -songbackground-;

//--------------- dance-single - XLev450X-bSP ----------------
#NOTES:
     dance-single:
     XLev450X:
     Beginner:
     3:
     0,0,0,0,0:
0000
0000
0000
0000
,
0000
0001
0000
0001
0000
0001
0000
0000
,
0000
0100
0000
0100
0000
0100
0000
0000
,
0000
0010
0000
0010
0000
0010
0000
0000
,
0000
1000
0000
1000
0000
1000
0000
0000
,
0000
1001
0000
0000
0000
0000
0000
0000
,
0000
0000
0000
0000
,
0000
0110
0000
0000
0000
0000
0000
0000
,
0000
0000
0000
0000
,
0000
0001
0000
0001
0000
0000
0000
0000
,
0000
1000
0000
1000
0000
0000
0000
0000
,
0000
0010
0000
0010
0000
0000
0000
0000
,
0000
0100
0000
0100
0000
0000
0000
0000
,
0000
1000
0000
0000
0000
1000
0000
0000
,
0000
0001
0000
0000
0000
0001
0000
0000
,
0000
0100
0000
0000
0000
0100
0000
0000
,
0000
0010
0000
0000
0000
0010
0000
0000
,
0000
0010
0000
0000
0000
0001
0000
0000
,
0000
1000
0000
0000
0000
0100
0000
0000
,
0000
0010
0000
0001
0000
0000
0000
0000
,
0000
0100
0000
0010
0000
0000
0000
0000
,
0000
1000
0000
1000
0000
0001
0000
0000
,
0000
0100
0000
0100
0000
0010
0000
0000
,
0000
1001
0000
0000
0000
0000
0000
0000
,
0000
0010
0000
0001
0000
0010
0000
0000
,
0000
1000
0000
0100
0000
1000
0000
0000
,
0000
0010
0000
1000
0000
0010
0000
0000
,
0000
1001
0000
0000
0000
0000
0000
0000
,
0000
0100
0000
0010
0000
0000
0000
0000
,
0000
0110
0000
0000
0000
0000
0000
0000
,
0000
0000
0000
0000
,
0000
1000
0000
0010
0000
1000
0000
0000
,
0000
0100
0000
0001
0000
0010
0000
0000
,
0000
1000
0000
0100
0000
0000
0000
0000
,
0000
0010
0000
0001
0000
0000
0000
0000
,
0000
0010
0000
0100
0000
0000
0000
0000
,
0000
1000
0000
0001
0000
0000
0000
0000
,
0000
0001
0000
0001
0000
0010
0000
0000
,
0000
0100
0000
0100
0000
1000
0000
0000
,
0000
1000
0000
1000
0000
0010
0000
0000
,
0000
0100
0000
0010
0000
0100
0000
0000
,
0000
1001
0000
0000
0000
0000
0000
0000
;

//--------------- dance-single - XLev450X-BSP ----------------
#NOTES:
     dance-single:
     XLev450X:
     Easy:
     6:
     0,0,0,0,0:
0000
0000
0000
0000
,
0000
0001
0000
1000
0000
0010
0000
0100
,
0000
0001
0000
0010
0000
1000
0000
0000
,
0000
0010
0000
0001
0000
1000
0000
0010
,
0000
0100
0000
1000
0000
0001
1000
0001
,
0000
0010
0000
0000
0000
1000
0000
0100
,
0000
0010
0000
0000
0000
0001
0000
1000
,
0000
0001
0000
0000
0000
0100
0000
1000
,
0000
0001
0000
0010
0000
1000
0000
0100
,
0000
0010
0000
0000
0000
1000
0000
0100
,
0000
0001
0000
0010
0000
1000
0000
0000
,
0000
0100
0000
1000
0000
0010
0100
0010
,
0000
0001
0010
0001
0000
1000
0100
1000
,
0000
1001
0000
1000
0000
0010
0000
0100
,
0000
0011
0000
0100
0000
1000
0000
0010
,
0000
1010
0000
0100
0000
0001
0000
0010
,
0000
0110
0000
0001
0000
1000
0000
0000
,
0000
0101
0000
1000
0000
0010
0000
0100
,
0000
1010
0000
0010
0000
0001
0000
0100
,
0000
0110
0000
0010
0000
0100
0000
0010
,
0000
1001
0000
0001
0000
1000
0000
0010
,
0000
0100
0100
0001
0000
1000
1000
0010
,
0000
0100
0100
0001
1000
0010
0000
0100
,
0000
0010
0001
0010
0000
0100
1000
0100
,
0000
0010
0000
1000
0000
0001
0000
0000
,
0000
1000
0100
0001
0000
0010
0100
0010
,
0000
1000
0010
0100
0001
1000
0001
0100
,
0000
1000
0000
0010
0000
0100
0000
0000
,
0000
1000
0000
0001
0000
1000
0010
0100
,
0000
2002
0000
0000
0000
0000
0000
3003
,
0000
0220
0000
0000
0000
0000
0000
0330
,
0000
0010
0000
1000
0000
0001
0000
0100
,
0000
1000
0000
0010
0000
0100
0001
1000
,
0000
0010
0000
0100
0000
1000
0000
0000
,
0000
0100
0000
0001
0000
1000
0000
0000
,
0000
0010
0000
0010
0000
0100
0000
0001
,
0000
1000
0000
0001
0000
0100
0010
0100
,
0000
0001
0000
1000
0000
0001
0000
0100
,
0000
0010
0000
1000
0000
0001
0000
0000
,
0000
0100
0000
1000
0000
0010
0000
0100
,
0000
0001
0000
1000
0000
0001
1000
0001
,
0000
2002
0000
0000
0000
0000
0000
0000
,
0000
0000
0000
3003
;

//--------------- dance-single - XLev450X-DSP ----------------
#NOTES:
     dance-single:
     XLev450X:
     Medium:
     10:
     0,0,0,0,0:
0000
0000
0000
0000
,
0000
1000
0001
0100
0010
1000
0010
0001
,
0000
0000
0001
0000
0010
0000
0100
0000
0001
0100
0001
0000
1000
0000
0010
0000
,
0000
0100
1000
0010
0001
0010
0100
1000
,
0000
0000
0001
0000
1000
0000
0010
0000
0100
0000
1000
0000
0010
0100
0000
0001
,
0000
1000
0001
0000
0100
0000
1000
0000
0001
0000
0010
0000
0000
0000
1000
0000
,
0000
0100
0010
0001
0010
0100
1000
0101
,
0000
0001
0010
0100
1000
0001
1000
0010
,
0000
0010
1000
0010
0000
0100
0010
0100
,
0000
0001
1000
0001
0100
1000
0001
0010
,
0000
1000
0100
0010
0001
0010
0100
1000
,
0000
0010
0100
0010
0000
0001
0010
0001
,
0000
0100
1000
0001
1000
0010
0100
1001
,
0000
0001
1000
0010
0000
1000
0010
0100
,
0001
0000
0010
0000
0100
0000
1000
0000
0000
0001
0000
0100
0000
0000
1000
0000
,
0000
0001
0010
0100
0000
1000
0010
1000
,
0000
0000
0010
0000
0001
0000
0010
0000
0100
0000
1000
0000
0001
1000
0000
0010
,
0000
0100
1000
0000
0010
0000
0001
0000
0010
0000
0100
0000
1000
0000
0001
0000
,
0000
1000
0010
0100
0000
1000
0010
0100
,
0000
1000
0001
0100
0010
1000
0001
0010
,
0000
0000
1000
0000
0001
0000
0010
0000
0001
0010
0001
0000
0100
0010
0100
0000
,
0010
1000
0001
0100
1000
0001
0000
1000
,
0000
0010
0100
0010
0010
0100
0001
1000
,
0000
0001
1000
0001
0000
0010
1000
0010
,
0000
0000
0100
0000
0001
0000
1000
0000
0010
0000
0100
0000
1000
0000
0000
0001
,
0000
1000
0010
0100
0000
0010
0100
0010
,
0000
0000
0001
0000
0010
0000
1000
0000
0000
0001
0000
0000
0100
0000
0010
0000
,
0000
1000
0010
1000
0000
1000
0010
0100
,
0010
0001
0010
1000
0001
0100
0010
1000
,
0000
0000
0001
0000
0000
1000
0000
0000
0010
0000
0100
0000
0000
0001
0000
0000
,
1000
0000
0010
0000
0000
0100
0000
0000
0001
0000
0010
0000
0000
1000
0000
0000
,
0000
0001
0000
1000
0000
0010
0100
0010
,
0000
0001
0000
1000
0000
0001
0001
1000
,
0010
0100
0000
0010
0000
0001
0010
0001
,
0000
1000
0000
0100
0000
0001
1000
0001
,
0000
0010
0000
1000
0000
0100
1000
0001
,
0000
0010
0100
0010
0000
0001
0000
1000
,
0000
0010
0001
0010
0000
0100
0000
1000
,
0000
0010
0100
0010
0000
1000
0010
1000
,
0000
0010
0100
0010
0000
0001
0010
0001
,
0000
1000
0001
0100
0010
1000
0001
0100
,
0010
2002
0000
0000
0000
0000
0000
0000
,
0000
0000
0000
3003
;

//--------------- dance-single - XLev450X-ESP ----------------
#NOTES:
     dance-single:
     XLev450X:
     Hard:
     11:
     0,0,0,0,0:
0000
0000
0000
0000
,
0000
1000
0001
0100
0010
1000
0010
0001
,
0000
0100
1000
0010
0000
0001
0010
0100
,
0000
1000
0001
1000
0001
0100
0010
1000
,
0000
0000
0010
0000
0010
0000
1000
0000
0001
0000
0100
0000
0001
0100
0001
0000
,
1000
0001
0000
1000
0000
0010
0010
1000
,
0000
0001
0000
0100
0000
0001
1000
0010
,
1000
0010
0000
0100
0000
1000
0001
1000
,
0000
0010
0001
0010
0000
0100
1000
0100
,
0000
0001
0000
1000
0000
0010
0100
0010
,
0000
1000
0000
0001
0000
0100
1000
0001
,
0000
0010
0000
1000
0000
0010
0100
0010
,
0000
0001
0000
1000
0000
0001
1000
1001
,
0000
0001
1000
0010
0000
0100
1000
0001
,
0100
0000
0010
0000
1000
0000
0001
0000
0000
0100
0000
0001
0000
0000
1000
0000
,
0000
0010
0100
1000
0000
0010
0100
0010
,
0000
0001
0000
1000
0000
0100
0001
0100
,
0000
0000
1000
0000
0000
0000
0010
0000
0000
0100
0000
0001
0000
0000
1000
0000
,
0000
0000
0010
0000
0000
0000
0100
0000
0000
1000
0000
0010
0000
0000
0001
0000
,
0000
1000
0001
1000
0000
0100
0000
1000
,
0001
0100
0000
0010
0000
1000
0001
0010
,
1000
0000
0000
0000
0001
0000
0000
0000
1000
0000
0000
0000
0010
0000
0000
0000
0010
0000
1000
0000
0010
0000
0000
0100
0000
0000
0001
0000
0000
0000
0000
0000
,
1000
0000
0000
0000
0100
0000
0000
0000
0010
0000
0001
0000
0010
0000
0000
0000
1000
0000
0001
0000
1000
0000
0000
0001
0000
0000
0100
0000
0000
0000
0000
0000
,
0001
0000
0010
0000
1000
0000
0010
0000
0100
0010
0100
0000
0001
0000
0010
0000
,
1000
0001
1000
0000
0010
0000
0100
0000
1000
0000
0001
0000
1000
0001
0000
0100
,
0000
0000
0010
0000
1000
0000
0000
0000
0001
0000
0000
0000
1000
0000
0000
0000
0010
0000
0000
0000
0100
0000
0000
0001
0000
0000
1000
0000
0000
0000
0000
0000
,
0010
0000
0000
0000
0100
0000
0000
0000
1000
0000
0010
0000
1000
0000
0000
0000
0010
0000
0000
0000
0100
0000
0000
0001
0000
0000
1000
0000
0000
0000
0000
0000
,
0001
0100
1000
0010
0000
1000
0001
0100
,
1000
0000
0010
0000
0100
0000
1000
0000
0001
0000
0010
0000
1000
0000
0010
1000
,
0010
0000
0001
0000
0000
1000
0000
0000
0001
0000
0100
0000
0000
0010
0000
0000
,
1000
0000
0001
0000
0000
0100
0000
0000
1000
0000
0001
0000
0000
0100
0000
0000
,
0010
1000
0001
0010
0000
0100
1000
0001
,
0100
0000
1000
0000
0001
0000
0010
0000
0100
0000
1000
0000
0001
1000
0000
0010
,
0000
0100
0010
0000
1000
0000
0001
0000
0010
0000
0100
0000
1000
0000
0001
0000
,
0000
0100
1000
0100
0000
0010
0001
0100
,
1000
0001
0100
1000
0000
0010
0100
1000
,
0001
0000
0010
0000
1000
0000
0001
0000
0010
0000
0001
0010
0001
0000
0100
1000
,
0100
0001
1000
0010
0100
0000
0010
1000
,
0100
1000
0001
0010
0100
0000
0001
1000
,
0010
0100
1000
0010
0101
0000
1000
0010
,
1000
0100
1000
0010
1000
0001
0100
0010
,
0100
2002
0000
0000
0000
0000
0000
0000
,
0000
0000
0000
3003
;

//--------------- dance-single - XLev450X-CSP ----------------
#NOTES:
     dance-single:
     XLev450X:
     Challenge:
     13:
     0,0,0,0,0:
0000
0000
0000
0000
,
0000
0000
0001
0000
1000
0000
0010
0000
0001
0010
0001
0000
1000
0000
0010
1000
,
0010
0100
0001
0000
1000
0000
0001
0000
1000
0010
1000
0000
0010
0000
0100
0000
,
0001
0010
0001
0000
1000
0000
0010
0000
0100
0010
0100
0000
0001
0000
1000
0001
,
1000
0001
0010
0000
1000
0000
0010
0000
1000
0000
0001
0010
0001
1000
0100
0001
,
1000
0001
1000
0000
0001
0000
0010
0000
0100
0000
1000
0000
0001
0010
0001
0000
,
0100
0001
0100
0000
1000
0000
0010
0000
1000
0000
0010
1000
0010
0000
0010
0001
,
0010
0000
0100
0000
1000
0000
0001
0000
0100
0000
1000
0000
0001
0100
0001
1000
,
0010
1000
0010
0000
0100
0000
0001
0000
0010
0000
1000
0000
0001
0000
1000
0010
,
1000
0010
0100
0000
0001
0000
1000
0000
0001
0000
0010
0000
1000
0000
0001
0010
,
0001
0000
1000
0000
0010
0000
0100
0000
1000
0000
0001
0000
1000
0000
0010
1000
,
0010
0100
0010
0000
0001
0000
0010
0000
1000
0001
1000
0000
0010
0000
0100
0000
,
1000
0001
1000
0000
0010
0000
1000
0000
0100
0000
0001
0000
0010
0001
0010
0000
,
0000
0000
0001
0000
1000
0000
0100
1000
0001
0000
1000
0000
0010
0100
0010
0000
,
1000
0010
1000
0000
0001
0000
0010
0000
1000
0001
0000
0100
0000
1000
0000
0001
,
0000
0100
0010
0000
1000
0000
0001
0010
0001
1000
0001
0000
0100
0000
1000
0000
,
0001
0000
0001
0010
0100
1000
0001
0010
1000
0000
0000
0001
1000
0000
0010
0000
,
1000
0010
0100
0000
0001
0000
1000
0010
0100
0001
1000
0000
0010
0000
0001
0000
,
0010
0000
1000
0100
0010
0000
0001
0000
0010
0000
0001
0010
0100
1000
0001
0000
,
0010
0000
1000
0100
0010
0001
1000
0000
0001
0000
0100
0000
0010
0000
1000
0000
,
0001
0000
1000
0001
1000
0010
0100
1000
0001
0010
0100
1000
0001
0010
0100
0000
,
1001
0000
1000
0010
1000
0000
0010
0100
0010
0000
0001
0010
1000
0001
0100
1000
,
0001
0010
1000
0000
0001
0000
0010
0000
1000
0000
0010
0100
1000
0001
0010
0100
,
1000
0001
0010
0000
0101
0000
0010
0000
1010
0000
0010
0000
0110
0000
0001
0000
,
1000
0000
0001
1000
0001
0000
0010
1000
0010
0000
0100
0000
1000
0001
0100
0000
,
0010
0000
1000
0000
0001
0000
0010
0000
1000
0100
1000
0000
0001
0000
0010
0000
,
0100
0001
0100
0000
0010
1000
0010
0000
0100
0000
0001
0000
0010
0000
1000
0000
,
0001
1000
0001
0000
0100
0000
1000
0000
0001
0000
0010
0000
1000
0000
0010
0000
,
0100
1000
0010
0000
0001
0000
0010
0000
1000
0000
0001
0100
0010
1000
0001
0100
,
0010
1000
0001
0000
1000
0000
0001
0000
0100
0000
0001
0000
0000
0000
1000
0000
,
0010
0000
0100
0000
0000
0000
0001
0000
1000
0000
0010
0000
0100
0000
1000
0001
,
1000
0001
1000
0000
0010
0000
0100
0000
1000
0000
0001
0000
0100
0000
0001
0000
,
0010
0001
0010
0000
1000
0000
0100
0000
1000
0000
0001
0000
0100
0001
0000
1000
,
0000
0010
1000
0010
0100
0000
0001
0000
0010
0000
1000
0000
0001
0000
0010
0000
,
1000
0001
1000
0000
0001
0000
0100
0000
1000
0001
1000
0000
0010
0000
0100
0000
,
1000
0101
0010
1010
0010
0110
0010
1100
,
0010
0000
0001
0000
1000
0000
0001
0000
0100
0000
1000
0001
1000
0010
0100
1000
,
0001
0010
1000
0000
0001
0000
0100
0000
1000
0000
0001
0000
0010
0000
1000
0000
,
0001
0000
0010
0001
0010
0000
1000
0010
1000
0000
0010
0000
0100
0000
0001
0000
,
0010
0101
0010
1000
0010
1010
0010
0001
,
0010
0000
0001
1000
0001
1000
0010
0100
1000
0001
0010
0100
1000
0001
0010
0100
,
1000
0010
0002
0000
0000
0000
0000
0000
0000
0000
0000
0000
0000
0000
0000
0000
,
0000
0000
0000
0003
;
