#TITLE:Beautiful Life (RGR-Special);
#ARTIST:ARIA;
#MUSIC:Beautiful Life (RGR-Special).ogg;
#BANNER:Beautiful Life (RGR-Special).png;
#BACKGROUND:Beautiful Life (RGR-Special)-bg.png;
#CDTITLE:./CDTITLES/DanceDanceRevolution SuperNOVA.png;
#SAMPLESTART:51.887;
#SAMPLELENGTH:15;
#BPMS:0=100;
#BGSTAGE:23;
#BGCHANGES:2.479=Beautiful Life (RGR-Special).avi=1.000=0=0=0=StretchNoLoop====,
99999.000=-nosongbg-=1.000=0=0=0=StretchNoLoop====;

//--------------- dance-single - XLev450X ----------------
#NOTES:
     dance-single:
     XLev450X:
     Challenge:
     13:
     0,0,0,0,0:
0000
0000
0000
0000
,
0000
0000
0000
0000
,
0000
0000
0000
0000
,
0000
0000
0000
0000
,
0001
0000
1000
0000
0010
0000
0100
0001
0000
1000
0010
0100
0001
0000
1000
0000
,
0010
0000
0000
0100
0000
0000
0001
0000
0000
1000
0000
0000
0010
0000
0000
0000
0000
0000
0100
0000
0000
0000
0000
0000
0001
0000
0000
1000
0000
0000
0010
0000
0000
0100
0000
0000
0010
0000
1000
0000
0010
0000
1000
0000
0100
0000
0010
0000
,
0001
0000
1000
0000
0010
0100
0001
0000
1000
0000
0010
0000
1000
0000
0100
0000
,
0001
0100
0010
1000
0001
0000
0100
0010
0000
1000
0001
0000
0100
0020
0030
0000
,
0001
0000
0000
0000
0000
0000
1000
0000
0000
0000
0000
0000
0010
0000
0000
0100
0000
0000
0000
0000
0000
0001
0000
0000
0000
0000
0000
1000
0000
0000
0010
0000
0000
0000
0000
0000
0001
0000
0100
0000
0010
0000
1000
0000
0001
0000
0010
0000
,
0200
0000
0300
0000
0001
0000
1000
0000
0010
0000
0100
0000
0001
1000
0010
0000
,
0202
0303
2020
3030
0220
0330
2002
3003
,
0202
0303
2020
3030
0220
0330
2002
3003
,
0010
0000
1000
0000
0001
0000
0000
0100
0000
0010
1000
0000
0001
0000
0100
0000
,
0010
0000
1000
0000
0001
0000
0100
0010
0000
1000
0001
0000
0100
0000
0001
0000
,
1000
0000
0010
0000
0100
0000
0000
0001
0000
1000
0010
0000
0100
0000
0001
1000
,
0010
0000
0100
0000
0001
0000
0000
1000
0000
0000
0010
0000
0200
0000
0300
0000
,
0001
0000
0000
0000
0000
0000
1000
0000
0000
0000
0000
0000
0100
0000
0000
0000
0000
0000
0000
0000
0000
0001
0000
0000
0000
0000
0000
1000
0000
0000
0010
0000
0000
0000
0000
0000
0010
0000
0100
0000
0001
0000
0100
0000
0001
0000
0010
0000
,
1000
0000
0010
0100
0010
0100
1000
0001
0000
1000
0010
0000
0100
0000
0010
1000
,
0002
0000
0000
0000
0000
0000
0000
0000
0003
0000
0000
0000
0000
0000
0000
0000
0200
0000
0000
0000
0000
0000
0000
0000
0300
0000
0000
0000
0000
0000
0000
0000
0010
0000
0000
0000
0000
0000
0000
0000
1000
0000
0000
0000
0000
0000
0000
0000
0002
0000
0000
0000
0000
0000
0000
0000
0000
0003
0000
0000
0000
0000
0000
0000
,
0100
0000
0010
0000
1000
0000
0001
0000
0100
0010
1000
0001
0100
0010
1000
0001
,
0100
0000
0010
0000
1000
0000
0000
0010
0000
0100
0001
0000
1000
0000
0010
0000
,
0100
0000
0001
0000
1000
0000
0000
0010
0000
0100
0001
0000
1000
0100
0001
1000
,
0010
0000
1000
0000
0001
0000
0000
0100
0000
0010
1000
0000
0001
0000
0100
0000
,
0010
0000
1000
0000
0001
0000
0100
0010
0000
1000
0001
0000
0100
0000
0010
0000
,
1000
0000
0000
0000
0000
0000
0001
0000
0000
0000
0000
0000
0100
0000
0000
0000
0000
0000
0000
0000
0000
0010
0000
0000
0000
0000
0000
1000
0000
0000
0001
0000
0000
0000
0000
0000
0100
0000
1000
0000
0001
0000
0010
0000
0100
0000
1000
0000
,
0001
0000
0010
0000
1000
0000
0000
0010
0000
0100
0001
0000
1000
0000
0010
0000
,
0200
0300
0001
1000
0020
0030
0100
0001
,
1000
0000
0010
0000
0100
0000
0001
0000
1000
0000
0010
0000
0100
0001
1000
0010
,
0200
0000
0300
0000
0001
0000
0000
1000
0000
0010
0000
0100
0001
0000
1000
0000
,
0010
0000
0100
0000
0001
1000
0000
0010
0100
0000
0001
0000
1000
0010
0100
0001
,
1000
0000
0010
0000
0200
0000
0300
0001
0000
1000
0010
0000
0100
0001
1000
0010
,
0100
0000
0001
0000
1000
0000
0010
0001
0000
0100
1000
0000
0010
0100
0001
1000
,
0010
0000
0000
0000
0000
0000
0100
0000
0000
0000
0000
0000
0002
0000
0000
0003
0000
0000
0000
0000
0000
0010
0000
0000
0000
0000
0000
1000
0000
0000
0001
0000
0000
0000
0000
0000
0100
0000
1000
0000
0001
0000
0010
0000
0100
0000
0010
0000
,
0200
0300
0001
0000
1000
0000
0000
0010
0000
0100
0001
0000
1000
0000
0010
0000
,
0100
0000
0001
0000
1000
0000
0010
0000
0100
0000
0001
0000
1000
0000
0010
0100
,
0001
0000
0000
0000
0000
0000
1000
0000
0000
0000
0000
0000
0010
0000
0000
0100
0000
0000
0000
0000
0000
0001
0000
0000
0000
0000
0000
0000
0000
0000
1000
0000
0000
0000
0000
0000
0100
0000
0010
0000
0001
0000
0100
0000
0010
0000
0100
0000
,
0001
0000
0010
0000
1000
0000
0000
0001
0000
0100
0010
0000
1000
0000
0001
0000
,
0100
0000
0010
0000
1000
0001
0000
0100
0020
0000
0000
0000
0030
0000
0000
0000
;
