#TITLE:Beat Juggling Mix;
#ARTIST:Hommarju;
#GENRE:DJ BATTLE;
#MUSIC:Beat Juggling Mix.ogg;
#BANNER:Beat Juggling Mix.png;
#BACKGROUND:Beat Juggling Mix-bg.png;
#CDTITLE:./CDTitles/bm IIDX 24 SINOBUZ.png;
#SAMPLESTART:69.599;
#SAMPLELENGTH:15;
#OFFSET:2.328;
#BPMS:0=105
,55=66
,56=94
,91=198
,92=192
,93=186
,94=170
,95=188
,277=176
,278=170
,279=164
,280=156
,281=142
,282=130
,283=120;
#BGCHANGES:5.300=Beat Juggling Mix.mp4=1.000=0=0=0=StretchNoLoop====,
99999.000=-nosongbg-=1.000=0=0=0=StretchNoLoop====;
#BGSTAGE:30;

//--------------- dance-single - DJ XLev450X-bSP ----------------
#NOTES:
     dance-single:
     DJ XLev450X:
     Beginner:
     4:
     0,0,0,0,0:
0000
0000
0000
0000
,
0000
0000
0000
0000
,
0000
0000
0000
0000
,
0000
0000
0000
0000
,
0000
0000
0000
0000
,
0001
0000
1000
0000
,
0001
0000
0000
0000
,
0010
0000
0100
0000
,
0010
0000
0000
0000
,
1000
0000
0010
0000
,
1000
0000
0000
0000
,
0001
0000
0100
0000
,
2002
3003
0220
0330
,
1001
0000
0000
0000
,
0000
0000
0000
0000
,
0000
0000
0000
1000
,
0000
0010
0000
1000
,
0000
0010
0000
1000
,
0000
0010
0000
1000
,
0000
0010
0000
0001
,
0000
1000
0000
0001
,
0000
0000
0000
2020
,
0000
0000
3030
0022
,
0000
0000
0033
0000
,
0000
0000
0000
1000
,
0000
0001
0000
1000
,
0000
0000
0000
0010
,
0000
0100
0000
0010
,
0000
0000
0000
0001
,
0000
0010
0000
0001
,
0000
0000
0000
1000
,
0000
0001
0000
1000
,
0000
0000
0000
2002
,
0000
3003
0000
2002
,
0000
3003
0000
2002
,
0000
0000
0000
3003
,
0000
0000
0000
0010
,
0010
0010
0000
1000
,
0000
0100
0000
0001
,
0001
0001
0000
1000
,
0000
0001
0000
1000
,
0100
0001
0000
0010
,
0000
0100
0000
0010
,
1000
0010
0000
0001
,
0000
1000
0000
0001
,
0001
0001
0000
1000
,
1000
1000
0000
0010
,
0010
0010
0000
0100
,
0100
0100
0000
0010
,
1000
0010
0000
0001
,
0010
0001
0000
1000
,
0001
1000
0000
0000
,
0000
0000
0000
1000
,
0001
1000
0000
0010
,
1000
0010
0000
0100
,
0010
0100
0000
0001
,
0010
0001
0000
1000
,
0000
0001
0000
1000
,
0000
0010
0000
1000
,
0000
0001
0000
0100
,
0000
0000
0000
0010
,
1000
0010
0000
0001
,
0010
0001
0000
1000
,
0001
1000
0000
0100
,
1000
0100
0000
0010
,
0100
0010
0000
0001
,
0010
0001
0000
1000
,
0000
0001
0000
1000
,
0000
0000
0000
2002
,
0000
0000
3003
2002
,
0000
0000
3003
1001
;

//--------------- dance-single - DJ XLev450X-BSP ----------------
#NOTES:
     dance-single:
     DJ XLev450X:
     Easy:
     8:
     0,0,0,0,0:
0000
0000
0000
0000
,
0000
0000
0000
0000
,
0000
0000
0000
0000
,
0000
0000
0000
0000
,
0000
0000
0000
0000
,
0001
0000
1000
0000
0010
1000
0010
0000
,
0100
0001
1000
0001
,
0100
0001
0100
0000
0010
0000
1000
0000
,
0001
1000
0001
0000
,
0010
0100
0010
0000
0001
0000
1000
0000
,
0010
0100
0010
0000
,
1000
0001
1000
0000
0010
1000
0010
0000
,
0002
0013
0020
0130
0200
1300
2000
3001
,
0001
1000
0001
0022
,
0033
0000
0000
0002
,
0003
2000
3000
0010
,
0100
0010
0000
1000
,
0010
1000
0000
0001
,
0100
0000
0001
0000
0000
0000
0002
1003
,
0020
0130
2000
3100
0200
0310
0001
0000
,
1000
0001
0000
0010
,
1000
0000
0000
0000
0010
0000
0000
0000
0000
0000
0000
0000
0100
0000
0000
0001
,
0000
0000
1000
0000
0000
0001
0000
0000
1000
0000
0000
0000
2002
0000
0000
0000
,
0000
0000
3003
0220
,
0000
0000
0330
0010
,
0000
1000
0000
0001
,
0000
0000
0000
0100
,
0000
1000
0000
0001
,
0000
0000
0000
0010
,
0000
1000
0000
0010
,
0000
0000
0000
0001
,
0000
1000
0000
0100
,
0000
0000
0000
0001
,
0001
1000
0010
1000
,
0100
1000
0001
0100
,
0010
1000
0001
0220
,
0000
0000
0330
1000
,
0100
1000
0001
0010
,
1000
0000
0010
1000
0010
0000
0001
0000
,
0100
1000
0001
1000
,
0010
1000
0010
0000
0000
0000
0001
0000
,
1000
0100
1000
0001
,
0100
0001
0100
0000
1000
0000
0010
0000
,
1000
0100
1000
0010
,
1000
0010
1000
0000
0000
0000
0001
0000
,
1000
1000
0001
0100
,
1000
0010
1000
0100
,
1000
0001
1000
0000
0010
1000
0010
0000
,
0001
1000
0000
0010
,
0100
1000
0001
0100
,
1000
0000
0001
0000
1000
0000
0001
1000
,
0001
0000
0010
1000
0010
0000
2002
0000
,
0000
0000
3003
1000
,
0100
0001
1000
0100
,
1000
0010
1000
0100
,
0001
0010
1000
0001
,
0010
1000
0000
0010
,
0010
1000
0100
1000
,
0001
0100
0000
0001
,
1000
0100
1000
0010
,
1000
0001
0000
0010
,
0010
1000
0100
1000
,
0001
0100
0000
0001
,
1000
0001
0000
0010
,
1000
0010
0000
0001
,
1000
0100
1000
0001
,
1000
0000
0010
0000
1000
0000
0010
1000
,
0010
0000
0001
0010
0001
0000
2002
0000
,
0000
0000
3003
0002
,
0023
0230
2300
3200
,
0320
0000
0032
0000
0023
0030
1001
0000
;

//--------------- dance-single - DJ XLev450X-DSP ----------------
#NOTES:
     dance-single:
     DJ XLev450X:
     Medium:
     11:
     0,0,0,0,0:
0000
0000
0000
0000
,
0000
0000
0000
0000
,
0000
0000
0000
0000
,
0000
0000
0000
0000
,
0000
0000
0000
0000
,
0010
1000
0010
0000
0001
0010
0001
0000
,
1000
0001
1000
0100
1000
0001
0010
0000
,
0010
1000
0010
0000
0001
0100
1000
0001
,
1000
0001
0100
0000
0010
0100
0010
0000
,
0001
0010
0001
0000
1000
0010
1000
0000
,
0100
1000
0001
0100
1000
0010
0100
0000
,
0001
0000
1000
0000
0010
0000
1000
0100
0001
0000
0100
0000
1000
0000
0001
1000
,
0200
0000
0301
0010
2000
0000
3100
0001
0020
0000
0230
0000
0302
0000
1003
0100
,
0010
0000
0000
0000
0000
0000
0000
0000
0001
0000
0000
0000
0000
0000
1000
0000
0000
0000
0000
0000
0010
0000
0000
0000
0100
0000
0000
2002
0000
0000
3003
0000
,
0000
0000
0000
0000
0000
0000
0022
0033
,
2002
3003
2020
3030
0220
0330
0001
1000
,
0100
0001
1000
0010
1000
0100
0001
0010
,
1000
0010
1000
0001
0010
0000
0001
1000
,
0100
1000
0001
0010
1000
0001
0102
0103
,
1020
1030
0010
0100
1000
0001
0100
1000
,
0001
0000
0100
0000
1000
0100
0001
0000
0010
0000
0100
0000
1000
0000
0100
0000
,
0001
0000
0010
0000
1000
0001
0100
0000
1000
0100
0001
0100
1000
0000
0100
0001
,
0000
1000
0100
0000
0010
1000
0000
0010
0100
0000
0000
0000
2002
0000
0000
0000
,
0000
0000
3003
1000
,
0001
0100
1000
0010
,
1000
0010
1000
0000
0001
0000
0010
0000
,
1000
0001
1000
0000
0000
0000
0001
0000
,
0100
0001
0100
0000
1000
0000
0010
0000
,
0100
0010
0100
0000
0000
0000
0001
0000
,
1000
0001
1000
0000
0010
0000
1000
0000
,
0100
0001
0100
0000
0000
0000
0001
0000
,
1000
0001
1000
0000
0010
0000
1000
0000
,
0100
0001
0000
1000
,
1000
0010
0100
1000
,
0001
0000
0100
0000
1000
0000
0001
0010
,
0001
0000
1000
0010
1000
0000
2002
0000
,
0000
0000
3003
0001
,
1000
0000
0010
0000
1000
0010
1000
0000
,
0001
0001
1000
0001
1000
0000
0010
0000
,
1000
0000
0100
0000
1000
0010
1000
0000
,
0001
0100
1000
0001
,
1000
0001
1000
0010
0000
0100
0000
0001
,
0000
1000
0100
0000
0001
0000
0010
0000
,
0001
0010
0001
0000
1000
0001
0000
0100
,
0000
1000
0001
0000
1000
0000
0101
0000
,
1010
0000
0110
0000
1001
0000
0010
1000
,
0001
1000
0010
0000
0001
0000
1000
0010
,
1000
0000
0001
0010
0001
0000
1000
0000
,
0100
1000
0000
0001
,
1000
0000
0100
0000
1000
0000
0010
1000
,
0010
0000
0001
0000
0010
0000
0001
1000
,
0001
0000
0010
1000
0010
0000
0220
0000
,
0000
0000
0330
0001
,
1000
0100
1000
0001
,
1000
0100
0000
0010
,
1000
0010
0100
0001
,
1000
0001
0000
1000
,
1000
0100
1000
0001
,
0010
1000
0000
0010
,
0001
0000
1000
0000
0100
0000
1000
0001
,
1000
0010
0000
0001
,
0001
1000
1000
0010
,
1000
0100
0000
0001
,
1000
0100
1000
0010
,
1000
0010
1000
0000
0000
0000
0001
0000
,
1000
0100
1000
0001
,
0010
0000
0001
0000
1000
0000
0001
1000
,
0001
1000
0010
0100
0010
0100
2002
0000
,
0000
0000
3003
0002
,
0023
2030
3200
0302
,
2003
0000
3020
0000
0230
0300
1001
0000
;

//--------------- dance-single - DJ XLev450X-ESP ----------------
#NOTES:
     dance-single:
     DJ XLev450X:
     Hard:
     16:
     0,0,0,0,0:
0000
0000
0000
0000
,
0000
0000
0000
0000
,
0000
0000
0000
0000
,
0000
0000
0000
0000
,
0000
0000
0000
0000
,
0001
0000
1000
0000
0010
0000
0100
0000
1000
0010
1000
0000
0001
0000
0010
0000
,
1000
0000
0000
0000
0001
0000
0100
0000
1000
0000
0000
0000
0001
0000
1000
0000
0000
0000
0010
0000
0000
0000
0100
0000
1000
0000
0001
0000
1000
0000
0001
1000
,
0010
0000
1000
0000
0001
0000
0100
0000
0001
0010
0001
0000
1000
0000
0010
0000
,
1000
0000
0100
0000
0001
0000
0100
0000
1000
0000
0010
0000
1000
0000
0001
0000
0000
0000
0100
0000
0000
0000
1000
0000
0010
0000
0100
0000
1000
0001
0100
1000
,
0001
0000
0100
0000
1000
0000
0001
0000
0010
0001
0010
0000
1000
0000
0010
0000
,
1000
0001
0100
1000
0001
0100
1000
0010
0000
1000
0001
0100
1000
0100
0001
1000
,
0010
0000
0000
0000
1000
0000
0000
0000
0001
0000
0000
0000
0010
0000
0001
0000
0010
0000
0000
0000
1000
0000
0000
0000
0010
0000
0000
0000
0100
0010
0100
0010
,
0200
0000
0301
0100
0020
0000
1030
0010
2000
0000
3001
0100
0020
0000
1030
0001
,
0010
0000
0000
0000
1000
0000
0000
0000
0001
0000
0000
0000
0000
0000
1000
0000
0000
0000
0100
0000
0001
0000
0000
0000
0100
0000
0000
0020
0000
0000
0030
0000
,
0000
0000
0000
1001
,
1001
0000
0000
0000
0000
0000
0000
0000
1001
0000
0000
0000
0000
0000
1000
0001
1000
0000
0010
0000
0100
0000
0000
0000
0001
0000
0000
0000
1000
0001
1000
0001
,
1000
0000
0000
0000
0001
0000
0000
0000
0010
0000
0100
0001
1000
0000
0100
0000
0001
0000
0010
0000
0100
0000
0000
0000
1000
0000
0000
0000
0001
0010
1000
0100
,
0010
0000
0000
0000
1000
0000
0000
0000
0100
0000
0010
1000
0001
0000
0100
0000
1000
0000
0001
0000
0010
0000
0000
0100
1000
0000
0000
0000
0001
0100
1000
0100
,
0010
0000
0000
0000
1000
0000
0000
0000
0001
0010
0001
0000
1000
0000
0010
0000
0100
0000
0000
0000
1000
0000
0100
0000
0001
0000
0000
0000
1000
0100
0010
0001
,
1000
0000
0000
0000
0001
0010
0100
1000
0001
0000
0000
1000
0001
0000
0000
0100
0010
0000
0100
0000
1000
0100
0010
0001
0010
0000
0000
0000
1000
0001
1000
0001
,
1000
0000
0000
0000
0010
0000
0000
0000
1000
0000
0100
0001
1000
0000
0100
0000
0001
0000
0000
0000
1000
0000
0000
0000
0100
0000
0000
0000
0010
0100
0010
0100
,
0010
0000
0000
0000
0010
0000
0000
0000
1000
0000
0100
0001
0010
0000
0100
0000
1000
0000
0000
0100
0001
0000
1000
0000
0010
0000
0000
0000
0001
0000
1000
0000
,
0000
0010
1000
0000
0100
0001
0000
1000
0002
0000
0003
0000
2002
0000
0000
0000
,
0000
0000
0000
0000
0000
0000
0000
0000
3003
0000
0000
0000
0001
0100
0010
1000
,
0010
0100
0010
1000
0100
1000
0010
0100
0001
0010
0100
1000
0001
0000
0000
0000
,
1000
0010
0001
1000
0000
0100
0000
0001
,
0000
0010
0001
0000
1000
0000
0100
0000
,
0001
1000
0001
1000
0010
1000
0000
0100
,
0000
1000
0001
0000
1000
0000
0001
0000
,
0010
0001
1000
0001
0000
0001
0000
1000
,
0000
0100
1000
0000
0001
0000
0010
0000
,
1000
0010
1000
0100
0001
0100
0000
1000
,
0000
0001
0100
0000
1000
0000
0010
0100
,
0001
1000
0100
0010
0001
1000
0100
0010
,
0001
0000
1000
0000
0010
0000
1000
0000
0100
0000
0010
0000
0001
0010
0100
1000
,
0001
0010
0100
1000
0001
0010
0100
1000
0001
0010
0100
1000
0002
0000
0000
0000
,
0000
0003
2002
3003
0220
0330
1000
0010
,
0001
0010
0100
0001
1000
0100
0001
0100
,
0010
0000
0001
0000
1000
0000
0001
0100
0001
0000
0000
0000
0010
0000
1000
0000
,
0010
0100
1000
0010
0100
1000
0001
0010
,
0100
0000
0001
0000
1000
0000
0010
0001
0010
0000
0000
0000
0100
0000
0010
0000
,
1000
0001
0010
1000
0001
0100
1000
0001
,
0100
0000
0010
0000
0001
0000
0010
1000
0010
0000
0000
0000
0100
0000
0010
0000
,
0001
0010
1000
0100
0010
1000
0010
0001
,
0100
0000
1000
0000
0100
0000
0001
1000
0001
0000
0000
0000
0101
0000
1010
0000
,
0101
1001
1010
0101
1010
0110
0001
0010
,
1000
0000
0010
0000
0100
0000
1000
0010
1000
0000
0000
0000
0100
0000
0001
0000
,
0100
0010
1000
0010
0001
1000
0010
0100
,
0001
0000
0010
0000
1000
0000
0010
0001
0010
0000
0000
0000
0100
0000
0100
0000
,
1000
1000
0001
0001
0100
0100
0001
0001
,
0010
0000
0010
0000
0100
0000
0100
0000
1000
0000
1000
0000
0010
1000
0010
1000
,
0001
0010
0001
0010
0100
1000
0001
1000
0010
0100
0001
1000
0002
0000
0000
0000
,
1003
0100
0020
0000
0200
0330
0100
0010
,
0001
0000
0100
0000
0010
0000
1000
0000
0010
0001
1000
0000
0010
0000
0100
0000
,
0010
0100
1000
0000
0001
0100
1000
0000
0001
1000
0100
0000
0001
0000
0010
0000
,
0100
0000
1000
0000
0010
0000
1000
0000
0100
0000
0010
0000
0001
0000
1000
0001
,
0100
0000
0010
0000
0001
0000
0010
1000
0100
0000
1000
0000
0001
0000
0000
0000
,
0100
0000
0010
1000
0010
0000
0001
0000
0010
0000
1000
0100
1000
0000
0001
0000
,
0100
0000
1000
0000
0100
0000
0010
0000
0001
0000
0010
0100
0020
0000
0030
0000
,
1000
0100
1000
0010
0100
0000
0002
0000
0013
0000
0100
1000
0001
0010
0001
1000
,
0100
0000
1000
0010
1000
0001
0100
0000
0010
1000
0001
0000
0101
0000
0001
0000
,
1100
1000
0011
0001
1010
1000
2002
3003
,
1000
0000
0010
0000
0100
0001
1000
0001
0010
0100
1000
0000
0010
1000
0000
0001
,
0010
0000
0100
1000
0010
0100
0010
1000
0001
0010
0100
1000
0100
1000
0000
0001
,
0100
0010
1000
0100
0010
0001
0100
0010
2000
0000
3000
0000
0100
0000
0010
0000
,
0100
1000
0001
0010
0001
1000
0010
0100
,
0010
0000
1000
0000
0010
0000
0100
0000
0001
0000
0100
0000
0010
0100
0001
0100
,
0001
0010
0001
1000
0001
0010
0100
1000
0001
0100
0010
1000
0010
1000
0100
0010
,
0001
0010
0100
0010
0001
0100
0001
1000
0001
0100
1000
0001
0200
0000
0000
0300
,
0010
0100
0010
0100
0200
0000
0000
0300
0010
0100
0010
0100
0200
0000
0000
0300
,
0010
0000
0000
0100
0000
0000
0010
0000
0000
0100
0000
0000
0200
0000
0000
0000
0000
0000
0000
0000
0000
0300
0000
0000
0100
0000
0000
0010
0000
0000
0100
0000
0000
0010
0000
0000
1001
0000
0000
0000
0000
0000
0000
0000
0000
0000
0000
0000
;
