#TITLE:Be Rock U (1998 burst style);
#ARTIST:NAOKI;
#GENRE:ULTRA ROCK BEAT;
#BANNER:Be Rock U (1998 burst style).png;
#BACKGROUND:Be Rock U (1998 burst style)-bg.png;
#CDTITLE:./CDTitles/bm IIDX 9th Style.png;
#MUSIC:Be Rock U (1998 burst style).ogg;
#OFFSET:0.14;
#SAMPLESTART:40.46;
#SAMPLELENGTH:15;
#BPMS:0=150;
#BGCHANGES:0=Be Rock U (1998 burst style).mp4=1.000=0=0=0=StretchNoLoop====,
99999=-nosongbg-=1.000=0=0=0 // don't automatically add -songbackground-;
#BGSTAGE:15;

//--------------- dance-single - XLev450X-bSP ----------------
#NOTES:
     dance-single:
     XLev450X:
     Beginner:
     3:
     0,0,0,0,0:
0000
0000
0000
0000
,
0000
0000
0000
0000
,
0000
0000
0000
0000
,
0000
0000
0000
0000
,
0000
0000
0000
0000
,
0001
0000
0001
0000
,
1000
0000
0000
0000
,
0010
0000
0010
0000
,
0100
0000
0000
0000
,
0001
0000
1000
0000
,
0001
0000
0000
0000
,
1000
0000
0001
0000
,
0100
0000
0010
0010
,
0010
0000
0001
0000
,
1000
0000
0001
0000
,
1000
0000
0001
0000
,
0100
0000
0010
0010
,
1000
0000
0001
0000
,
1000
0000
0000
0000
,
0001
0000
1000
0000
,
0001
0000
0000
0000
,
1000
0000
1000
0000
,
0001
0000
0000
0000
,
0001
0000
0001
0000
,
1000
0000
0000
0000
,
2002
0000
0000
3003
,
0001
0000
1000
0000
,
0001
0000
0000
0000
,
0010
0000
0100
0000
,
0010
0000
0000
0000
,
1000
0000
0010
0000
,
1000
0000
0000
0000
,
0001
0000
0100
0000
,
0001
0000
0000
0000
,
1000
0000
0010
0000
,
0001
0000
0010
0000
,
0001
0000
0100
0000
,
1000
0000
0100
0000
,
1000
0000
1001
0000
,
0001
0000
1001
0000
,
0100
0000
0110
0000
,
0010
0000
0110
0000
,
0000
1000
0000
0001
,
0000
0100
0000
1000
,
0000
0001
0000
1000
,
0000
0100
0000
0001
,
0000
0010
0000
1000
,
0000
0010
0000
0001
,
0000
0100
0000
0010
,
0000
0001
0000
1001
,
2002
0000
0000
3003
,
1000
1000
0000
0001
,
0000
0001
0000
1000
,
0000
0100
0000
0010
,
0000
0100
0100
0100
,
1001
0000
0000
0000
,
1000
0000
0000
0000
,
0001
0000
0001
0000
,
0100
0000
0000
0000
,
1000
0000
1000
0000
,
0100
0000
0000
0000
,
0001
0000
0001
0000
,
0100
0000
0000
0000
,
1000
0000
0001
0000
,
0010
0000
0000
0000
,
0001
0000
1000
0000
,
0100
0000
0000
0000
,
0010
0000
0100
0000
,
2002
0000
0000
3003
0000
0000
0000
0000
;

//--------------- dance-single - XLev450X-BSP ----------------
#NOTES:
     dance-single:
     XLev450X:
     Easy:
     6:
     0,0,0,0,0:
0000
0000
0000
0000
,
0000
0000
0000
0000
,
0000
0000
0000
0000
,
0000
0000
0000
0000
,
0000
0000
0000
0000
,
0001
1000
0001
0000
,
0010
0010
1000
0000
,
1000
0100
0001
0000
,
1000
0001
1000
1001
,
0010
0000
1000
0100
,
0001
0000
1000
0010
,
1000
0000
0001
0000
,
0100
0000
0010
0010
,
1000
0000
0001
0000
,
1000
0000
0001
0000
,
1000
0000
0001
0000
,
0100
0000
0010
0010
,
1000
1000
0010
1000
,
0010
1000
0100
1000
,
0010
1000
0100
1000
,
0002
0000
0000
0003
1000
0000
1000
0000
,
0001
0001
0010
0001
,
0010
0001
0100
0001
,
0200
0000
0000
0310
,
1000
1000
0001
0001
,
2002
0000
0000
3003
,
0001
1000
0010
0000
,
1000
0100
0001
1000
,
0010
0100
1000
0000
,
0001
1000
0001
0000
,
0010
0100
0010
0000
,
1000
0010
1000
0000
,
0001
0100
0001
0000
,
1000
0001
1000
0000
,
1000
0100
0010
0001
,
0001
0100
0010
1000
,
0001
0000
1000
0000
,
0010
0000
0100
0000
,
0100
0000
0001
0001
,
0100
0000
1000
1000
,
0001
0000
1000
0010
,
1000
0000
0001
0010
,
1000
0000
0001
0000
,
0100
0010
1000
0001
,
0001
0000
1000
0000
,
0100
0010
0001
0001
,
1000
0010
1000
1000
,
0001
0010
0001
0001
,
1000
0001
0100
0100
,
0001
0001
1000
1000
,
0100
1000
0100
0001
,
0100
0000
0010
0000
,
1000
0000
0001
0000
,
1000
0000
0001
0000
,
1000
0001
1000
0001
,
1001
0000
0001
1000
,
0100
0001
0100
1000
,
0001
1000
1000
0001
,
0001
1000
1001
0000
,
0001
1000
0001
1000
,
0001
1000
1001
0001
,
1000
0001
1001
1000
,
0001
1000
1001
0000
,
1001
0000
1001
0000
,
1010
1010
0001
0001
,
0011
0011
1000
1000
,
1001
1001
0110
0110
,
1000
0000
0001
0000
,
0010
0000
0000
0100
0000
0000
0110
0000
0000
0000
0000
0000
0000
0000
0000
0000
;

//--------------- dance-single - XLev450X-DSP ----------------
#NOTES:
     dance-single:
     XLev450X:
     Medium:
     11:
     0,0,0,0,0:
0000
0000
0000
0000
,
0000
0000
0000
0000
,
0000
0000
0000
0000
,
0000
0000
0000
0000
,
0000
0000
0000
0000
,
0001
1000
0100
0001
,
1000
0001
0010
0000
,
1000
0100
0001
0010
,
0001
0010
0001
0000
1000
0100
1000
0000
,
0001
1000
0100
0001
,
0010
1000
0001
0100
,
0001
0000
1000
0000
,
0010
0010
0100
0100
,
0001
1000
0001
1000
,
0001
1000
0001
1000
,
0001
0000
1000
0000
,
0010
0010
0100
1001
,
1001
0000
0001
0001
1000
0000
0001
0000
,
0010
0010
0100
0000
1000
0000
0001
0000
,
0001
0000
0001
0000
1000
0000
0000
0000
1000
0000
1000
0001
0000
0000
0000
0000
,
0100
0000
0100
0000
0010
0000
0000
0000
0010
0000
0010
0100
0000
0000
0000
0000
,
0010
0010
1000
0000
1000
1000
0001
0000
,
0001
0001
0100
0000
0100
0100
0010
0000
,
1000
1000
0010
0010
0100
0100
0001
0000
,
1000
1000
0100
0100
0010
0010
0001
0000
,
2002
0000
0000
0000
0000
0000
3003
0000
,
0001
0000
0000
1000
0000
0000
0001
0000
0100
0000
0000
0000
0000
0000
0000
0000
,
0010
0000
0000
1000
0000
0000
0010
0000
0100
0000
0000
0000
0000
0000
0000
0000
,
0001
1000
0001
0000
,
0010
0000
0000
1000
0000
0000
0001
0000
0100
0000
0000
0000
0010
0000
0000
0000
,
1000
0000
0000
0001
0000
0000
0100
0000
0010
0000
0000
0000
0000
0000
0000
0000
,
1000
0000
0000
0001
0000
0000
1000
0000
0100
0000
0000
0000
0000
0000
0000
0000
,
0001
0000
1000
0001
0000
0100
0000
0001
,
0000
1000
0000
1000
0010
1000
0001
0000
,
0001
0010
0100
1000
,
1000
0010
0100
0001
,
1000
0100
0001
0100
,
0001
0000
1000
0000
0001
1000
0001
0000
,
0010
0010
1000
0100
,
0010
0010
0001
0100
,
1000
1000
0001
0100
,
0001
0001
1000
0100
,
0001
0100
1000
0100
,
0010
0000
0100
0000
0001
1000
0100
0000
,
1000
0100
0001
0100
,
0010
0000
0100
0000
1000
0001
0100
0000
,
1001
0000
0100
0000
0001
0100
0001
0000
,
1001
0000
0100
0000
1000
0100
1000
0000
,
0001
0000
1000
0000
0010
0100
0010
0000
,
1001
0000
1000
0000
0001
0100
0001
0000
,
1000
0001
1000
0001
1000
0001
1000
0001
1000
0001
1000
0001
,
0010
0000
0100
0000
,
0001
0000
1000
0000
,
0001
0000
1000
0000
,
0001
1000
0001
1001
,
1000
0000
0001
0000
0000
0010
0000
0001
0000
1000
0000
0100
0000
0000
0010
0000
,
0001
0000
1000
0000
0000
0010
0000
1000
0000
0001
0000
0100
0000
0000
0010
0000
,
1000
0000
0001
0000
0000
1000
0000
0100
0000
0010
0000
0001
0000
0000
1000
0000
,
0001
0000
1000
0000
0000
0001
0000
0100
0000
0010
0000
1000
0000
0000
0001
0000
,
0010
0000
0001
0000
0100
0000
0000
0100
0000
0001
0000
1000
0000
0000
1000
0000
,
0010
0000
1000
0000
0100
0000
0000
0100
0000
1000
0000
0001
0000
0000
0001
0000
,
0100
0000
0001
0000
0010
0000
0000
0010
0000
0001
0000
1000
0000
0000
1000
0000
,
0100
0000
1000
0000
0010
0000
0000
0010
0000
1000
0000
0001
0000
0000
0001
0000
,
1000
0000
0001
0000
0000
1000
0000
0100
0000
0010
0000
0100
0000
0000
1000
0000
,
0001
0000
1000
0000
0000
0001
0000
0100
0000
0010
0000
0100
0000
0000
0001
0000
,
1000
0000
0001
0000
0000
1000
0000
0100
0000
0001
0000
0100
0000
0000
1000
0000
,
0001
0000
1000
0000
0000
0001
0000
0100
0000
1000
0000
0100
0000
0000
0001
0000
,
0001
0001
1000
1000
,
1000
0000
0000
0100
0000
0000
1001
0000
0000
0000
0000
0000
0000
0000
0000
0000
;

//--------------- dance-single - XLev450X-ESP ----------------
#NOTES:
     dance-single:
     XLev450X:
     Hard:
     14:
     0,0,0,0,0:
0000
0000
0000
0000
,
0000
0000
0000
0000
,
0000
0000
0000
0000
,
0000
0000
0000
0000
,
0000
0000
0000
0000
,
0001
0000
1000
0000
0010
1000
0010
0100
,
0001
0000
1000
0000
0001
1000
0001
0000
,
0010
1000
0010
0000
0010
0100
0010
0000
,
0001
0010
1000
0001
0100
0010
2002
3003
,
0001
0000
0000
1000
0000
0000
0100
0000
0000
0010
0000
0000
1000
0000
0100
0000
,
0001
0000
0000
0010
0000
0000
0100
0000
0000
1000
0000
0000
0100
0000
0010
0000
,
0001
1000
0000
0000
0100
0000
0000
0000
0001
0000
0000
0000
0100
0000
0000
0000
,
1000
0001
0000
0000
0100
0000
0000
0000
1000
0000
0000
0000
0100
0000
0000
0000
,
0001
1000
0000
0000
0100
0000
0000
0000
0001
0000
0000
0000
0100
0000
0000
0000
,
1000
0001
0000
0000
0100
0000
0000
0000
1000
0000
0000
0000
0100
0000
0000
0000
,
0001
1000
0000
0000
0100
0000
0000
0000
0001
0000
0000
0000
1000
0000
0000
0000
,
0001
0000
0001
0000
0001
0010
0100
0000
,
1000
0000
0100
1000
0100
0000
0010
0000
0100
0000
1000
0100
1000
0000
0001
0000
,
0001
0000
0100
0001
0100
0000
0010
0000
0100
0000
0001
0100
0001
0000
1000
0000
,
1000
0000
0100
0010
0100
0000
0010
0000
0001
0000
1000
0100
1000
0000
0001
0000
,
0001
0000
0100
0010
0100
0000
0010
0000
1000
0000
0001
0100
0001
0000
1000
0000
,
1000
0000
0010
1000
0010
0000
0100
0000
0010
0000
1000
0010
1000
0000
0001
0000
,
0001
0000
0010
0001
0010
0000
0100
0000
0010
0000
0001
0010
0001
0000
1000
0000
,
1000
0000
0010
0100
0010
0000
0100
0000
0001
0000
1000
0010
1000
0000
0001
0000
,
0001
0000
0010
0100
0010
0000
0100
0000
1000
0000
0001
0010
0001
0000
1000
0000
,
2002
0000
0000
0000
0000
0000
3003
0000
,
0001
0000
0000
1000
0000
0000
0010
0000
0100
0000
1000
0000
0001
0000
0000
0000
,
1000
0000
0000
0001
0000
0000
0100
0000
1000
0000
0100
0000
0001
0000
1000
0000
,
0010
0000
0000
0100
0000
0000
1000
0000
0001
0000
0000
0100
0000
0000
1000
0000
,
0010
0000
0000
1000
0000
0000
0100
0000
0001
0000
0000
0000
0010
0000
1000
0000
,
0001
0000
0000
0100
0000
0000
1000
0000
0001
0000
0100
0000
0010
0000
0000
0000
,
0010
0000
0000
0100
0000
0000
0001
0000
1000
0000
0100
0000
0001
0000
0000
0000
,
0001
1000
0001
0100
0000
0001
0000
1000
,
0000
0001
0000
0100
0000
1000
0001
1000
,
0110
0000
1010
0000
0001
1000
0100
0000
,
1001
0000
0101
0000
1000
0010
0100
0000
,
0001
1000
0100
0000
1000
0001
0100
0000
,
0010
0001
0100
1000
0100
0001
0011
0000
,
1001
0100
1000
0100
,
0001
0100
0001
0100
,
1000
0100
1000
0000
0001
0100
0001
0000
,
1000
0010
0100
0001
0010
0100
1000
0000
,
0001
0000
1000
0000
0010
0100
0001
0000
,
0010
0100
0001
0010
0001
1000
0100
0000
,
1001
0000
0101
0000
0010
1000
0100
1000
,
0001
0000
1001
0000
0010
1000
0100
0000
,
0001
0100
0001
0000
1000
0100
1000
0000
,
0101
0000
0010
1000
0100
0010
0001
0000
,
0100
0010
1000
0100
0010
0001
0100
0000
,
1010
0000
0001
1000
0100
0000
0101
0000
,
1000
0001
0010
0001
1000
0100
1000
0001
0100
0001
1000
0010
,
0001
0000
1000
0000
0001
1000
0100
0000
,
0010
0001
2000
3000
,
0202
0303
2002
3003
,
0010
0001
0100
0010
1000
0001
0100
0000
,
1000
0000
1000
0001
0000
0001
0000
0010
0000
0100
0000
0010
0001
0000
1000
0000
,
0001
0000
0001
1000
0000
1000
0000
0010
0000
0100
0000
0010
1000
0000
0001
0000
,
1000
0000
1000
0001
0000
0001
0000
1000
0000
0100
0000
0010
0100
0000
1000
0000
,
0001
0000
0001
1000
0000
1000
0000
0001
0000
0100
0000
0010
0100
0000
0001
0000
,
1000
0000
0010
0000
1000
0010
0000
0100
0000
1000
0000
0100
0001
0000
0100
0000
,
0001
0000
0010
0000
0001
0010
0000
0100
0000
0001
0000
0100
1000
0000
0100
0000
,
1000
0000
0010
0000
1000
0010
0000
0001
0000
0010
0000
1000
0010
0000
1000
0000
,
0001
0000
0010
0000
0001
0010
0000
1000
0000
0010
0000
0001
0010
0000
0001
0000
,
1000
0000
0001
0010
0000
1000
0000
0001
0000
0100
0000
0010
0001
0000
1000
0000
,
0001
0000
1000
0010
0000
0001
0000
1000
0000
0100
0000
0010
1000
0000
0001
0000
,
1000
0000
0001
0100
0000
1000
0000
0001
0000
0010
0000
0100
0001
0000
1000
0000
,
0001
0000
1000
0100
0000
0001
0000
1000
0000
0010
0000
0100
1000
0000
0001
0000
,
1010
0100
0101
0010
,
0100
0000
0000
0110
0000
0000
0101
0000
0000
0000
0000
0000
0000
0000
0000
0000
;
