#TITLE:Banjo Boy;
#ARTIST:Ryan Shupe & The Rubberband;
#MUSIC:Banjo Boy.ogg;
#BANNER:Banjo Boy.png;
#BACKGROUND:Banjo Boy-bg.png;
#SAMPLESTART:26.815;
#SAMPLELENGTH:15;
#OFFSET:-0.32;
#BPMS:0=107
,166.812=214;
#STOPS:119.875=0.050;
#BGSTAGE:16;

//--------------- dance-single - XLev450X-bSP ----------------
#NOTES:
     dance-single:
     XLev450X:
     Beginner:
     3:
     0,0,0,0,0:
0000
0000
0000
0000
,
0000
0000
0000
0000
,
0000
0001
0001
0000
,
0000
1000
1000
0000
,
0000
0100
0100
0000
,
0000
0010
0010
0000
,
0000
0001
0010
0000
,
0000
1000
0100
0000
,
0000
0001
0001
0000
,
0000
0010
1000
0000
,
0000
0010
0000
0001
,
0000
0100
0000
1000
,
0000
0001
0001
0001
,
0000
1000
1000
1000
,
0000
0010
0010
0010
,
0000
0100
0100
0100
,
0000
0001
0010
0001
,
0000
1000
0100
1000
,
0000
0010
0100
0010
,
0000
1000
0001
1000
,
0000
1000
0000
0000
,
0000
0001
0000
0000
,
0000
0100
0000
0000
,
0000
0010
0000
0000
,
0000
1001
0000
0000
,
0000
0000
0000
0000
,
0000
0001
0001
0000
,
0000
1000
1000
0000
,
0000
0010
0010
0000
,
0000
0100
0100
0000
,
0000
0001
1000
0000
,
0000
1000
0001
0000
,
0000
0010
0000
1000
,
0000
0001
0000
0100
,
0000
0010
0010
1000
,
0000
0001
0001
0100
,
0000
1000
1000
0001
,
0000
0100
0100
0010
,
0000
0001
0000
1000
,
0000
0001
0000
0010
,
0000
0100
0000
0010
,
0000
0100
0000
0000
,
1000
0000
0000
0001
,
0000
0000
0100
0000
,
0000
0010
0000
0000
,
1001
0000
0000
0000
;

//--------------- dance-single - XLev450X [Entertainer]-BSP ----------------
#NOTES:
     dance-single:
     XLev450X [Entertainer]:
     Easy:
     6:
     0,0,0,0,0:
0000
0000
0000
0000
,
0000
0000
0000
0000
,
0000
0000
0100
0100
1000
0000
1000
1000
,
0010
0000
0010
0010
0010
0000
0100
0000
,
0010
0000
0001
0001
0001
0000
0001
0001
,
0010
0000
0010
0010
0010
0000
0100
0000
,
0010
0000
0100
0100
1000
0000
1000
1000
,
0010
0000
0010
0010
0010
0000
0100
0000
,
0010
0000
0001
0001
0001
0000
0001
0001
,
0010
0000
0010
0010
0010
0000
0100
0010
,
0010
0010
0100
0000
1000
0000
0100
0000
,
0001
0000
0100
0000
0100
0000
0100
0010
,
0010
0000
1000
1000
0010
0000
1000
1000
,
0010
0000
1000
1000
0010
0000
0100
0000
,
0010
0000
0001
0001
0010
0000
0001
0001
,
0010
0000
0001
0001
0010
0000
0100
0000
,
0010
0000
1000
1000
0010
0000
1000
1000
,
0010
0000
1000
1000
0010
0000
0100
0000
,
0010
0000
0001
0001
0010
0000
0001
0001
,
0010
0000
0001
0001
0010
0000
0100
0010
,
0010
0000
0010
0000
0100
0000
0010
0000
0000
0010
0000
0000
0010
0000
0000
0010
,
0000
0000
1000
0000
0100
0000
0010
0000
0000
0010
0000
0000
0010
0000
0000
0010
,
0000
0000
1000
0000
0100
0000
0010
0000
0000
0010
0000
0000
0010
0000
0000
0010
,
0000
0000
0001
0000
0100
0000
0010
0000
0000
0010
0000
0000
0010
0000
0000
0010
,
0000
0000
0001
0000
1000
0000
1000
0000
0000
0000
0000
0000
1000
0000
0000
1000
,
0000
0000
0000
0000
0000
0000
0000
0000
1000
1000
0000
0000
1000
0000
0000
0000
,
0000
0000
0100
0100
1000
0000
1000
1000
,
0010
0000
0010
0010
0010
0000
0100
0000
,
0010
0000
0001
0001
0001
0000
0001
0001
,
0010
0000
0010
0010
0010
0000
0100
0000
,
0010
0010
0100
0100
1000
0000
1000
1000
,
0010
0000
0010
0010
0010
0000
0100
0010
,
0010
0010
0100
0000
1000
0000
0100
0000
,
0001
0000
0100
0000
0100
0000
0100
0010
,
0010
0000
1000
1000
0010
0000
1000
1000
,
0010
0000
1000
1000
0010
0000
0100
0000
,
0010
0000
0001
0001
0010
0000
0001
0001
,
0010
0000
0001
0001
0010
0000
0100
0000
,
0010
0000
1000
1000
0010
0000
1000
1000
,
0010
0000
1000
1000
0010
0000
0100
0000
,
0010
0000
0001
0001
0010
0000
0001
0001
,
0010
0000
0010
0020
0000
0030
0000
0000
,
1000
0000
0000
1000
0000
0000
0100
0000
,
0000
0100
0000
0000
0001
0000
0000
0001
,
0000
0000
0010
0000
0000
0010
0000
0000
,
0010
0000
0000
0000
0000
0000
0000
0000
0000
0010
0000
0000
0000
0000
0000
0000
,
0000
0010
0000
0000
0000
0000
0000
0000
;

//--------------- dance-single - XLev450X-DSP ----------------
#NOTES:
     dance-single:
     XLev450X:
     Medium:
     10:
     0,0,0,0,0:
0000
0000
0000
0000
,
0000
0000
0000
0000
,
0000
0000
0001
0000
1000
0010
1000
0000
,
0001
0010
0100
0000
0001
1000
0001
0100
,
0010
1000
0010
0001
1000
0000
0001
0010
,
0001
0000
0100
1000
0001
1000
0001
0100
,
0010
0000
1000
1000
0010
0100
0001
1000
,
0001
0000
0000
0000
0100
0000
1000
0000
0001
0000
1000
0000
0001
0000
0010
0001
,
0010
1000
0010
0100
1000
0000
0010
0100
,
1000
0000
0000
0000
0001
0000
0010
0000
1000
0000
0100
0000
1000
0001
1000
0000
,
0010
1000
0001
0100
1000
0010
1000
0001
,
0010
0000
1000
0000
0010
0000
1000
0010
0100
0000
0001
0000
0010
0001
0010
1000
,
0001
0100
0001
1000
0010
0000
0100
1000
,
0100
0000
0001
0010
1000
0001
0010
0100
,
1000
0000
0001
0001
0100
0000
0010
0010
,
1000
0000
0000
0000
0100
0000
1000
0000
0001
0000
0100
0000
1000
0001
1000
0000
,
0010
0001
1000
0010
0100
0000
0010
1000
,
0100
0000
0000
0000
0001
0000
0010
0000
0001
0000
1000
0000
0001
0000
1000
0010
,
1000
0001
1000
0010
0100
0000
0001
0010
,
1000
0000
0001
0000
0010
0001
0010
0000
1000
0000
0010
0000
1000
0010
1000
0000
,
0001
0010
0001
0000
0100
0000
0001
0000
0000
1000
0000
0000
0010
0000
0000
0100
,
0000
0000
1000
0000
0001
0000
0100
0000
0000
0010
0000
0000
1000
0000
0000
0010
,
0000
0000
0001
0000
0010
0000
1000
0000
0000
0100
0000
0000
0001
0000
0000
1000
,
0000
0000
0010
0000
1000
0000
0001
0000
0000
0100
0000
0000
1000
0000
0000
0001
,
0000
1000
0001
0100
1000
0000
0001
1000
,
0010
0000
0001
0010
1000
0100
0001
1000
,
0010
0000
0001
1000
0010
0000
0001
1000
,
0001
0000
0100
0010
1000
0001
0010
1000
,
0100
0000
0001
1000
0001
0000
1000
0010
,
1000
0000
0100
1000
0001
1000
0010
0100
,
0000
1001
0010
1000
0001
0000
0100
1000
,
0001
0000
0000
0000
1000
0000
0010
0000
0100
0000
1000
0000
0001
0010
0001
0000
,
1000
0000
0100
0000
0001
0000
1000
0000
0010
0000
1000
0000
0010
1000
0010
0000
,
0001
0010
0001
0000
0100
0000
1000
0000
0001
0000
1000
0000
1000
0001
1000
0000
,
0010
0100
1000
0001
0100
0000
0010
1000
,
0100
0000
0001
1000
0010
0100
0001
0000
,
1000
0000
0010
1000
1000
0000
0001
0100
,
0010
0000
0000
0000
1000
0000
0001
0000
0100
0000
0010
0000
0100
0010
0100
0000
,
0001
0000
1000
0001
1000
0000
0010
1000
,
0100
0000
0001
1000
0010
0100
1000
0000
,
0001
0000
0000
0000
1000
0000
0001
0000
1000
0000
0000
0000
0010
1000
0010
0000
,
0001
0100
0001
1000
0000
0000
0000
0000
,
0001
0000
0000
1000
0000
0000
0001
0000
,
0000
0000
1000
0000
0000
0000
0000
0000
0010
0000
0000
0100
0000
0000
0010
0000
,
0000
0000
0000
0000
0001
0000
0000
0010
0000
0000
1000
0000
0000
0000
0000
0000
,
0101
0000
0000
0000
0000
0000
0000
0000
0000
1100
0000
0000
0000
0000
0000
0000
,
0000
1001
0000
0000
0000
0000
0000
0000
;

//--------------- dance-single - XLev450X-ESP ----------------
#NOTES:
     dance-single:
     XLev450X:
     Hard:
     14:
     0,0,0,0,0:
0000
0000
0000
0000
,
0000
0000
0000
0000
,
0000
0000
0000
0000
0001
0000
1000
0000
0010
1000
0010
0000
0001
0000
0010
0000
,
0001
0010
0001
0000
1000
0000
0001
0000
0100
0000
1000
0000
0001
1000
0001
0000
,
1000
0010
1000
0000
0010
0000
0001
0000
0010
0001
0010
0000
1000
0000
0100
0000
,
1000
0001
1000
0000
0010
0000
1000
0000
0010
0000
0100
0000
0010
0100
0010
0000
,
0001
0010
0001
0000
1000
0000
0001
0000
0010
0100
0010
0000
1000
0000
0001
0000
,
1000
0010
1000
0000
0001
0000
0010
0000
0001
0000
1000
0000
0001
0100
0001
0000
,
1000
0010
1000
0000
0010
0000
0100
0000
1000
0000
0001
1000
0001
0000
0010
0000
,
1000
0000
0000
0000
0010
0000
1000
0000
0010
0000
0000
0000
0001
0000
0000
0000
0010
0000
0000
0000
0001
0000
0000
0000
1000
0000
0001
0100
1000
0000
0001
0000
,
0010
0100
0010
0000
0100
0000
1000
0000
0001
0000
0000
0000
1000
0000
0000
0000
0010
0000
0000
0000
1000
0000
0000
0000
0001
0000
0100
0000
0010
0000
1000
0000
,
0001
0000
0100
0000
0010
0000
1000
0000
0001
0000
1000
0000
0010
0000
1000
0000
0010
0000
1000
0000
0001
0000
0100
0000
0010
0000
1000
0100
0001
0000
0010
0000
,
1000
0001
0010
0000
1000
0000
0001
0000
1000
0000
0010
1000
0010
0000
0001
0000
,
0010
0000
1000
0001
1000
0000
0010
0000
1000
0000
0001
0000
0010
0001
0010
0000
,
1000
0010
1000
0000
0100
0000
1000
0000
0001
0000
1000
0001
1000
0000
0010
0000
,
1000
0000
0000
0000
0100
0000
1000
0000
0100
0000
0000
0000
1000
0000
0000
0000
0001
0000
0000
0000
1000
0000
0000
0000
0001
0010
1000
0000
0010
0000
1000
0000
,
0001
0100
0010
1000
0001
0000
0010
0000
1000
0000
0100
1000
0100
0000
0001
0000
,
0010
0000
1000
0010
1000
0000
0001
0000
0010
0000
0100
0000
0010
0100
0010
0000
,
0001
0010
0001
0000
1000
0000
0100
0000
1000
0000
0001
1000
0001
0000
0010
0000
,
1000
0000
0000
0000
0010
0000
0000
0000
0100
0000
1000
0000
0010
0000
0000
0000
0001
0000
0000
0000
1000
0000
0000
0000
0001
0100
1000
0000
0010
0000
1000
0000
,
0001
0100
1000
0100
0001
0000
1000
0000
0000
0010
0000
0000
0100
0000
0000
0001
,
0000
0000
1000
0010
1000
0001
0100
0000
0000
1000
0000
0000
0001
0000
0000
0100
,
0000
0000
0001
0100
0001
1000
0010
0000
0000
0100
0000
0000
0001
0000
0000
0100
,
0000
0000
0010
1000
0010
0001
1000
0000
0000
0001
0000
0000
0100
0000
0000
1000
,
0000
0000
0001
0000
1000
0000
0010
0000
1000
0000
0100
0000
0001
1000
0001
0000
,
1000
0000
0000
0000
0010
0000
0000
0000
1000
0100
0001
0000
1000
0001
0010
0000
0100
1000
0001
0000
1000
0100
0010
0000
1000
0100
0001
0000
0010
0000
0100
0000
,
1000
0001
0100
0000
0001
0000
0100
0000
1000
0000
0000
0000
0001
0000
0000
0000
1000
0000
0010
0000
1000
0000
0000
0000
0001
0000
0000
0000
1000
0000
0000
0000
,
0001
0010
1000
0001
1000
0000
0010
0000
1000
0010
1000
0000
0001
0100
0010
0001
,
1000
0010
1000
0000
0001
0000
1000
0000
0010
1000
0010
0000
0001
0000
1000
0000
,
0100
0001
1000
0000
0001
1000
0010
1000
0001
1000
0100
0010
1000
0001
0100
0000
,
0000
0001
0100
1000
0010
0001
1000
0010
,
1000
0000
0000
0000
0010
0000
1000
0000
0010
0000
0000
0000
0001
0000
0000
0000
0010
0000
0000
0000
1000
0000
0000
0000
0001
0000
1000
0100
0001
0000
0010
0000
,
1000
0010
0001
0000
0010
0000
0100
0000
1000
0000
0001
0000
0100
0000
0010
0000
1000
0000
0000
0000
0001
0000
0000
0000
0010
0000
0001
0000
0010
0000
1000
0000
,
0010
0000
0100
0000
0001
0000
1000
0000
0010
0000
1000
0000
0001
0000
0100
0000
0010
0000
1000
0000
0001
0000
1000
0000
0010
0100
1000
0000
0001
0000
0010
0000
,
1000
0001
0010
0000
0100
0000
1000
0000
0001
0010
0001
0000
1000
0000
0100
0000
,
1000
0001
0010
1000
0001
0000
1000
0000
0001
1000
0010
0000
1000
0001
0100
0010
,
1000
0001
1000
0000
0010
0000
1000
0000
0010
1000
0010
0000
0001
0000
0010
0000
,
1000
0000
0010
0000
1000
0000
0000
0000
0001
0000
0000
0000
0100
0000
0000
0000
1000
0000
0000
0000
0001
0000
0000
0000
1000
0100
0001
0000
1000
0000
0001
0000
,
1000
0010
1000
0010
1000
0000
0001
0000
0010
0001
0010
0001
1000
0000
0010
0000
,
1000
0010
1000
0010
0100
0000
0001
0000
1000
0010
1000
0001
0100
0010
0001
1000
,
0100
0000
0001
0000
0010
0000
0000
0000
1000
0000
0000
0000
0001
0000
0000
0000
0010
0000
0000
0000
1000
0000
0010
0000
0100
0010
0001
0000
0010
0000
1000
0000
,
0010
0001
1000
0000
0101
0000
2020
0000
0000
0000
3030
0000
0000
0000
0000
0000
,
1000
0000
0000
0000
0000
0000
0001
0000
0000
0000
0000
0000
0100
0000
0000
0000
0000
0000
0010
0000
0000
0000
0000
0000
0001
0000
0000
1000
0000
0000
0010
0000
,
0000
0001
0000
0000
1000
0000
0000
0100
0000
0000
0010
0000
0000
0001
0000
0000
1000
0000
0000
0010
0000
0000
0001
0000
0000
0100
0000
0000
1000
0000
0000
0001
,
0000
0000
0000
0000
0010
0000
0000
0000
0000
0000
1000
0000
0000
0000
0000
0000
0001
0000
0000
0000
0000
0000
0010
0000
0000
0000
0000
0000
0100
0000
0000
0000
0000
0000
1000
0000
0000
0100
0000
0000
0001
0000
0000
0000
0100
0000
0000
0000
0000
0000
0010
0000
0000
0000
0000
0000
0100
0000
0000
0000
0001
0000
0000
0000
,
0010
0000
0000
0000
0000
0000
0000
0000
0000
1010
0000
0000
0000
0000
0000
0000
,
0000
0110
0000
0000
0000
0000
0000
0000
;
