#TITLE:Bamboo on Bamboo;
#ARTIST:Sampling Masters MEGA;
#GENRE:Gabba;
#MUSIC:Bamboo on Bamboo.ogg;
#BANNER:Bamboo on Bamboo.png;
#BACKGROUND:Bamboo on Bamboo-bg.png;
#SAMPLESTART:9.781;
#SAMPLELENGTH:15;
#OFFSET:-0.181;
#BPMS:0=200;

//--------------- dance-single - XLev450X-bSP ----------------
#NOTES:
     dance-single:
     XLev450X:
     Beginner:
     5:
     0,0,0,0,0:
0000
0000
0000
0000
,
0000
0000
0000
0000
,
0000
0000
0000
0000
,
0000
0000
0000
0000
,
0000
0000
0000
0000
,
0000
0000
0000
0000
,
0000
0000
0000
0000
,
0000
0000
0000
0000
,
1000
0001
1000
0000
,
0010
1000
0010
0000
,
0100
0000
0010
0000
,
0100
0000
0000
0000
,
0010
0001
0010
0000
,
0100
1000
0100
0000
,
0001
0000
1000
0000
,
0001
0000
0000
0000
,
0001
0001
0001
0000
,
1000
1000
1000
0000
,
0100
0100
0100
0000
,
0110
0000
0000
0000
,
0010
0010
0010
0000
,
0001
0001
0001
0000
,
0100
0100
0100
0000
,
1001
0000
0000
0000
,
0001
0000
1000
0000
,
0010
0000
0000
0000
,
1000
0000
0100
0000
,
0001
0000
0000
0000
,
0001
0000
0010
0000
,
1000
0000
0000
0000
,
1000
0000
0010
0000
,
1000
0000
0000
0000
,
0100
0100
0100
0000
,
1000
0100
1000
0000
,
0100
0100
0100
0000
,
1100
0000
0000
0000
,
0010
0010
0010
0000
,
0001
0010
0001
0000
,
0010
0010
0010
0000
,
0011
0000
0000
0000
,
0001
0000
0000
0000
,
1000
0000
0000
0000
,
0001
0000
0000
0000
,
1000
0000
0000
0000
,
0010
0000
0000
0000
,
1000
0000
0000
0000
,
0010
0000
0000
0000
,
1000
0000
0000
0000
,
0001
0000
0001
0000
,
1000
0000
0000
0000
,
1000
0000
1000
0000
,
0001
0000
0000
0000
,
0010
0000
0010
0000
,
0100
0000
0000
0000
,
0100
0000
0100
0000
,
0010
0000
0000
0000
,
0001
0000
1000
0000
,
0001
0000
0010
0000
,
1000
0000
0000
0000
,
1000
0000
0010
0000
,
0100
0000
0001
0000
,
0010
0000
0000
0000
,
1000
0000
0001
0000
,
1000
0000
0100
0000
,
0010
0000
0000
0000
,
0010
0000
0001
0000
,
0100
0000
1000
0000
,
0001
0000
0000
0000
,
1001
0000
0000
0000
,
0000
0000
1001
0000
,
0000
0000
0000
0000
,
1001
0000
0000
0000
,
0000
0000
0000
0000
,
2002
0000
0000
3003
,
0001
0000
0001
0000
,
1000
0000
0000
0000
,
0010
0000
0010
0000
,
0100
0000
0000
0000
,
1000
0000
0100
0000
,
1000
0000
0000
0000
,
0010
0000
0001
0000
,
0010
0000
0000
0000
,
0010
0000
0000
0000
,
0010
0000
0000
0000
,
0010
0000
0000
0000
,
0000
0000
0000
0000
,
0100
0000
0000
0000
,
0100
0000
0000
0000
,
0100
0000
0000
0000
,
0000
0000
0000
0000
,
0001
0000
1000
0000
,
0001
0000
0000
0000
,
1000
0000
0001
0000
,
1000
0000
0000
0000
,
0100
0000
0100
0000
,
0100
0000
0000
0000
,
0010
0000
0010
0000
,
0010
0000
0000
0000
,
1001
0000
0000
0000
;

//--------------- dance-single - XLev450X -通常--BSP ----------------
#NOTES:
     dance-single:
     XLev450X -通常-:
     Easy:
     8:
     0,0,0,0,0:
0000
0000
0000
0000
,
0000
0000
0000
0000
,
0000
0000
0000
0000
,
0000
0000
0000
0000
,
0001
0000
1000
0000
,
0001
0000
0010
0000
,
1000
0000
0100
0000
,
0010
0100
0001
0000
,
1000
0001
1000
0010
,
0100
0010
0001
0000
,
1000
0000
0001
0000
,
1000
0001
1000
0000
,
0010
1000
0100
0010
,
0001
0010
0100
0000
,
0100
0000
0010
0100
,
2002
0000
0000
3003
,
0001
1000
0001
1000
,
0010
0000
1000
0000
0010
1000
0010
0000
,
0001
0010
0100
0001
,
1001
0000
0000
0000
,
0001
1000
0100
0010
,
0100
0000
0001
0000
1000
0001
1000
0000
,
0001
1000
0100
0010
,
1001
0000
0000
0000
,
0010
1000
0100
0010
,
0001
0010
0100
1000
,
0001
0010
0100
1000
,
0010
0100
0001
0100
,
1000
0001
1000
0100
,
0010
0001
0100
0010
,
1000
0100
0010
0001
,
1000
0001
1000
0001
,
0010
1000
0100
0010
,
0001
0000
0010
0000
1000
0001
1000
0000
,
0010
1000
0100
0010
,
0202
0000
0000
0303
,
0001
0100
1000
0001
,
0010
0000
1000
0000
0010
1000
0010
0000
,
0100
0010
0001
0010
,
2002
0000
0000
3003
,
0001
0000
0000
1000
0000
0000
0100
0000
,
0000
0001
0000
0000
0001
1000
0001
1000
,
0010
0000
0000
1000
0000
0000
0001
0000
,
0000
0020
0000
0000
0200
0000
0330
0000
,
0001
0000
0000
0100
0000
0000
1000
0000
,
0000
0100
0000
0000
1000
0001
1000
0001
,
0010
0000
0000
0100
0000
0000
0001
0000
,
0000
0200
0000
0000
0020
0000
0330
0000
,
0001
0000
0000
1000
0000
0000
0001
0000
,
0000
0010
0000
0000
1000
0100
0010
0001
,
0010
0000
0000
0001
0000
0000
1000
0000
,
0000
0001
0000
0000
0010
1000
0010
0000
,
0001
0100
1000
0001
,
0010
0000
0100
0000
0001
0010
0001
0000
,
0100
0000
0000
0010
0000
0000
1000
0000
,
0000
0001
0000
0000
2002
0000
3003
0000
,
0001
0000
0000
1000
0000
0000
0010
0000
,
0000
0100
0000
0000
0001
0000
0000
1000
,
0000
0001
0000
0000
,
1000
0000
0000
0010
0000
0000
0100
0000
,
0000
0001
0000
0000
1000
0000
0000
0001
,
0000
0100
0000
0000
,
0010
0000
0000
1000
0000
0000
0100
0000
,
0000
0001
0000
0000
1000
0000
0000
0001
,
0000
0100
0000
0000
,
1000
0000
0000
0010
0000
0000
1000
0000
,
0000
0100
0000
0000
0010
0000
0000
0001
,
0000
1000
0000
0000
,
1000
0000
0000
0001
0000
0000
0110
0000
,
0000
1001
0000
0000
0001
0000
0000
0000
,
1000
0000
0001
0000
,
1000
0010
0000
0100
,
0001
0000
0010
0000
,
2002
0000
0000
3003
,
0010
1000
0100
0001
,
0010
0100
1000
0010
,
0001
1000
0001
1000
,
0010
1000
0010
0000
0001
0010
0001
0000
,
0100
1000
0001
1000
,
0100
0001
0010
0100
,
0010
0000
1000
0000
,
0001
0000
1000
0000
0010
1000
0010
0000
,
0001
0000
0000
0100
0000
0000
0000
0000
,
0001
1000
0010
0100
,
0001
0000
0000
0100
0000
0000
0000
0000
,
1000
0001
1000
0010
,
0100
0000
0000
0001
0000
0000
0000
0000
,
0010
0100
1000
0001
,
0010
0000
0000
1000
0000
0000
0000
0000
,
0001
0100
0010
1000
,
0001
0000
0000
1000
0000
0000
0001
0000
,
0100
0000
0010
0000
0000
1000
0000
0000
,
0001
0000
0000
0100
0000
0000
0010
0000
,
1000
0000
0001
0000
0000
0010
0000
0000
,
1000
0000
0100
0000
0000
0010
0001
0010
,
0000
0100
1000
0001
,
1000
0001
1000
0000
0010
1000
0010
0000
,
0010
0100
0010
0000
0001
0010
0001
0000
,
2002
0000
0000
0000
,
0000
0000
0000
0000
,
0000
0000
0000
0000
,
3003
0000
0000
0000
;

//--------------- dance-single - XLev450X -難しい--DSP ----------------
#NOTES:
     dance-single:
     XLev450X -難しい-:
     Medium:
     11:
     0,0,0,0,0:
0000
0000
0000
0000
,
0000
0000
0000
0000
,
0000
0000
0000
0000
,
0000
0000
0000
0000
,
0001
1000
0000
0001
,
1000
0010
0000
0100
,
0001
0010
0000
1000
,
0100
0001
0010
0100
,
0001
0000
1000
0000
0001
1000
0001
0000
,
0010
0000
1000
0000
0010
1000
0010
0000
,
0001
0100
1000
0001
,
0100
0000
0010
0000
2000
0000
0002
3003
,
0001
1000
0100
0010
,
0001
0010
0100
1000
,
0001
1000
0001
0000
0010
1000
0010
0000
,
0001
0000
0010
0000
0100
0000
0001
0100
,
0001
1000
0100
0001
,
1000
0010
0100
0001
,
0010
0000
0100
0010
0100
0000
0010
0000
,
2002
0000
3003
0002
,
1003
0001
0100
1000
,
0010
0000
1000
0000
0100
0010
0100
0000
,
0010
0001
0010
0100
,
2002
0000
3003
2000
,
3001
0010
1000
0100
,
0010
0001
0010
0100
,
0001
0100
0001
0000
0010
1000
0010
0000
,
0010
0100
0010
0000
0001
0010
0001
0000
,
1000
0100
0001
1000
,
0100
0010
1000
0010
,
1000
0010
1000
0000
0010
0100
0010
0000
,
0001
0000
1000
0000
0001
0000
1000
0001
,
1000
0001
0100
1000
,
0010
0100
0010
0001
,
0100
1000
0001
0010
,
2020
0000
3030
0002
,
1003
0100
0010
0001
,
0010
0100
1000
0010
,
1000
0100
0010
0001
,
2002
0000
0000
0000
3003
0000
0002
0003
,
1000
0000
0000
0001
0000
0000
0100
0000
,
0000
0010
0000
0000
1000
0000
0100
0000
,
0001
0000
0000
0100
0000
0000
0010
0000
,
0000
1000
0000
0000
1001
0000
0000
0000
,
0001
0000
0000
0100
0000
0000
1000
0000
,
0000
0010
0000
0000
0100
0000
0001
0000
,
1000
0000
0000
0001
0000
0000
0100
0000
,
0000
0010
0000
0000
1001
0000
0000
0000
,
0001
0000
0000
1000
0000
0000
0100
0000
,
0000
0010
0000
0000
0001
0000
0100
0000
,
1000
0000
0000
0010
0000
0000
1000
0000
,
0000
0100
0000
0000
0001
0000
0000
0000
,
1000
0000
0000
0100
0000
0000
0001
0000
,
0000
1000
0000
0000
0010
0000
1000
0000
,
0100
0000
0000
0001
0000
0000
1000
0000
,
0000
0001
0000
0000
1000
0000
0000
0000
,
0010
0000
0000
0100
0000
0000
0001
0000
,
0000
1000
0000
0000
0100
0000
0000
0001
,
0000
0000
0010
0000
0000
0100
0000
0000
,
1000
0000
0000
0001
0000
0000
0100
0000
,
0000
0010
0000
0000
1000
0000
0000
0001
,
0000
0000
1000
0000
0000
0001
0000
0000
,
1000
0000
0000
0010
0000
0000
0100
0000
,
0000
0001
0000
0000
1000
0000
0000
0001
,
0000
0000
0100
0000
0000
1000
0000
0000
,
0010
0000
0000
0100
0000
0000
0001
0000
,
0000
0010
0000
0000
1000
0000
0000
0100
,
0000
0010
0000
0000
,
1001
0000
0000
1010
0000
0000
0110
0000
,
0000
0011
0000
0000
0001
0000
1000
0000
,
0001
0100
1000
0001
,
1000
0000
0000
0010
0000
0000
0001
0000
1000
0000
0100
0000
0001
0000
0000
1000
,
0000
0100
0001
1000
0100
0001
0010
0000
,
2002
0000
0000
3003
,
0010
1000
0100
0001
,
0100
0000
0010
0000
1000
0010
1000
0000
,
0001
0100
1000
0001
,
0100
0000
0001
0100
0001
0000
0010
0000
,
1000
0000
0100
0000
0010
0000
0100
0010
,
0100
0001
0010
1000
,
0001
1000
0001
0000
0010
1000
0010
0000
,
0010
0100
0010
0000
0001
0010
0001
0000
,
1000
0000
0000
0001
0000
0000
0100
0000
,
1000
0000
0010
0000
0100
0010
0100
0000
,
0001
0000
0000
1000
0000
0000
0010
0000
,
0100
0000
1000
0010
1000
0000
0010
0000
,
0100
0000
0000
0001
0000
0000
1000
0000
,
0100
0001
0100
0000
0001
0000
1000
0000
,
0010
0000
0000
0100
0000
0000
0001
0000
,
1000
0001
1000
0000
0100
0000
0001
0000
,
1000
0000
0000
0010
0000
0000
0100
0000
,
0001
0000
1000
0000
0000
0010
0000
1000
,
0010
0000
0000
0100
0000
0000
0001
0000
,
1000
0000
0001
0000
0000
1000
0001
1000
,
0010
0001
1000
0001
0000
0100
0010
0100
,
0010
0001
0010
1000
,
0001
0010
0001
0000
1000
0010
1000
0000
,
0010
0100
0010
0000
0001
0100
0001
0100
,
2002
0000
0000
0000
,
0000
0000
0000
0000
,
0000
0000
0000
0000
,
3003
0000
0000
0000
;

//--------------- dance-single - XLev450X -最大--ESP ----------------
#NOTES:
     dance-single:
     XLev450X -最大-:
     Hard:
     14:
     0,0,0,0,0:
0000
0000
0000
0000
,
0000
0000
0000
0000
,
0000
0000
0000
0000
,
0000
0000
0000
0000
,
0001
1000
0001
0010
,
0100
0000
0001
0000
1000
0100
0001
0000
,
1000
0010
0001
1000
,
0100
0000
0000
0000
0001
0000
0000
0000
0010
0000
0000
0000
1000
0001
1000
0001
,
2000
0000
3010
0000
1000
0001
0100
0001
,
0010
1000
0001
1000
0010
0001
0010
0100
,
1000
0001
0010
0100
1000
0001
0100
0000
,
0001
0000
0100
0000
0001
0000
1000
0000
0010
0000
0100
0000
1000
0001
0100
1000
,
0001
0100
1000
0000
0001
1000
0001
1000
,
0010
0001
1000
0000
0010
1000
0010
1000
,
0001
0100
0010
1000
0100
0001
1000
0001
,
0010
0000
1000
0000
0010
0000
0100
0000
0010
0000
0001
0000
0010
1000
0100
0010
,
0001
0001
1000
0100
,
0001
0000
0010
0000
1000
0001
0010
1000
,
0010
0001
0010
0100
,
2002
0000
0000
0000
0000
0000
0000
0000
3003
0000
0000
0000
0010
0001
0010
0001
,
0010
1000
0100
0000
0001
0000
1000
0000
,
0100
0001
0010
0000
0001
0010
0001
0000
,
0100
0000
1000
0000
0010
0100
1000
0000
,
2002
0000
0000
0000
3003
0000
2002
3003
,
0002
0000
0103
0000
0001
1000
0010
0000
,
0100
0001
1000
0001
0100
1000
0100
0010
,
0001
1000
0100
0000
0001
1000
0010
0000
,
1000
0000
0010
0000
1000
0000
0000
0000
0100
0000
0010
0000
0001
1000
0010
0001
,
1000
0000
0001
0000
1000
0001
1000
0001
,
0100
1000
0001
0000
0100
0001
0100
0001
,
1000
0010
0100
0001
0010
1000
0001
1000
,
0100
0000
0001
0000
0100
0000
0010
0000
0100
0000
1000
0000
0100
0001
0010
0100
,
1000
1000
0001
0010
,
1000
0000
0100
0000
0001
1000
0100
0001
,
0100
1000
0100
0010
,
2002
0000
0000
0000
0000
0000
0000
0000
3003
0000
0000
0000
0100
1000
0100
1000
,
0100
0001
0010
0000
1000
0000
0001
0000
,
0010
1000
0100
0000
1000
0100
1000
0000
,
0010
0000
0001
0000
0100
0010
0001
0000
,
2222
0000
3003
0330
,
0001
1000
0000
0010
0000
1000
0100
0010
,
0000
0001
0000
0010
1000
0000
0001
0000
,
1000
0010
0000
0100
0000
0010
0001
0010
,
0000
0100
0000
1000
0001
0000
0000
0000
,
1000
0010
0000
0100
0000
0010
0001
0010
,
0000
0100
0000
1000
0001
0000
1000
0010
,
1000
0000
0000
0010
0000
0100
0001
1000
,
0000
0001
0000
1000
0001
0000
0000
0000
,
1000
0010
0000
0100
0000
0010
0001
0010
,
0000
0100
0000
1000
0001
0000
1000
0010
,
0100
0010
0000
1000
0000
0001
0010
1000
,
0000
0010
0000
0100
0001
0000
0000
0000
,
0001
1000
0000
0010
0000
1000
0100
0010
,
0000
0001
0000
0010
0100
0000
1000
0001
,
0010
1000
0000
0010
0000
0000
0100
0000
,
0000
1000
0000
0000
2002
0000
3003
0000
,
0001
0000
1000
0010
0000
0100
0010
0000
,
0001
0010
0000
0100
1000
0000
0010
1000
,
0000
0001
0200
0000
0000
0020
0330
0000
,
0010
0000
1000
0100
0000
0001
0010
0000
,
0100
0010
0000
1000
0010
0000
0001
0010
,
0000
0100
2000
0000
0000
0002
0000
3003
,
0001
0000
1000
0010
0000
0100
0010
0000
,
0001
0010
0000
0100
1000
0000
0001
1000
,
0000
0010
0200
0000
0000
0020
0330
0000
,
1000
0000
0001
1000
0000
0010
1000
0000
,
0100
0010
0000
0001
0010
0000
0100
1000
,
0000
0001
2000
0000
0000
0002
3003
0000
,
0101
0000
0000
1010
0000
0000
0110
0000
,
0000
1001
0000
0000
0001
0000
1000
0000
,
0001
1000
0100
0010
,
0001
0000
0000
0010
0000
0000
1000
0000
0001
0000
0100
0000
1000
0000
0000
0001
,
0000
0100
0001
1000
0010
1000
0001
0100
,
2002
0000
0000
3003
,
0001
1000
0010
1000
0010
0000
0100
0000
,
0001
0010
0001
0100
1000
0010
1000
0000
,
0001
1001
0010
1010
,
0010
0000
0101
0000
0010
1000
0001
1000
,
0001
0010
1000
0100
,
0010
0000
0001
0000
0100
0001
0100
0000
,
0001
1000
0100
0001
,
0010
0010
1000
0100
0001
0010
1000
0000
,
0001
0000
0000
1000
0000
0000
0010
0000
,
1000
0100
0010
0000
0001
0010
0100
0000
,
0001
0000
0000
1000
0000
0000
0100
0000
,
0010
1000
0010
0000
0001
0010
0001
0000
,
0100
0000
0000
1000
0000
0000
0001
0000
,
0100
0001
0100
0000
0010
1000
0010
0000
,
0100
0000
0000
0101
0000
0000
1000
0000
,
0001
1000
0001
0000
0010
0000
1000
0000
,
0100
0000
0000
0001
0000
0000
1000
0000
,
0010
0000
0100
0000
0000
0001
0000
1000
,
0001
0000
0000
0010
0000
0000
1000
0000
,
0100
0000
0010
0000
0000
0001
0010
0001
,
0100
1000
0001
0000
0000
1000
0010
1000
,
0010
0000
0100
0001
0100
1000
0001
0000
,
0010
1000
0100
0000
0010
0001
0010
0000
,
0100
1000
0001
0100
0010
1000
0010
1000
,
2002
0000
0000
0000
,
0000
0000
0000
0000
,
0000
0000
0000
0000
,
3003
0000
0000
0000
;

//--------------- dance-single - XLev450X -超クレイジー--CSP ----------------
#NOTES:
     dance-single:
     XLev450X -超クレイジー-:
     Challenge:
     16:
     0,0,0,0,0:
0000
0000
0000
0000
,
0000
0000
0000
0000
,
0000
0000
0000
0000
,
0000
0000
0000
0000
,
0001
1000
0010
0000
0001
0010
0001
0000
,
0100
1000
0100
0000
0001
1000
0001
0000
,
0010
1000
0010
0000
0001
0010
0001
0000
,
0100
0000
0001
0000
1000
0000
0010
0000
1000
0000
0001
0000
1000
0100
0010
0001
,
0010
0100
1000
0010
0100
0010
0001
0010
,
0100
1000
0001
0010
1000
0001
1000
0100
,
0001
1000
0010
0001
0010
0100
0010
1000
,
0001
0000
0100
0000
1000
0000
0001
0000
1000
0000
0010
0000
1000
0001
0010
1000
,
0100
0010
0001
1000
0010
0001
0010
1000
,
0100
1000
0100
0010
0001
1000
0010
0001
,
0010
1000
0100
0001
0010
0100
1000
0100
,
0001
0100
0001
0000
1000
0100
1000
0000
0010
0001
0010
0000
0100
1000
0100
0001
,
0010
0001
0010
0100
1000
0001
1000
0010
,
1000
0100
0010
0001
0010
0100
1000
0001
,
1000
0010
1000
0100
0010
0001
0010
0100
,
2002
0000
0000
0000
0000
0000
0000
0000
3003
0000
0000
0000
0001
0100
1000
0100
,
0001
0100
1000
0001
1000
0010
1000
0100
,
0010
0001
0100
1000
0001
1000
0010
0001
,
1000
0010
0100
0001
1000
0100
0001
0010
,
2002
0000
0000
0000
0000
0000
0000
0000
3003
0000
0000
0000
0001
0010
0100
1000
,
0100
0010
0001
0100
0010
0100
1000
0100
,
0010
0001
1000
0100
0001
1000
0001
0100
,
1000
0001
0100
0001
0100
0010
0100
0010
,
1000
0000
0010
0000
0001
0000
1000
0000
0001
0000
0100
0000
0001
1000
0100
0001
,
0010
0100
1000
0001
0100
1000
0100
0001
,
0010
0001
0010
0100
1000
0001
0100
1000
,
0100
0001
0010
1000
0100
0010
0001
0010
,
1000
0010
1000
0000
0001
0010
0001
0000
0100
1000
0100
0000
0010
0001
0010
1000
,
0100
1000
0100
0010
0001
1000
0001
0100
,
0001
0010
0100
1000
0100
0010
0001
1000
,
0001
0100
0001
0010
0100
1000
0100
0010
,
2002
0000
0000
0000
0000
0000
0000
0000
3003
0000
0000
0000
1000
0010
0001
0010
,
1000
0010
0001
1000
0001
0100
0001
0010
,
0100
1000
0010
0001
1000
0001
0100
1000
,
0001
0100
0010
1000
0001
0010
1000
0100
,
2002
0000
0000
0000
0000
0000
0000
0000
3003
0000
0000
0000
1000
0100
0010
0001
,
1000
0010
0000
1001
0000
0001
0100
1000
,
0000
0110
0000
1000
0001
1000
0010
1000
,
0100
0010
0000
1001
0000
0010
0100
0001
,
0000
0000
0101
0000
0000
0000
1000
0000
0001
0000
1000
0000
1000
0100
0010
0001
,
0010
1000
0000
0110
0000
1000
0010
0100
,
0000
1001
0000
0010
1000
0100
0010
0001
,
0010
0100
0000
1001
0000
0001
1000
0010
,
0000
0000
0000
1010
0000
0000
0000
0000
0000
0100
0000
0000
0001
0000
0010
0000
0100
0000
1000
0000
0100
0000
0010
0000
,
0001
1000
0010
0100
0010
0001
0010
1000
,
0100
0001
1000
0001
1000
0010
1000
0100
,
0010
1000
0001
0100
0000
1000
0001
1000
,
0000
0000
0110
0000
0000
0000
1000
0000
0010
0000
1000
0000
0001
0000
0010
0001
,
0100
1000
0000
1001
0000
1000
0010
1000
,
0000
0110
0000
0001
0010
0100
1000
0010
,
0101
0000
0000
1010
0000
0000
0110
0000
,
0000
0000
0000
1100
0000
0000
0000
0000
0000
0000
0000
0000
0001
0000
0010
0000
0100
0000
1000
0000
0001
0000
1000
0000
,
0001
0000
0001
1000
0000
0010
0100
0000
,
1000
0010
0000
0001
0010
0000
0100
1000
,
0100
0001
0010
1000
0000
0110
0000
0000
,
1000
0100
0001
1000
0000
0010
1000
0000
,
0100
0010
0000
0001
0010
0100
1000
0001
,
0000
0000
1000
0000
0010
0000
0000
0000
0000
0000
1000
0001
1000
0000
0100
0000
,
0001
0100
1000
0010
0000
0100
0010
1000
,
0001
0010
0000
0100
1000
0100
1000
0001
,
0000
0010
1000
0000
0010
0100
0000
0010
,
0001
0010
0100
1000
0000
0001
0100
0000
,
0010
1000
0000
0010
1000
0100
0001
0010
,
0000
0100
2000
0000
0000
0002
3003
0000
,
1001
0000
0000
1010
0000
0000
0110
0000
,
0000
0101
0000
0000
0001
1000
0001
1000
,
0010
1000
0001
0100
1000
0001
1000
0010
,
1000
0000
0000
0001
0000
0000
0100
0000
0010
0000
1000
0000
0001
0000
0000
1000
,
0000
0100
0010
0001
1000
0010
0100
0001
,
2002
0000
0000
3003
,
0001
1000
0100
0010
0001
0010
0100
1000
,
0001
0010
1000
0100
0010
0001
0010
0001
,
0001
1000
0001
0100
0010
1000
0010
1000
,
0010
0000
1000
0000
0010
0000
1000
0000
0001
0000
0010
0000
0001
0100
1000
0100
,
0001
1000
0100
1000
0001
0010
1000
0100
,
0001
0010
1000
0100
0010
0001
0010
0100
,
0001
1000
0001
0100
0010
1000
0100
0001
,
0010
0000
0001
0000
0010
0000
0100
0000
1000
0000
0001
0000
1000
0100
0010
0001
,
0010
0000
1000
0010
0000
0100
0010
0000
,
0001
0010
0100
1000
0001
1000
0001
0000
,
0110
0000
1000
0100
0000
0010
0001
0000
,
0100
1000
0001
1000
0010
1000
0001
0000
,
1000
0000
0100
0010
0000
0001
0010
0000
,
1000
0001
1000
0010
1000
0000
2002
3003
,
0100
0000
1000
0001
0000
0010
0100
0000
,
0010
0001
0010
0100
1000
0100
1001
0000
,
0001
1000
0100
0001
0010
0100
1000
0001
,
0010
1000
0100
0000
0000
0001
0000
1000
,
0001
1000
0001
0100
0001
1000
0010
0001
,
1000
0010
0100
0000
0000
0010
0001
0010
,
0100
1000
0001
1000
0000
0010
1000
0100
,
0010
0000
0001
0010
0100
1000
0001
1000
,
0010
0100
0010
0001
0010
0100
1000
0001
,
1000
0010
1000
0100
0001
0010
0100
0010
,
2002
0000
0000
0000
,
0000
0000
0000
0000
,
0000
0000
0000
0000
,
3003
0000
0000
0000
;
