#TITLE:Back to Life;
#ARTIST:CROOVE;
#GENRE:Western House;
#MUSIC:Back to Life.ogg;
#BANNER:Back to Life.png;
#BACKGROUND:Back to Life-bg.png;
#SAMPLESTART:78.497;
#SAMPLELENGTH:15;
#OFFSET:-0.275;
#BPMS:0=135;
#BGSTAGE:16;

//--------------- dance-single - XLev450X-bSP ----------------
#NOTES:
     dance-single:
     XLev450X:
     Beginner:
     3:
     0,0,0,0,0:
0000
0000
0000
0000
,
0000
0000
0000
0000
,
0000
0000
0000
0000
,
0000
0000
0000
0000
,
0010
0000
0010
0000
,
0010
0000
0000
0000
,
1000
0000
1000
0000
,
1000
0000
0000
0000
,
0001
0001
0000
0000
,
1000
1000
0000
0000
,
0010
0000
0100
0000
,
0010
0000
0000
0000
,
1000
0100
0000
0000
,
0001
0010
0000
0000
,
0001
0000
1000
0000
,
0001
0000
0000
0000
,
0010
0000
0100
0000
,
0010
0000
0000
0000
,
1000
0000
0010
0000
,
1000
0000
0000
0000
,
0001
0000
0010
0000
,
0001
0000
0000
0000
,
0100
0000
0010
0000
,
0100
0000
0000
0000
,
0001
0000
0000
0000
,
1000
0000
0000
0000
,
0010
0000
0000
0000
,
0100
0000
0000
0000
,
0010
0010
0001
0000
,
0100
0100
0010
0000
,
1000
1000
0100
0000
,
0001
0001
0010
0000
,
0001
0000
1000
0000
,
0001
0000
0000
0000
,
1000
0000
0100
0000
,
1000
0000
0000
0000
,
0010
0000
0000
0000
,
0000
0000
0000
0000
,
0001
0000
0000
0000
,
0000
0000
0000
0000
,
1000
0000
0000
0000
,
0000
0000
0000
0000
,
0100
0000
0000
0000
,
0000
0000
0000
0000
,
0001
0000
0010
0000
,
0100
0000
1000
0000
,
0010
0000
0100
0000
,
0010
0000
0000
0000
,
1000
0000
0100
0000
,
0010
0000
0001
0000
,
1000
0000
0001
0000
,
0100
0000
0000
0000
,
0001
0000
0000
0000
,
1000
0000
0000
0000
,
0010
0000
0000
0000
,
0100
0000
0000
0000
,
1000
0000
1000
0000
,
1000
0000
0000
0000
,
0010
0000
0010
0000
,
0010
0000
0000
0000
,
0001
0000
0100
0000
,
0001
0000
0000
0000
,
1000
0000
0100
0000
,
1000
0000
0000
0000
,
0010
0000
0100
0000
,
0010
0000
0000
0000
,
0001
0000
0010
0000
,
0001
0000
0000
0000
;

//--------------- dance-single - XLev450X-BSP ----------------
#NOTES:
     dance-single:
     XLev450X:
     Easy:
     6:
     0,0,0,0,0:
0000
0000
0000
0000
,
0000
0000
0000
0000
,
0000
0000
0000
0000
,
0000
0000
0000
0000
,
0001
1000
0001
0000
,
0010
1000
0100
0001
,
1000
0001
0100
0000
,
0010
0000
1000
0000
0202
0303
0220
0330
,
0001
1000
0001
1000
,
0100
0001
0010
0000
,
1000
0100
1000
0001
,
0100
0000
0010
0000
1000
0100
0001
0000
,
0001
0000
1000
0000
0001
1000
0001
0000
,
0010
0000
1000
0000
0100
0010
0100
0000
,
1000
0000
0001
0000
0100
0000
1000
0001
,
0000
0100
0000
0010
2000
0000
0020
3030
,
0001
0000
1000
0000
0100
1000
0001
0000
,
0100
0000
1000
0000
0010
1000
0010
0000
,
0010
0000
0100
0000
0001
0010
0001
0000
,
1000
0100
1000
0001
,
0010
1000
0100
0000
,
0001
1000
0100
1000
,
0010
0000
1000
0010
1000
0000
0001
0000
,
0100
0001
1000
0000
,
0001
1000
0001
0000
,
0010
0000
1000
0000
0100
1000
0100
0000
,
1000
0001
0100
0000
,
1000
0000
0010
0000
0202
0303
2020
3030
,
0010
1000
0100
0000
,
0001
1000
0001
0000
,
0010
1000
0010
0000
,
0100
0010
1000
0001
,
0100
1000
0001
0000
,
0100
0010
1000
0000
,
0010
0100
0010
0000
,
0001
0010
0001
0000
,
1000
0000
0001
0000
1000
0001
1000
0000
,
0010
1000
0020
0030
,
0100
1000
0200
0300
,
0010
0100
0020
0030
,
0001
1000
0002
0003
,
0001
1000
0010
0100
,
1000
0001
0100
0010
,
1000
0000
0001
0000
0002
0100
0203
0300
,
1000
0010
1000
0001
,
1000
0000
0100
0000
0001
1000
0010
0000
,
1000
0000
0010
0000
1000
0010
1000
0000
,
0100
1000
0001
0000
,
0100
0010
1000
0100
,
0001
1000
0010
0000
,
0001
1000
0100
1000
,
0001
1000
0001
0000
0100
0000
0010
0000
,
0002
0000
0000
0000
,
2000
0000
0000
3003
,
0020
0000
0000
0000
,
0200
0000
0000
0000
0000
0000
0000
0330
,
2000
0000
0100
0000
,
0200
0000
0000
3300
,
0002
0000
0010
0000
,
0020
0000
0000
0033
,
0001
1000
0100
0000
,
0001
0010
1000
0000
,
0100
0010
0100
0000
,
0001
0000
1000
0000
0001
1000
0001
0000
,
1000
0100
0010
0000
,
1000
0010
0100
0000
,
0001
0010
1000
0000
,
1000
0000
0000
0000
0001
0000
0000
0000
1000
0000
0001
0000
1000
0000
0000
0220
,
0330
0000
0000
0000
0000
0000
0000
0000
0000
0000
0000
0000
0000
0000
0000
0000
0000
0000
0000
0000
0000
0000
0000
0000
0000
0000
0000
0000
0000
0000
0000
0000
0000
0000
0000
0000
0000
0000
0000
0000
0000
0000
0000
0000
0000
0000
0000
0000
0000
0000
0000
0000
0000
0000
0000
0000
0000
0000
0000
0000
0000
0000
0000
0000
0000
0000
0000
0000
0000
0000
0000
0000
0000
0000
0000
0000
0000
0000
0000
0000
0000
0000
0000
0000
0000
0000
0000
0000
0000
0000
0000
0000
0000
0000
0000
0000
0000
0000
0000
0000
0000
0000
0000
0000
0000
0000
0000
0000
0000
0000
0000
0000
0000
0000
0000
0000
0000
0000
0000
0000
0000
0000
0000
0000
0000
0000
0000
0000
0000
0000
0000
0000
0000
0000
0000
0000
0000
0000
0000
0000
0000
0000
0000
0000
0000
0000
0000
0000
0000
0000
0000
0000
0000
0000
0000
0000
0000
0000
0000
0000
0000
0000
0000
0000
0000
0000
0000
0000
0000
0000
0000
0000
0000
0000
0000
0000
0000
0000
0000
0000
0000
0000
0000
0000
0000
0000
0000
0000
0000
0000
0000
0000
;

//--------------- dance-single - XLev450X-DSP ----------------
#NOTES:
     dance-single:
     XLev450X:
     Medium:
     10:
     0,0,0,0,0:
0000
0000
0000
0000
,
0000
0000
0000
0000
,
0000
0000
0000
0000
,
0000
0000
0000
0000
,
0001
0000
1000
0000
0010
1000
0010
0100
,
0001
0000
1000
0000
0001
1000
0001
1000
,
0001
0000
0010
0000
1000
0100
0001
0000
,
0010
0000
1000
0000
0010
0000
0100
0000
0002
0000
0000
0000
0200
0000
0303
0000
,
1000
0010
1000
0000
0001
0010
0001
0000
,
1000
0001
1000
0010
0000
0100
1000
0001
,
1000
0000
0001
0000
0100
0010
0100
0000
,
1000
0010
1000
0000
0001
0000
0010
0000
,
1000
1000
0001
0000
1000
0000
0100
0000
,
0010
0000
0001
0010
0001
0000
1000
0000
,
0100
0000
1000
0000
0001
0000
0100
0010
,
0000
0000
1000
0000
0000
0000
0001
0000
0200
0000
0000
0000
0020
0000
0330
0000
,
1000
1000
0001
0100
,
0010
1000
0010
1000
,
0001
0010
0001
0000
1000
0100
1000
0000
,
0001
0100
0010
0000
,
0001
1000
0010
0000
,
1000
0100
0001
0010
,
0100
1000
0001
0000
,
0010
0000
0000
0000
1000
0000
0000
0000
0001
0000
0000
0000
1000
0000
0000
0010
,
0000
0000
0000
0100
0000
0000
0001
0000
1000
0000
0000
0001
0000
0000
0000
0100
,
0000
0000
0000
1000
0000
0000
0001
0000
0100
0000
0000
1000
0000
0000
0001
0000
,
1000
0000
0000
0000
0010
0000
0000
0001
0000
1000
0000
0000
0010
0000
0000
0100
,
0000
0000
0000
0000
0000
0000
1000
0000
0000
0000
0000
0000
0001
0000
0000
0000
0200
0000
0000
0000
0000
0000
0000
0000
0020
0000
0000
0000
0000
0330
0000
0000
,
0001
0000
1000
0000
0100
1000
0100
0000
,
0001
0000
0010
0000
1000
0001
1000
0000
,
0010
0100
1000
0001
,
1000
0001
0100
0000
0010
1000
0010
0000
,
1000
0100
0001
1000
,
0010
0010
1000
0001
0100
1000
0001
0000
,
0001
1000
0100
1000
,
0010
1000
0010
0000
0001
0000
1000
0000
,
0101
0010
1010
0010
,
0100
0000
0010
0000
1000
0001
0010
0000
,
1001
0010
0110
0010
,
1001
0000
0000
0000
1001
0000
0000
0000
0110
0000
0000
0000
1001
0000
0000
0000
,
0010
1000
0010
0000
0001
0010
0001
0000
,
1000
0000
0100
0000
1000
0001
0100
0000
,
0010
0000
1000
0000
0100
0001
1000
0000
,
0010
0000
0000
0000
0000
0000
0000
0000
0100
0000
0000
0000
0000
0000
0000
0000
0002
0000
0000
0000
0010
0000
0000
0000
0020
0000
0000
0000
0000
0033
0000
0000
,
1000
0000
0000
0000
0001
0000
0000
0100
0000
1000
0000
0001
0000
0000
0100
0000
,
1000
0000
0000
0000
0001
0000
0000
0100
0000
0000
1000
0000
0001
0000
0000
0000
,
0010
0000
0100
0000
1000
0000
0000
0001
0000
0000
0100
0000
1000
0000
0000
0000
,
0001
0000
1000
0000
0010
0000
0000
0100
0000
0000
0001
0000
1000
0000
0000
0000
,
0001
0000
0000
0000
1000
0000
0000
0100
0000
0001
0000
1000
0000
0000
0010
0000
,
1000
0000
0000
0000
0001
0000
0000
0100
0000
1000
0000
0001
0000
0000
1000
0000
,
0010
0000
0000
0100
0000
0001
0000
1000
0000
0000
0001
0000
1000
0000
0000
0000
,
0010
1000
0100
0001
1000
0000
0001
0000
,
0102
0100
0100
0103
,
2010
0010
0010
3010
,
2001
0001
0001
3001
,
1002
1000
1000
1003
,
0001
0100
0001
0000
0010
1000
0010
0000
,
0100
0001
1000
0001
0000
1000
0001
0000
,
0100
1000
0010
0000
1000
0100
0001
0000
,
0010
0000
0100
0000
1000
0000
0001
0000
0020
0000
0000
0000
2000
0000
3030
0000
,
0001
0100
1000
0000
0001
0000
1000
0000
,
0010
1000
0100
0001
1000
0001
0010
0000
,
1000
0000
0100
0000
0010
1000
0010
0000
,
0001
0000
0010
0000
0001
1000
0001
0000
,
0100
0000
1000
0000
0001
0100
0001
0000
,
0010
1000
0100
1000
,
0010
1000
0010
0000
0001
0010
0001
0000
,
1000
0000
0000
0000
0100
0000
0000
0000
0001
0000
1000
0000
0001
0000
0000
2002
,
3003
0000
0000
0000
0000
0000
0000
0000
0000
0000
0000
0000
0000
0000
0000
0000
;

//--------------- dance-single - XLev450X-ESP ----------------
#NOTES:
     dance-single:
     XLev450X:
     Hard:
     14:
     0,0,0,0,0:
0000
0000
0000
0000
,
0000
0000
0000
0000
,
0000
0000
0000
0000
,
0000
0000
0000
0000
0000
0000
1000
0001
1000
0000
0001
0000
1000
0000
0010
0000
,
1000
0001
0011
0000
1000
0010
1010
0000
,
0100
0001
1000
0010
0100
1000
0101
0000
,
0010
1000
1010
0000
0100
0010
0110
0000
,
0001
0010
1000
0010
1001
0000
0110
0000
,
0001
0000
1000
0000
0010
1000
0010
0000
,
0100
1000
0100
0001
0000
1000
0010
0100
,
1000
0000
0001
0010
1000
0000
0001
0000
,
1000
0000
0010
0000
1000
0000
0001
0000
0010
0000
1000
0100
1000
0100
0001
0100
,
0010
1000
0001
1000
0010
0000
1001
0000
,
0010
0000
1000
0000
0001
0100
0001
0000
,
1000
0010
1000
0010
0100
0000
0001
1000
,
0000
0001
0000
1000
0102
0103
2010
3010
,
0001
1000
0010
0000
1000
0100
1000
0000
,
0001
0000
0010
0000
0001
0000
1000
0000
0010
0000
0001
1000
0001
0000
0100
0000
,
1000
0010
1000
0000
0100
1000
0010
0100
,
0001
0000
1000
0000
0010
0000
1000
0000
0001
0100
1000
0000
0010
0000
0001
0010
,
1000
0100
1000
0001
,
0100
1000
0001
0010
1000
0000
0001
0000
,
1000
0010
0100
0001
1000
0010
0001
0100
,
0000
0000
0001
0000
0000
0000
1000
0000
0021
0000
0031
0000
1200
0000
0300
1001
,
0000
0000
0000
0001
0000
0000
1000
0000
0010
0000
0000
0100
0000
0000
0000
1000
,
0000
0000
0001
0100
1000
0000
0001
0000
0010
0000
0000
0100
0000
0001
0100
1000
,
0100
0000
0000
0000
0001
0000
0000
1000
0000
0001
0000
0000
0110
0000
0000
0001
,
0000
0100
0000
1000
0010
1000
0010
0000
0210
0000
0310
0000
1002
0000
0003
0000
,
0001
1000
0010
1000
0001
0100
1000
0001
,
0010
1000
0010
1000
0100
1000
0101
0000
,
0010
0100
1000
0001
1000
0001
1000
0010
,
1000
0100
0001
1000
0010
0000
0100
0000
,
1000
1000
0001
0100
1000
0001
1000
0001
,
1000
0010
1000
0100
1000
0001
0010
0000
,
0100
1000
0010
0001
0010
1000
0010
0100
,
1000
0001
0010
1000
0101
0000
1010
0000
,
0010
0000
0100
0000
1000
1000
0001
0100
,
1000
0000
0010
0000
1000
1000
0100
0001
,
1000
0001
0100
0010
1000
0001
0000
0010
,
0000
0100
1000
0001
0100
0001
1000
0000
,
0001
0000
0100
0000
1000
0010
1000
0001
,
0100
1000
0001
0010
1000
0001
1000
0000
,
0010
0010
1000
0100
0001
1000
0010
0100
,
1000
0001
0010
1000
2001
3001
0220
0330
,
0001
0000
1000
0000
0010
0000
0000
0100
0000
0001
0000
0100
0000
0000
0001
0010
,
1000
0000
1000
0000
0001
0000
0010
1000
0000
0001
1000
0100
0010
0000
0001
0000
,
0001
0000
0010
0000
1000
0000
0001
0100
0000
0010
0100
1000
0100
0000
1000
0000
,
0010
0000
1000
0000
0001
0010
0000
0100
0000
0000
1000
0000
0010
0000
0000
0000
,
1000
0000
0001
0000
0100
0000
0000
0010
0000
1000
0000
0010
0000
0000
1000
0100
,
0001
0000
0001
0000
1000
0000
0100
0001
0000
1000
0001
0010
0100
0000
1000
0000
,
1000
0000
0100
0000
0001
0000
1000
0010
0000
0100
0010
0001
0010
0000
0001
0000
,
0100
0000
0001
0100
1000
0000
0100
0010
0100
0000
0001
0000
0100
0000
0001
0000
,
1000
0001
1000
0010
0100
1000
0001
0001
,
1000
0001
0100
1000
0001
1000
1001
0000
,
0010
1000
0100
1000
0001
1000
0100
1000
,
0001
0010
1000
0001
0100
1000
1001
0000
,
0010
0001
0010
0000
1000
0100
1000
0000
,
0010
0100
1000
0001
0100
0001
0001
0000
,
1000
0100
1000
0000
0010
1000
0001
0100
,
0001
0000
1000
0001
0102
0103
2010
3010
,
0010
0000
1000
0000
0100
0000
0000
0001
0000
0000
1000
0000
0100
0000
0010
0000
,
0000
0000
0001
0000
0000
1000
0000
0001
0000
0100
0000
0001
0000
0000
1000
0100
,
0000
0001
0100
1000
0000
0100
0000
1000
0000
0001
0000
0100
0000
0000
0001
0000
,
0000
0010
0000
0000
1000
0000
0000
0001
0000
1000
0000
0001
0100
0000
1000
0000
,
0000
0000
0001
0000
0000
1000
0000
0001
0000
0000
0100
0000
0000
1000
0000
0000
,
0100
0000
0000
0010
0000
0000
0100
0000
1000
0000
0000
0001
0000
0000
0100
0000
,
0000
0000
0100
0000
0000
0010
0000
0000
0001
0000
0000
1000
0000
0000
0001
0000
,
0100
0000
0000
1000
0000
0000
0010
0000
1000
0100
0001
0000
0010
0000
0000
2002
,
3003
0000
0000
0000
0000
0000
0000
0000
;
