#TITLE:BU-44;
#ARTIST:NAOKI;
#GENRE:SPEED RAVE;
#MUSIC:BU-44.ogg;
#BANNER:BU-44.png;
#BACKGROUND:BU-44-bg.png;
#CDTITLE:./CDTitles/StepManiaX.png;
#SAMPLESTART:69.764;
#SAMPLELENGTH:15;
#SELECTABLE:YES;
#OFFSET:-0.100;
#BPMS:0=155.030;
#BGSTAGE:15;
#DISPLAYBPM:155;

//--------------- dance-single - XLev450X-bSP ----------------
#NOTES:
     dance-single:
     XLev450X:
     Beginner:
     3:
     0,0,0,0,0:
0000
0000
0000
0000
,
0000
0000
0000
0000
,
0000
0000
0000
0000
,
0000
0000
0000
0000
,
0000
0000
0000
0000
,
0000
0000
0000
0000
,
0000
0000
0000
0000
,
0000
0000
0000
0000
,
0010
0000
1000
0000
,
0001
0000
0000
0000
,
0010
0000
0100
0000
,
0010
0000
0000
0000
,
1000
0000
0100
0000
,
1000
0000
0000
0000
,
0010
0000
0001
0000
,
0010
0000
0000
0000
,
1000
0000
0001
0000
,
0100
0000
0010
0000
,
1000
0000
0001
0000
,
0100
0000
0000
0000
,
1001
0000
0000
0000
,
0010
0010
0010
0000
,
0100
0100
0100
0000
,
0001
0001
0001
0000
,
1000
1000
1000
0000
,
0010
0100
0010
0000
,
1000
0001
1000
0000
,
0100
0001
0100
0000
,
0010
1000
0010
0000
,
0100
0001
1000
0010
,
0100
0000
0001
0000
,
1000
0010
0100
0001
,
1000
0000
0010
0000
,
0100
0001
1000
0000
,
0010
1000
0100
0000
,
0010
1000
0001
0000
,
0100
0010
1000
0000
,
0010
0000
0100
0000
,
0001
0000
0000
0000
,
1000
0000
0010
0000
,
0100
0000
0000
0000
,
0001
1000
0010
0000
,
0100
0001
1000
0000
,
0100
0001
1000
0000
,
0010
0000
0100
0000
,
0001
1000
0010
0100
,
0001
0000
1000
0000
,
0010
0100
0001
1000
,
0010
0000
0100
0000
,
1000
0001
0100
0010
,
1000
0000
0001
0000
,
0100
0010
1000
0001
,
0100
0000
0000
0000
,
0010
0000
1000
0000
,
0001
0000
0000
0000
,
0100
0000
1000
0000
,
0010
0000
0000
0000
,
0100
0000
0001
0000
,
0010
0000
0000
0000
,
1000
0001
0100
0000
,
0010
0000
0000
0000
,
1001
0000
0000
0000
;

//--------------- dance-single - XLev450X-BSP ----------------
#NOTES:
     dance-single:
     XLev450X:
     Easy:
     5:
     0,0,0,0,0:
0000
0000
0000
0000
,
0000
0000
0000
0000
,
0000
0000
0000
0000
,
0000
0000
0000
0000
,
0001
1000
0010
0000
,
0100
0001
1000
0010
,
0000
2002
0000
0000
3003
0000
0110
0000
,
0000
0000
0000
0000
,
0001
1000
0010
0100
,
0002
0003
2000
3000
,
0010
0100
0001
1000
,
0020
0030
0200
0300
,
0001
1000
0010
0100
,
0001
1000
0010
0100
,
0002
0003
2000
3000
,
0100
0000
0001
0000
1000
0001
0010
0000
,
2000
3000
0002
0003
,
0200
0300
0020
0030
,
2000
3000
0002
0003
,
0200
0300
0020
0030
,
2002
0000
0000
3003
,
0001
1000
0010
0100
,
0002
0003
2000
3000
,
0010
0100
0001
1000
,
0020
0030
0200
0300
,
0001
1000
0010
0100
,
0002
0003
2000
3000
,
0100
0001
1000
0010
,
0200
0300
0002
0003
,
1000
0010
0100
0001
,
1000
0010
0100
0001
,
2000
3000
0020
0030
,
0200
0300
0002
0003
,
1000
0001
0100
0010
,
1000
0001
0100
0000
,
0010
1000
0001
0100
,
0010
1000
0100
0010
,
2002
3003
0220
0330
,
2200
3300
0022
0033
,
0220
0330
0202
0303
,
2020
3030
0220
0330
,
0001
1000
0010
0000
,
0100
0001
1000
0000
,
0100
0001
1000
0010
,
0200
0300
0002
0003
,
1000
0010
0100
0001
,
1000
0010
0200
0300
,
0001
1000
0010
0100
,
0002
0003
2000
3000
,
0010
0100
0001
1000
,
0010
0100
0002
0003
,
2000
0000
3000
0000
0020
0000
0000
0030
,
0000
0200
0000
0000
0000
0300
0000
0000
,
0000
0002
0000
0003
2000
0000
3000
0000
,
0020
0000
0030
0000
,
0200
0300
0002
0003
,
2000
0000
3000
0000
,
0100
0001
1000
0010
,
0200
0300
0002
0003
,
1000
0010
0100
0001
,
2000
3000
0020
0030
,
1001
0000
0000
0000
;

//--------------- dance-single - XLev450X-DSP ----------------
#NOTES:
     dance-single:
     XLev450X:
     Medium:
     8:
     0,0,0,0,0:
0000
0000
0000
0000
,
0000
0000
0000
0000
,
0000
0000
0000
0000
,
0000
0000
0000
0000
,
0010
0000
1000
0000
0001
0100
0010
0000
,
1000
0000
0001
0000
0100
0010
1000
0001
,
0000
0110
0000
0000
0000
0000
1001
0000
,
0000
0000
0000
0000
,
0001
0100
0010
0000
1000
0001
0100
0000
,
0010
1000
0001
0100
0010
0000
1000
0000
,
0001
0100
0010
0000
1000
0001
0100
0000
,
0010
1000
0001
0100
,
0010
1000
0010
0000
0100
0001
0100
0000
,
0010
0010
1000
0100
,
0001
1000
0010
0100
,
0001
0000
1000
0000
,
0001
0100
0010
0000
1000
0000
0100
0000
,
0001
0100
0010
0000
1000
0000
0001
0000
,
0100
0010
1000
0000
0001
0000
0100
0000
,
0010
1000
0001
0100
0010
0000
1000
0000
,
0001
0000
0000
0000
0100
0001
0010
0000
,
1000
0000
0001
0000
0100
0010
1000
0000
,
0001
0000
0100
0000
0010
1000
0001
0000
,
0020
0030
2000
3000
,
0001
0100
1020
0030
,
1000
0010
0100
0000
0001
0000
1000
0000
,
0100
0001
0100
0000
0010
0000
1000
0000
,
0200
0300
0002
0003
,
1000
0000
0001
0000
0000
0000
0100
0000
0000
0010
0000
0000
1000
0000
0010
0000
,
0001
0000
1000
0000
0001
0100
0010
0000
,
1000
0001
0100
0010
,
1000
0010
1000
0000
0100
0001
0100
0000
,
0010
1000
0100
0010
,
1000
0100
0010
0001
1000
0000
0010
0000
,
0100
0010
1000
0001
0100
0000
0010
0000
,
0001
0000
1000
0000
,
0010
0100
0001
0000
1000
0000
0010
0000
,
0200
0000
0000
0300
,
0002
0000
0000
0003
,
2000
0000
0000
3000
,
0020
0000
0000
0030
,
2000
0010
0001
3010
,
0200
0001
0010
0301
,
2000
0010
0100
3001
,
0200
0010
0001
0310
,
1000
0001
0100
0010
,
2000
3000
0002
0003
,
0100
0001
1000
0010
,
0200
0300
0002
0003
,
1000
0010
0100
0000
0001
0000
1000
0000
,
0100
0001
0100
0000
0010
0000
1000
0000
,
0010
0000
0100
0000
0001
0000
1000
0010
,
0000
2002
0000
0000
0000
0000
3003
0000
,
0020
0030
2000
3000
,
0002
0003
2000
3000
,
0020
0030
0200
0300
,
0001
1000
0010
0000
,
0100
0000
0001
0000
1000
0010
0100
0000
,
0001
0000
1000
0000
0100
0001
0100
0000
,
0010
1000
0001
0100
0010
1000
0001
0100
,
2002
0000
0000
3003
,
0110
0000
0000
0000
;

//--------------- dance-single - XLev450X-ESP ----------------
#NOTES:
     dance-single:
     XLev450X:
     Hard:
     11:
     0,0,0,0,0:
0000
0000
0000
0000
,
0000
0000
0000
0000
,
0000
0000
0000
0000
,
0000
0000
0000
0000
,
0001
1000
0010
0100
0001
0000
1000
0000
,
0010
0100
0001
1000
0010
0100
0001
1000
,
0000
0220
0000
0000
0330
0000
2002
0000
,
0000
0000
0000
3003
0000
0000
0000
0000
,
1000
0010
0100
0001
1000
0000
0100
0000
,
0001
1000
0010
0100
0001
0000
1000
0000
,
0010
0001
0010
0000
0100
1000
0100
0000
,
0010
0100
0001
1000
0010
0000
0100
0000
,
0001
1000
0010
0100
0001
0000
1000
0000
,
0100
0010
0001
1000
0010
0000
0100
0000
,
0001
1000
0010
0100
0001
1000
0010
0000
,
0100
0000
0000
0000
0001
0000
0000
0000
0001
0100
0010
1000
0001
0000
0000
0000
,
0001
1000
0010
0000
0010
1000
0001
0000
,
0100
0010
1000
0001
0100
0010
1000
0000
,
0100
0001
1000
0010
0100
0000
0001
0000
,
1000
0010
0100
0001
1000
0010
0100
0000
,
1001
0000
0110
0000
0001
1000
0010
0000
,
0100
0001
1000
0010
0100
0001
1000
0010
,
0100
0001
1000
0010
0100
0001
1000
0100
,
0010
0001
1000
0100
0010
0001
1000
0010
,
0100
0001
1000
0010
0100
0000
0000
0000
,
0001
1000
0010
0000
0100
0000
0001
0000
,
1000
0010
0100
0000
0001
0000
1000
0000
,
0010
0001
0010
1000
0100
0010
1000
0001
,
0100
0000
0000
0000
0010
0000
0000
0001
0000
0000
1000
0000
0001
0100
0000
1000
,
0010
0100
0001
1000
0010
0000
0100
0000
,
0001
1000
0010
0100
0001
1000
0010
0000
,
0100
1000
0100
0000
0010
0001
0010
0000
,
0100
0010
1000
0001
0100
0000
0010
0000
,
1000
0001
0100
0010
1000
0001
0100
0000
,
0010
0001
1000
0010
0100
0000
0010
0001
,
1000
0010
0100
0001
1000
0010
0100
0001
,
1000
0000
0010
0100
0001
1000
0010
0100
,
2002
0000
3003
0000
,
0202
0000
0303
0000
,
2020
0000
3030
0000
,
0220
0000
0330
0000
,
0102
0100
0100
0103
,
1002
1000
1000
1003
,
2010
0010
0010
3010
,
0102
0100
0100
0103
,
0010
1000
0001
0100
0010
1000
0001
0100
,
0010
0000
1000
0000
0100
0010
0001
0000
,
1000
0010
0100
0001
1000
0010
0100
0001
,
1000
0000
0100
0000
0001
1000
0010
0000
,
0100
0001
1000
0010
0100
0001
1000
0000
,
1000
0100
1000
0000
0010
0001
0010
0000
,
0100
0000
0010
0000
0001
0000
1000
0000
0010
0000
0100
0000
0001
0010
1000
0000
,
0000
0000
0220
0000
0000
0330
0000
0000
0100
1000
0001
1000
0010
0100
0001
0010
,
0000
0010
1000
0100
0000
0001
1000
0010
,
0000
0100
0010
0001
1000
0010
0100
0001
,
1000
0000
0010
0000
0100
0001
1000
0000
,
0010
0100
0001
0000
1000
0000
0010
0000
,
0100
0010
0001
1000
0010
0100
0001
0000
,
1000
0001
0100
0010
1000
0001
0100
0000
,
0010
1000
0001
0100
0010
1000
0001
0100
,
0011
0000
0000
0000
1100
0000
0000
0000
0100
0010
0100
0010
0001
0010
0100
0000
,
1010
0000
0000
0000
;

//--------------- dance-single - XLev450X-CSP ----------------
#NOTES:
     dance-single:
     XLev450X:
     Challenge:
     15:
     0,0,0,0,0:
0000
0000
0000
0000
,
0000
0000
0000
0000
,
0000
0000
0000
0000
,
0000
0000
0000
0000
,
0001
1000
0010
0100
0001
1000
0010
0100
,
0001
0000
1000
0000
0010
0000
0100
0000
0001
1000
0010
0100
0001
1000
0010
0000
,
0000
2002
0000
0000
3003
0000
0220
0000
,
0000
0000
0000
0000
0330
0000
0000
0000
2002
0000
0000
0000
0000
3003
0000
0000
,
0001
1000
0010
0100
0001
1000
0010
0000
,
0100
0001
1000
0010
0100
0001
1000
0000
,
0010
0100
0001
0000
1000
0010
0100
0000
,
0001
1000
0010
0100
0001
1000
0010
0000
,
0010
0000
1000
0000
0001
0000
1000
0001
0010
0000
0000
0100
0000
0000
0010
0000
,
0001
1000
0010
0100
0001
0000
1000
0000
,
0010
0001
1000
0000
0100
0010
0001
0000
,
1000
0000
0010
0000
0100
0000
0001
0000
1000
0001
0010
0200
0000
0000
0300
0000
,
0001
1000
0010
0100
0001
0000
1000
0000
,
0010
0001
0010
0000
0100
1000
0100
0000
,
0010
0001
1000
0010
0100
0001
1000
0000
,
0010
0000
0000
0000
0100
0000
1000
0010
0001
1000
0100
0001
0010
1000
0100
0000
,
1001
0000
0110
0000
0001
1000
0010
0000
,
0001
1000
0010
0100
0001
1000
0010
0000
,
0010
0001
0010
0000
0100
1000
0100
0000
,
0010
0000
1000
0000
0001
0000
0100
0000
0010
0000
1000
0001
0000
0000
1000
0000
,
0010
1001
0110
0000
,
0010
0000
0100
0001
0000
0000
0100
0001
1000
0100
0000
0010
0000
0000
0000
0000
,
1000
0000
0100
0001
0000
0000
0100
0000
0010
1000
0010
0000
0001
0000
0000
0000
,
1010
0000
0000
0000
0001
1000
0010
0000
0100
0000
0001
0000
1000
0000
0100
0000
,
0001
0000
0000
0000
1000
0000
0000
0100
0000
0000
1000
0000
0001
0010
0000
1000
,
0100
0001
1000
0010
0100
0001
1000
0000
,
0010
0001
0010
1000
0100
0010
0001
0000
,
1000
0100
1000
0000
0010
0001
0010
0000
,
1000
0010
0100
0001
1000
0010
0100
0000
,
0001
0000
1000
0000
0010
0100
0000
0001
,
1000
0010
0100
0001
1000
0000
0010
0001
,
1000
0000
0010
1000
0001
0100
0010
1000
,
0001
0010
0100
0010
0100
1000
0001
0010
0100
0010
0001
1000
0010
0100
0001
0010
,
1000
0000
0000
1000
0000
0000
1000
0000
0000
1000
0000
0000
1000
0001
0100
0000
,
0100
0000
0000
0100
0000
0000
0100
0000
0000
0100
0000
0010
1000
0010
0001
0000
,
0001
0000
0000
0001
0000
0000
0001
0000
0000
0001
0000
0000
0001
1000
0010
0100
,
0010
0000
0000
0100
0000
0000
0001
1000
0010
0100
0001
1000
0010
1000
0001
0100
,
0001
1000
0010
0100
0001
1000
0010
0000
,
0100
0001
1000
0010
0100
0001
1000
0000
,
0010
0000
0001
0000
1000
0010
0100
0000
,
0001
0000
0000
0000
1000
0000
0000
0000
0100
1000
0100
1000
0100
0010
0001
0010
,
0010
1000
0001
0100
0010
1000
0001
0000
,
0100
1000
0100
0000
0010
0001
0010
0000
,
1000
0001
0100
0010
1000
0001
0100
0010
,
1000
0000
0001
0000
0100
0010
1000
0000
,
0001
0000
1000
0000
0010
0100
0001
0000
,
1000
0000
0010
0000
0100
1000
0100
0000
,
0010
0000
0001
0000
1000
0000
0010
0000
0100
0000
0001
0000
1000
0001
0100
0000
,
0000
0000
1010
0000
0000
0000
0000
0000
0100
0010
0100
1000
0001
0010
0100
0010
,
0000
1000
0001
0010
0000
1000
0001
0100
,
0000
0010
0001
1000
0000
0010
0100
0001
,
1000
0000
0010
0000
0100
0001
1000
0000
,
0010
0100
1000
0010
,
0010
0001
1000
0010
0100
0001
1000
0000
,
0010
0001
0100
1000
0010
0100
0001
0000
,
0001
1000
0100
1000
0001
0010
0100
1000
0010
1000
0010
1000
0001
0100
0010
0100
,
0011
0000
0000
0000
1100
0000
0000
0000
0001
0010
0100
1000
0001
1000
0100
0010
,
0001
0000
0000
0000
;
